osu file format v14

[General]
AudioFilename: audio.mp3
AudioLeadIn: 0
PreviewTime: 100821
Countdown: 0
SampleSet: Soft
StackLeniency: 0.4
Mode: 0
LetterboxInBreaks: 0
WidescreenStoryboard: 1

[Editor]
Bookmarks: 125386
DistanceSpacing: 1
BeatDivisor: 2
GridSize: 8
TimelineZoom: 1

[Metadata]
Title:Can't Remember to Forget You feat. Rihanna
TitleUnicode:Can't Remember to Forget You feat. Rihanna
Artist:Shakira
ArtistUnicode:Shakira
Creator:arronchu1207
Version:Normal
Source:
Tags:english pop rock latin riri Nunca Me Acuerdo de Olvidarte
BeatmapID:2749109
BeatmapSetID:1326967

[Difficulty]
HPDrainRate:3
CircleSize:4
OverallDifficulty:4
ApproachRate:5
SliderMultiplier:1.2
SliderTickRate:1

[Events]
//Background and Video events
0,0,"shariri.jpg",0,0
//Break Periods
2,62977,81577
//Storyboard Layer 0 (Background)
//Storyboard Layer 1 (Fail)
//Storyboard Layer 2 (Pass)
//Storyboard Layer 3 (Foreground)
//Storyboard Layer 4 (Overlay)
//Storyboard Sound Samples

[TimingPoints]
169,434.782608695652,4,2,1,50,1,0
7125,-111.111111111111,4,2,1,50,0,0
31473,-111.111111111111,4,2,0,50,0,0
34951,-100,4,2,1,80,0,1
61038,-111.111111111111,4,2,1,50,0,0
83647,-111.111111111111,4,2,1,50,0,0
101038,-111.111111111111,4,2,0,50,0,0
104516,-100,4,2,1,80,0,1
124951,-100,4,2,1,80,0,0
125386,-100,4,2,1,80,0,1
130603,-111.111111111111,4,2,1,50,0,0
132342,-111.111111111111,4,2,1,50,0,0
160060,-111.111111111111,4,2,1,5,0,0
160168,-100,4,2,1,80,0,1
180603,-100,4,2,1,80,0,0
181038,-100,4,2,1,80,0,1
194516,-100,4,2,1,80,0,0
194951,-90.9090909090909,4,2,1,80,0,1
199299,-90.9090909090909,4,2,1,90,0,1
199734,-90.9090909090909,4,2,1,100,0,1
200168,-111.111111111111,4,2,0,40,0,0

[Colours]
Combo1 : 63,63,63
Combo2 : 249,228,134
Combo3 : 0,128,64
Combo4 : 0,128,128

[HitObjects]
16,104,7125,6,0,L|132:88,1,107.999996704102,0|8,0:0|0:0,0:0:0:0:
229,70,7995,2,0,L|225:128,2,53.9999983520508,2|0|8,0:0|0:0|0:0,0:0:0:0:
261,26,8647,2,0,P|316:10|381:28,1,107.999996704102,0|0,0:0|0:0,0:0:0:0:
413,43,9299,1,8,0:0:0:0:
510,89,9734,2,0,L|503:200,1,107.999996704102,2|8,0:0|0:0,0:0:0:0:
456,224,10386,6,0,L|463:335,1,107.999996704102,0|0,0:0|0:0,0:0:0:0:
423,369,11038,1,8,0:0:0:0:
326,321,11473,2,0,L|323:264,2,53.9999983520508,2|0|8,0:0|0:0|0:0,0:0:0:0:
286,358,12125,2,0,P|235:376|179:353,1,107.999996704102,0|0,0:0|0:0,0:0:0:0:
150,317,12777,1,8,0:0:0:0:
132,210,13212,2,0,P|134:169|148:140,1,53.9999983520508,2|8,0:0|0:0,0:0:0:0:
177,119,13647,2,0,P|218:121|247:135,1,53.9999983520508,8|0,0:0|0:0,0:0:0:0:
278,149,14082,6,0,L|267:24,1,107.999996704102,2|8,0:0|0:0,0:0:0:0:
375,56,14951,2,0,L|383:-1,2,53.9999983520508,2|0|8,0:0|0:0|0:0,0:0:0:0:
408,98,15603,2,0,L|420:225,1,107.999996704102,0|0,0:0|0:0,0:0:0:0:
453,246,16255,1,8,0:0:0:0:
383,328,16690,2,0,P|328:309|273:320,1,107.999996704102,2|8,0:0|0:0,0:0:0:0:
231,340,17342,6,0,L|239:222,1,107.999996704102,0|0,0:0|0:0,0:0:0:0:
224,179,17995,1,8,0:0:0:0:
161,91,18429,2,0,L|166:30,2,53.9999983520508,2|0|8,0:0|0:0|0:0,0:0:0:0:
124,131,19082,2,0,P|98:177|105:229,1,107.999996704102,0|0,0:0|0:0,0:0:0:0:
133,276,19734,1,8,0:0:0:0:
238,299,20168,2,0,P|271:289|300:290,1,53.9999983520508,10|8,0:0|0:0,0:0:0:0:
343,297,20603,2,0,P|333:264|334:235,1,53.9999983520508,8|8,0:0|0:0,0:0:0:0:
349,193,21038,6,0,L|460:202,1,107.999996704102,0|8,0:0|0:0,0:0:0:0:
503,174,21690,1,0,0:0:0:0:
503,174,21908,2,0,P|513:111|495:61,1,107.999996704102,2|8,0:0|0:0,0:0:0:0:
409,10,22777,2,0,P|346:0|296:18,1,107.999996704102,0|8,0:0|0:0,0:0:0:0:
266,51,23429,1,0,0:0:0:0:
266,51,23647,2,0,L|272:113,2,53.9999983520508,2|0|8,0:0|0:0|0:0,0:0:0:0:
167,7,24516,6,0,L|60:14,1,107.999996704102,0|8,0:0|0:0,0:0:0:0:
22,53,25168,1,0,0:0:0:0:
22,53,25386,2,0,P|6:110|28:175,1,107.999996704102,2|8,0:0|0:0,0:0:0:0:
51,204,26038,1,0,0:0:0:0:
51,204,26255,2,0,P|105:206|165:215,1,107.999996704102,0|8,0:0|0:0,0:0:0:0:
230,294,27125,2,0,L|292:288,1,53.9999983520508,2|8,0:0|0:0,0:0:0:0:
320,249,27560,2,0,L|314:187,1,53.9999983520508,8|0,0:0|0:0,0:0:0:0:
275,157,27995,6,0,L|282:45,1,107.999996704102,2|8,0:0|0:0,0:0:0:0:
320,11,28647,1,0,0:0:0:0:
320,11,28864,2,0,P|385:8|430:37,1,107.999996704102,2|8,0:0|0:0,0:0:0:0:
471,124,29734,2,0,L|488:246,1,107.999996704102,0|8,0:0|0:0,0:0:0:0:
474,283,30386,1,0,0:0:0:0:
474,283,30603,2,0,P|432:315|371:314,1,107.999996704102,2|8,0:0|0:0,0:0:0:0:
274,285,31473,5,2,0:0:0:0:
296,70,32342,1,2,0:0:0:0:
130,208,33212,2,0,L|63:200,1,53.9999983520508,2|2,0:0|0:0,0:0:0:0:
88,94,33864,2,0,L|141:100,1,53.9999983520508,2|2,0:0|0:0,0:0:0:0:
227,166,34516,2,0,L|280:159,1,53.9999983520508,2|0,0:0|0:0,0:0:0:0:
331,126,34951,6,0,P|318:210|336:261,1,120,14|0,0:0|0:0,0:0:0:0:
365,288,35603,1,10,0:0:0:0:
276,368,36038,1,2,0:0:0:0:
276,368,36255,2,0,P|234:352|205:355,1,60,10|0,0:0|0:0,0:0:0:0:
163,373,36690,2,0,L|167:245,1,120,10|0,0:0|0:0,0:0:0:0:
168,192,37342,1,10,0:0:0:0:
284,236,37777,1,2,0:0:0:0:
284,236,37994,2,0,P|326:220|355:223,1,60,10|0,0:0|0:0,0:0:0:0:
397,241,38429,6,0,L|393:113,1,120,10|0,0:0|0:0,0:0:0:0:
391,60,39081,1,10,0:0:0:0:
278,19,39516,1,2,0:0:0:0:
278,19,39734,2,0,P|237:17|204:32,1,60,10|0,0:0|0:0,0:0:0:0:
172,60,40168,2,0,L|183:124,1,60,10|2,0:0|0:0,0:0:0:0:
218,167,40603,2,0,L|207:231,1,60,2|10,0:0|0:0,0:0:0:0:
166,269,41038,2,0,P|111:284|40:257,1,120,2|10,0:0|0:0,0:0:0:0:
3,156,41908,6,0,P|17:100|76:52,1,120,14|0,0:0|0:0,0:0:0:0:
122,55,42560,1,10,0:0:0:0:
228,110,42995,1,2,0:0:0:0:
228,110,43212,2,0,L|288:101,1,60,10|0,0:0|0:0,0:0:0:0:
328,57,43647,2,0,L|346:190,1,120,10|0,0:0|0:0,0:0:0:0:
354,235,44299,1,10,0:0:0:0:
239,220,44734,1,2,0:0:0:0:
239,220,44951,2,0,L|179:211,1,60,10|0,0:0|0:0,0:0:0:0:
139,167,45386,6,0,L|121:300,1,120,10|0,0:0|0:0,0:0:0:0:
113,345,46038,1,10,0:0:0:0:
230,371,46473,1,2,0:0:0:0:
230,371,46690,2,0,P|266:359|310:364,1,60,10|0,0:0|0:0,0:0:0:0:
347,366,47125,2,0,L|338:296,1,60,10|0,0:0|0:0,0:0:0:0:
376,259,47560,2,0,L|385:189,1,60,0|10,0:0|0:0,0:0:0:0:
365,142,47995,2,0,P|421:166|492:156,1,120,2|8,0:0|0:0,0:0:0:0:
498,43,48864,6,0,P|442:19|371:29,1,120,14|0,0:0|0:0,0:0:0:0:
332,54,49516,2,0,L|206:47,1,120,10|2,0:0|0:0,0:0:0:0:
165,9,50168,1,10,0:0:0:0:
73,86,50603,2,0,P|54:162|73:215,1,120,10|2,0:0|0:0,0:0:0:0:
112,238,51255,2,0,L|241:225,1,120,8|2,0:0|0:0,0:0:0:0:
265,177,51908,1,10,0:0:0:0:
371,231,52342,6,0,P|393:287|377:348,1,120,10|2,0:0|0:0,0:0:0:0:
331,380,52995,2,0,L|204:362,1,120,8|2,0:0|0:0,0:0:0:0:
152,353,53647,1,10,0:0:0:0:
61,273,54082,2,0,P|57:230|72:195,1,60,10|2,0:0|0:0,0:0:0:0:
95,165,54516,2,0,P|99:122|84:87,1,60,2|10,0:0|0:0,0:0:0:0:
64,54,54951,2,0,L|199:62,1,120,2|8,0:0|0:0,0:0:0:0:
266,148,55821,6,0,L|401:140,1,120,14|0,0:0|0:0,0:0:0:0:
432,103,56473,1,10,0:0:0:0:
494,205,56908,1,2,0:0:0:0:
494,205,57125,2,0,P|503:250|494:275,1,60,10|0,0:0|0:0,0:0:0:0:
473,317,57560,2,0,L|336:301,1,120,10|0,0:0|0:0,0:0:0:0:
293,297,58212,1,10,0:0:0:0:
338,188,58647,1,2,0:0:0:0:
338,188,58864,2,0,P|347:143|338:118,1,60,10|0,0:0|0:0,0:0:0:0:
317,76,59299,6,0,L|180:92,1,120,10|0,0:0|0:0,0:0:0:0:
137,96,59951,1,10,0:0:0:0:
61,189,60386,1,2,0:0:0:0:
61,189,60603,2,0,L|68:260,1,60,10|0,0:0|0:0,0:0:0:0:
73,302,61038,1,2,0:0:0:0:
256,192,61147,12,0,62777,0:0:0:0:
94,77,82777,6,0,P|100:122|97:144,1,53.9999983520508,8|8,0:0|0:0,0:0:0:0:
65,172,83212,2,0,P|59:217|62:239,1,53.9999983520508,8|8,0:0|0:0,0:0:0:0:
89,270,83647,2,0,L|208:264,1,107.999996704102,2|8,0:0|0:0,0:0:0:0:
297,303,84516,2,0,L|305:360,2,53.9999983520508,2|0|8,0:0|0:0|0:0,0:0:0:0:
332,261,85168,2,0,L|344:134,1,107.999996704102,0|0,0:0|0:0,0:0:0:0:
349,99,85820,1,8,0:0:0:0:
263,33,86255,2,0,P|208:52|153:41,1,107.999996704102,2|8,0:0|0:0,0:0:0:0:
108,28,86907,6,0,L|116:146,1,107.999996704102,0|0,0:0|0:0,0:0:0:0:
121,189,87560,1,8,0:0:0:0:
202,259,87994,2,0,L|197:320,2,53.9999983520508,2|0|8,0:0|0:0|0:0,0:0:0:0:
242,223,88647,2,0,P|294:215|340:241,1,107.999996704102,0|0,0:0|0:0,0:0:0:0:
370,287,89299,1,8,0:0:0:0:
448,213,89733,2,0,P|458:180|457:151,1,53.9999983520508,10|8,0:0|0:0,0:0:0:0:
438,110,90168,2,0,P|405:100|376:101,1,53.9999983520508,8|8,0:0|0:0,0:0:0:0:
335,121,90603,6,0,L|224:112,1,107.999996704102,2|8,0:0|0:0,0:0:0:0:
182,140,91255,1,0,0:0:0:0:
182,140,91473,2,0,P|172:203|190:253,1,107.999996704102,2|8,0:0|0:0,0:0:0:0:
262,319,92342,2,0,P|325:329|375:311,1,107.999996704102,0|8,0:0|0:0,0:0:0:0:
405,278,92994,1,0,0:0:0:0:
405,278,93212,2,0,L|399:216,2,53.9999983520508,2|0|8,0:0|0:0|0:0,0:0:0:0:
505,237,94082,6,0,L|495:129,1,107.999996704102,0|8,0:0|0:0,0:0:0:0:
459,92,94734,1,0,0:0:0:0:
459,92,94952,2,0,P|402:76|337:98,1,107.999996704102,2|8,0:0|0:0,0:0:0:0:
308,121,95604,1,0,0:0:0:0:
308,121,95821,2,0,P|306:175|297:235,1,107.999996704102,0|8,0:0|0:0,0:0:0:0:
223,306,96690,2,0,L|161:300,1,53.9999983520508,2|8,0:0|0:0,0:0:0:0:
133,261,97125,2,0,L|139:199,1,53.9999983520508,8|8,0:0|0:0,0:0:0:0:
178,169,97560,6,0,L|171:57,1,107.999996704102,2|8,0:0|0:0,0:0:0:0:
133,23,98212,1,0,0:0:0:0:
133,23,98429,2,0,P|68:20|23:49,1,107.999996704102,2|8,0:0|0:0,0:0:0:0:
57,145,99299,2,0,L|40:267,1,107.999996704102,0|8,0:0|0:0,0:0:0:0:
54,304,99951,1,0,0:0:0:0:
54,304,100168,2,0,P|96:336|157:335,1,107.999996704102,2|8,0:0|0:0,0:0:0:0:
255,315,101038,5,2,0:0:0:0:
277,100,101907,1,2,0:0:0:0:
111,238,102777,2,0,L|44:230,1,53.9999983520508,2|2,0:0|0:0,0:0:0:0:
69,124,103429,2,0,L|122:130,1,53.9999983520508,2|2,0:0|0:0,0:0:0:0:
208,196,104081,2,0,L|261:189,1,53.9999983520508,2|2,0:0|0:0,0:0:0:0:
311,156,104516,6,0,P|321:110|301:37,1,120,14|0,0:0|0:0,0:0:0:0:
253,6,105168,1,10,0:0:0:0:
144,57,105603,1,2,0:0:0:0:
144,57,105821,2,0,P|108:61|77:51,1,60,10|0,0:0|0:0,0:0:0:0:
26,41,106255,2,0,L|34:175,1,120,10|0,0:0|0:0,0:0:0:0:
38,220,106908,1,10,0:0:0:0:
156,187,107342,1,2,0:0:0:0:
156,187,107560,2,0,P|192:191|223:181,1,60,10|0,0:0|0:0,0:0:0:0:
274,171,107994,6,0,L|266:305,1,120,10|0,0:0|0:0,0:0:0:0:
260,350,108647,1,10,0:0:0:0:
378,371,109082,1,2,0:0:0:0:
378,371,109299,2,0,L|370:307,1,60,10|0,0:0|0:0,0:0:0:0:
383,252,109734,2,0,P|416:242|445:247,1,60,10|2,0:0|0:0,0:0:0:0:
499,258,110168,2,0,P|489:225|494:196,1,60,2|10,0:0|0:0,0:0:0:0:
511,142,110603,2,0,L|497:12,1,120,2|10,0:0|0:0,0:0:0:0:
378,11,111473,6,0,P|328:8|265:38,1,120,14|0,0:0|0:0,0:0:0:0:
241,92,112125,1,10,0:0:0:0:
303,194,112560,1,2,0:0:0:0:
303,194,112777,2,0,P|310:231|302:264,1,60,10|0,0:0|0:0,0:0:0:0:
283,308,113212,2,0,L|155:300,1,120,10|0,0:0|0:0,0:0:0:0:
110,328,113864,1,10,0:0:0:0:
85,215,114299,1,2,0:0:0:0:
85,215,114516,2,0,P|78:178|86:145,1,60,10|0,0:0|0:0,0:0:0:0:
105,101,114951,6,0,L|233:109,1,120,10|0,0:0|0:0,0:0:0:0:
278,81,115603,1,10,0:0:0:0:
380,19,116038,1,2,0:0:0:0:
380,19,116255,2,0,L|448:13,1,60,10|0,0:0|0:0,0:0:0:0:
496,33,116690,2,0,P|501:77|490:104,1,60,10|2,0:0|0:0,0:0:0:0:
448,127,117125,2,0,P|443:171|454:198,1,60,2|10,0:0|0:0,0:0:0:0:
490,227,117560,2,0,P|510:282|483:344,1,120,2|8,0:0|0:0,0:0:0:0:
373,368,118429,6,0,L|237:351,1,120,14|0,0:0|0:0,0:0:0:0:
197,375,119082,2,0,P|211:311|192:247,1,120,10|2,0:0|0:0,0:0:0:0:
154,217,119734,1,10,0:0:0:0:
37,187,120168,2,0,L|26:63,1,120,10|2,0:0|0:0,0:0:0:0:
20,7,120821,2,0,P|83:35|145:30,1,120,8|2,0:0|0:0,0:0:0:0:
189,12,121473,1,10,0:0:0:0:
295,66,121908,6,0,P|305:119|284:191,1,120,10|2,0:0|0:0,0:0:0:0:
247,225,122560,2,0,L|373:235,1,120,8|2,0:0|0:0,0:0:0:0:
405,188,123212,1,10,0:0:0:0:
493,269,123647,2,0,P|500:313|491:342,1,60,10|2,0:0|0:0,0:0:0:0:
454,369,124082,2,0,P|410:376|381:367,1,60,2|10,0:0|0:0,0:0:0:0:
342,345,124516,2,0,L|217:356,1,120,2|8,0:0|0:0,0:0:0:0:
162,364,125168,1,8,0:0:0:0:
162,364,125386,5,14,0:0:0:0:
65,292,125821,1,10,0:0:0:0:
137,197,126255,2,0,P|148:132|128:73,1,120,10|10,0:0|0:0,0:0:0:0:
103,28,126908,1,0,0:0:0:0:
103,28,127125,2,0,P|166:26|232:18,1,120,10|10,0:0|0:0,0:0:0:0:
317,93,127995,2,0,P|380:95|446:103,1,120,10|10,0:0|0:0,0:0:0:0:
488,209,128864,5,10,0:0:0:0:
492,328,129299,1,10,0:0:0:0:
382,372,129734,1,8,0:0:0:0:
382,372,129951,1,0,0:0:0:0:
337,331,130168,2,0,L|341:258,1,60,10|2,0:0|0:0,0:0:0:0:
300,234,130603,1,2,0:0:0:0:
300,234,132342,6,0,P|252:217|180:232,1,107.999996704102,2|8,0:0|0:0,0:0:0:0:
149,251,132995,1,0,0:0:0:0:
149,251,133212,2,0,P|158:165|159:135,1,107.999996704102,2|8,0:0|0:0,0:0:0:0:
228,60,134082,2,0,P|279:87|349:75,1,107.999996704102,2|8,0:0|0:0,0:0:0:0:
378,63,134734,1,0,0:0:0:0:
378,63,134951,2,0,P|382:137|391:201,1,107.999996704102,2|8,0:0|0:0,0:0:0:0:
470,238,135821,6,0,P|473:296|433:335,1,107.999996704102,2|8,0:0|0:0,0:0:0:0:
392,346,136473,1,0,0:0:0:0:
392,346,136690,2,0,P|327:334|282:332,1,107.999996704102,2|8,0:0|0:0,0:0:0:0:
187,378,137560,1,2,0:0:0:0:
128,287,137995,1,8,0:0:0:0:
24,296,138429,1,0,0:0:0:0:
24,296,138647,2,0,P|37:253|35:229,1,53.9999983520508,8|8,0:0|0:0,0:0:0:0:
29,196,139082,1,0,0:0:0:0:
29,196,139299,6,0,L|29:85,1,107.999996704102,2|8,0:0|0:0,0:0:0:0:
61,46,139951,1,0,0:0:0:0:
61,46,140168,2,0,P|117:35|172:51,1,107.999996704102,2|8,0:0|0:0,0:0:0:0:
260,99,141038,2,0,P|312:111|364:100,1,107.999996704102,2|8,0:0|0:0,0:0:0:0:
408,69,141690,1,0,0:0:0:0:
408,69,141908,2,0,P|414:133|430:188,1,107.999996704102,2|8,0:0|0:0,0:0:0:0:
496,256,142777,6,0,P|490:320|474:375,1,107.999996704102,2|8,0:0|0:0,0:0:0:0:
427,380,143429,1,0,0:0:0:0:
427,380,143647,2,0,L|307:356,1,107.999996704102,2|8,0:0|0:0,0:0:0:0:
216,333,144516,1,14,0:0:0:0:
216,333,146255,6,0,P|168:316|96:331,1,107.999996704102,2|8,0:0|0:0,0:0:0:0:
65,350,146908,1,0,0:0:0:0:
65,350,147125,2,0,P|74:264|75:234,1,107.999996704102,2|8,0:0|0:0,0:0:0:0:
90,135,147995,2,0,P|141:162|211:150,1,107.999996704102,2|8,0:0|0:0,0:0:0:0:
240,138,148647,1,0,0:0:0:0:
240,138,148864,2,0,P|244:212|253:276,1,107.999996704102,2|8,0:0|0:0,0:0:0:0:
320,326,149734,6,0,P|378:329|417:289,1,107.999996704102,2|8,0:0|0:0,0:0:0:0:
417,247,150386,1,0,0:0:0:0:
417,247,150603,2,0,P|412:182|403:137,1,107.999996704102,2|8,0:0|0:0,0:0:0:0:
350,45,151473,1,2,0:0:0:0:
245,17,151908,1,8,0:0:0:0:
143,43,152342,1,0,0:0:0:0:
143,43,152560,2,0,P|130:86|132:110,1,53.9999983520508,8|8,0:0|0:0,0:0:0:0:
157,147,152995,1,0,0:0:0:0:
157,147,153212,6,0,L|157:258,1,107.999996704102,2|8,0:0|0:0,0:0:0:0:
175,311,153864,1,0,0:0:0:0:
175,311,154081,2,0,P|119:300|64:316,1,107.999996704102,2|8,0:0|0:0,0:0:0:0:
16,218,154951,2,0,P|28:165|17:113,1,107.999996704102,2|8,0:0|0:0,0:0:0:0:
11,64,155603,1,0,0:0:0:0:
11,64,155821,2,0,P|75:58|130:42,1,107.999996704102,2|8,0:0|0:0,0:0:0:0:
192,124,156690,6,0,P|256:130|311:146,1,107.999996704102,2|8,0:0|0:0,0:0:0:0:
316,193,157342,1,0,0:0:0:0:
316,193,157560,2,0,L|310:306,1,107.999996704102,2|8,0:0|0:0,0:0:0:0:
216,354,158429,2,0,B|162:373|89:342|80:271|80:271|107:233|101:168|63:144,1,323.999990112305,6|0,0:0|0:0,0:0:0:0:
28,28,160168,6,0,P|112:15|163:33,1,120,14|0,0:0|0:0,0:0:0:0:
190,62,160820,1,10,0:0:0:0:
302,13,161255,1,2,0:0:0:0:
302,13,161472,2,0,P|344:29|373:26,1,60,10|0,0:0|0:0,0:0:0:0:
415,8,161907,2,0,L|411:136,1,120,10|0,0:0|0:0,0:0:0:0:
444,177,162559,1,10,0:0:0:0:
330,206,162994,1,2,0:0:0:0:
330,206,163211,2,0,P|288:222|259:219,1,60,10|0,0:0|0:0,0:0:0:0:
217,201,163647,6,0,L|221:329,1,120,10|0,0:0|0:0,0:0:0:0:
223,382,164298,1,10,0:0:0:0:
112,351,164733,1,2,0:0:0:0:
112,351,164951,2,0,P|71:353|38:338,1,60,10|0,0:0|0:0,0:0:0:0:
6,310,165385,2,0,L|17:246,1,60,10|2,0:0|0:0,0:0:0:0:
52,203,165820,2,0,L|41:139,1,60,2|10,0:0|0:0,0:0:0:0:
70,90,166255,2,0,P|125:75|196:102,1,120,2|10,0:0|0:0,0:0:0:0:
218,207,167125,6,0,P|232:263|291:311,1,120,14|0,0:0|0:0,0:0:0:0:
337,308,167777,1,10,0:0:0:0:
437,240,168212,1,2,0:0:0:0:
437,240,168429,2,0,L|446:180,1,60,10|0,0:0|0:0,0:0:0:0:
490,140,168864,2,0,L|357:122,1,120,10|0,0:0|0:0,0:0:0:0:
312,114,169516,1,10,0:0:0:0:
212,179,169951,1,2,0:0:0:0:
212,179,170168,2,0,L|203:239,1,60,10|0,0:0|0:0,0:0:0:0:
159,279,170603,6,0,L|292:297,1,120,10|0,0:0|0:0,0:0:0:0:
337,305,171255,1,10,0:0:0:0:
445,250,171690,1,2,0:0:0:0:
445,250,171907,2,0,P|433:214|438:170,1,60,10|0,0:0|0:0,0:0:0:0:
440,133,172342,2,0,L|370:142,1,60,10|2,0:0|0:0,0:0:0:0:
333,104,172777,2,0,L|263:95,1,60,2|10,0:0|0:0,0:0:0:0:
216,115,173212,2,0,P|240:59|230:-12,1,120,2|8,0:0|0:0,0:0:0:0:
122,43,174082,6,0,P|98:99|108:170,1,120,14|0,0:0|0:0,0:0:0:0:
133,209,174734,2,0,L|126:335,1,120,10|2,0:0|0:0,0:0:0:0:
173,366,175386,1,10,0:0:0:0:
284,321,175821,2,0,P|360:340|413:321,1,120,10|2,0:0|0:0,0:0:0:0:
436,282,176473,2,0,L|423:153,1,120,8|2,0:0|0:0,0:0:0:0:
442,105,177126,1,10,0:0:0:0:
346,33,177560,6,0,P|290:11|229:27,1,120,10|2,0:0|0:0,0:0:0:0:
197,73,178213,2,0,L|215:200,1,120,8|2,0:0|0:0,0:0:0:0:
224,252,178865,1,10,0:0:0:0:
253,368,179300,2,0,P|210:372|175:357,1,60,10|0,0:0|0:0,0:0:0:0:
145,334,179734,2,0,P|102:330|67:345,1,60,2|10,0:0|0:0,0:0:0:0:
34,365,180169,2,0,L|42:230,1,120,2|8,0:0|0:0,0:0:0:0:
46,185,180821,1,8,0:0:0:0:
46,185,181038,5,14,0:0:0:0:
104,80,181473,1,10,0:0:0:0:
209,137,181908,2,0,P|263:137|320:104,1,120,10|10,0:0|0:0,0:0:0:0:
359,61,182560,1,0,0:0:0:0:
359,61,182777,2,0,P|370:127|388:185,1,120,10|10,0:0|0:0,0:0:0:0:
501,210,183647,2,0,P|490:276|472:334,1,120,10|10,0:0|0:0,0:0:0:0:
426,362,184299,1,0,0:0:0:0:
426,362,184516,6,0,L|296:350,1,120,10|10,0:0|0:0,0:0:0:0:
186,353,185386,2,0,L|56:365,1,120,10|10,0:0|0:0,0:0:0:0:
18,328,186038,1,2,0:0:0:0:
18,328,186255,2,0,P|12:292|19:263,1,60,10|2,0:0|0:0,0:0:0:0:
54,222,186690,2,0,P|60:186|53:157,1,60,10|2,0:0|0:0,0:0:0:0:
27,110,187125,2,0,P|79:115|146:72,1,120,10|10,0:0|0:0,0:0:0:0:
229,7,187995,5,14,0:0:0:0:
308,96,188429,1,8,0:0:0:0:
410,32,188864,2,0,P|429:90|413:152,1,120,8|10,0:0|0:0,0:0:0:0:
382,196,189516,1,0,0:0:0:0:
382,196,189734,2,0,L|392:271,2,60,10|2|10,0:0|0:0|0:0,0:0:0:0:
274,143,190603,2,0,P|219:139|154:148,1,120,8|10,0:0|0:0,0:0:0:0:
99,171,191255,1,2,0:0:0:0:
99,171,191473,6,0,L|37:158,2,60,10|2|10,0:0|0:0|0:0,0:0:0:0:
164,271,192342,2,0,L|151:333,1,60,8|2,0:0|0:0,0:0:0:0:
193,373,192777,1,10,0:0:0:0:
279,290,193212,2,0,P|318:286|349:300,1,60,10|2,0:0|0:0,0:0:0:0:
388,323,193647,2,0,P|416:330|446:325,1,60,10|2,0:0|0:0,0:0:0:0:
492,286,194082,2,0,L|504:154,1,120,10|8,0:0|0:0,0:0:0:0:
496,111,194734,1,0,0:0:0:0:
496,111,194951,6,0,P|441:79|368:102,1,132.00000402832,14|8,0:0|0:0,0:0:0:0:
263,161,195821,2,0,L|192:148,1,66.0000020141602,10|2,0:0|0:0,0:0:0:0:
149,105,196255,2,0,L|82:115,1,66.0000020141602,10|0,0:0|0:0,0:0:0:0:
35,160,196690,2,0,P|19:203|40:285,1,132.00000402832,14|8,0:0|0:0,0:0:0:0:
151,354,197560,2,0,P|179:365|225:362,1,66.0000020141602,10|2,0:0|0:0,0:0:0:0:
259,316,197995,2,0,P|287:305|332:308,1,66.0000020141602,10|0,0:0|0:0,0:0:0:0:
386,322,198429,6,0,L|398:181,1,132.00000402832,14|10,0:0|0:0,0:0:0:0:
354,65,199299,1,10,2:2:0:0:
294,37,199516,1,0,2:2:0:0:
246,82,199734,2,0,L|256:148,1,66.0000020141602,10|0,2:2|2:2,0:0:0:0:
268,207,200168,5,2,0:0:0:0:
