osu file format v14

[General]
AudioFilename: audio.mp3
AudioLeadIn: 0
PreviewTime: 100821
Countdown: 0
SampleSet: Soft
StackLeniency: 0.7
Mode: 0
LetterboxInBreaks: 0
WidescreenStoryboard: 1

[Editor]
Bookmarks: 125386
DistanceSpacing: 1.1
BeatDivisor: 4
GridSize: 8
TimelineZoom: 1

[Metadata]
Title:Can't Remember to Forget You feat. Rihanna
TitleUnicode:Can't Remember to Forget You feat. Rihanna
Artist:Shakira
ArtistUnicode:Shakira
Creator:arronchu1207
Version:Kissing in the Moonlight
Source:
Tags:english pop rock latin riri Nunca Me Acuerdo de Olvidarte
BeatmapID:2749108
BeatmapSetID:1326967

[Difficulty]
HPDrainRate:6
CircleSize:4.6
OverallDifficulty:8.5
ApproachRate:8.8
SliderMultiplier:1.7
SliderTickRate:1

[Events]
//Background and Video events
0,0,"shariri.jpg",0,0
//Break Periods
2,62977,81908
//Storyboard Layer 0 (Background)
//Storyboard Layer 1 (Fail)
//Storyboard Layer 2 (Pass)
//Storyboard Layer 3 (Foreground)
//Storyboard Layer 4 (Overlay)
//Storyboard Sound Samples

[TimingPoints]
169,434.782608695652,4,2,1,50,1,0
7125,-125,4,2,1,50,0,0
31473,-125,4,2,0,50,0,0
34951,-100,4,2,1,80,0,1
41364,-100,4,2,1,5,0,1
41473,-100,4,2,1,80,0,1
41582,-100,4,2,1,5,0,1
41690,-100,4,2,1,80,0,1
41799,-100,4,2,1,5,0,1
41908,-100,4,2,1,80,0,1
48429,-100,4,2,1,80,0,1
48538,-100,4,2,1,5,0,1
48647,-100,4,2,1,80,0,1
48755,-100,4,2,1,5,0,1
48864,-100,4,2,1,80,0,1
55386,-100,4,2,1,80,0,1
55495,-100,4,2,1,5,0,1
55603,-100,4,2,1,80,0,1
55712,-100,4,2,1,5,0,1
55821,-100,4,2,1,80,0,1
61038,-125,4,2,1,50,0,0
83647,-125,4,2,1,50,0,0
101038,-125,4,2,0,50,0,0
104516,-100,4,2,1,80,0,1
110929,-100,4,2,1,5,0,1
111038,-100,4,2,1,80,0,1
111147,-100,4,2,1,5,0,1
111255,-100,4,2,1,80,0,1
111364,-100,4,2,1,5,0,1
111473,-100,4,2,1,80,0,1
118103,-100,4,2,1,5,0,1
118212,-100,4,2,1,80,0,1
118321,-100,4,2,1,5,0,1
118429,-100,4,2,1,80,0,1
124951,-100,4,2,1,80,0,0
125386,-50,4,2,1,80,0,1
125821,-83.3333333333333,4,2,1,80,0,1
126364,-83.3333333333333,4,2,1,5,0,1
126473,-83.3333333333333,4,2,1,80,0,1
126582,-83.3333333333333,4,2,1,5,0,1
126690,-83.3333333333333,4,2,1,80,0,1
128103,-83.3333333333333,4,2,1,5,0,1
128212,-83.3333333333333,4,2,1,80,0,1
128321,-83.3333333333333,4,2,1,5,0,1
128429,-83.3333333333333,4,2,1,80,0,1
130603,-125,4,2,1,50,0,0
132342,-111.111111111111,4,2,1,50,0,0
160060,-111.111111111111,4,2,1,5,0,0
160168,-90.9090909090909,4,2,1,80,0,1
166582,-90.9090909090909,4,2,1,5,0,1
166690,-90.9090909090909,4,2,1,80,0,1
166799,-90.9090909090909,4,2,1,5,0,1
166908,-90.9090909090909,4,2,1,80,0,1
167016,-90.9090909090909,4,2,1,5,0,1
167125,-90.9090909090909,4,2,1,80,0,1
173755,-90.9090909090909,4,2,1,5,0,1
173864,-90.9090909090909,4,2,1,80,0,1
173973,-90.9090909090909,4,2,1,5,0,1
174082,-90.9090909090909,4,2,1,80,0,1
180603,-90.9090909090909,4,2,1,80,0,0
181038,-50,4,2,1,80,0,1
181364,-50,4,2,1,5,0,1
181473,-83.3333333333333,4,2,1,80,0,1
182016,-90.9090909090909,4,2,1,5,0,1
182125,-83.3333333333333,4,2,1,80,0,1
182234,-90.9090909090909,4,2,1,5,0,1
182342,-83.3333333333333,4,2,1,80,0,1
183755,-90.9090909090909,4,2,1,5,0,1
183864,-83.3333333333333,4,2,1,80,0,1
183973,-90.9090909090909,4,2,1,5,0,1
184082,-83.3333333333333,4,2,1,80,0,1
185495,-90.9090909090909,4,2,1,5,0,1
185603,-83.3333333333333,4,2,1,80,0,1
185712,-90.9090909090909,4,2,1,5,0,1
185821,-83.3333333333333,4,2,1,80,0,1
187668,-90.9090909090909,4,2,1,5,0,1
187777,-83.3333333333333,4,2,1,80,0,1
187886,-90.9090909090909,4,2,1,5,0,1
187995,-83.3333333333333,4,2,1,80,0,1
193103,-83.3333333333333,4,2,1,5,0,1
193212,-83.3333333333333,4,2,1,80,0,1
194516,-83.3333333333333,4,2,1,80,0,0
194625,-83.3333333333333,4,2,1,5,0,0
194734,-83.3333333333333,4,2,1,80,0,0
194842,-83.3333333333333,4,2,1,5,0,0
194951,-83.3333333333333,4,2,1,80,0,1
199299,-83.3333333333333,4,2,1,90,0,1
199734,-83.3333333333333,4,2,1,100,0,1
200168,-125,4,2,0,40,0,0

[Colours]
Combo1 : 63,63,63
Combo2 : 249,228,134
Combo3 : 0,128,64
Combo4 : 0,128,128

[HitObjects]
121,264,7125,6,0,P|162:282|249:244,1,136,0|8,0:0|0:0,0:0:0:0:
286,158,7777,1,0,0:0:0:0:
166,123,7995,2,0,P|175:178|177:196,1,68,2|0,0:0|0:0,0:0:0:0:
286,158,8429,2,0,P|290:124|296:90,1,68,8|0,0:0|0:0,0:0:0:0:
471,208,8864,6,0,B|407:195|405:253|332:233,1,136,0|8,0:0|0:0,0:0:0:0:
285,157,9516,1,0,0:0:0:0:
196,278,9734,2,0,P|239:283|280:298,1,68,2|0,0:0|0:0,0:0:0:0:
262,290,10060,1,0,0:0:0:0:
262,290,10168,1,8,0:0:0:0:
210,378,10386,1,0,0:0:0:0:
90,295,10603,6,0,L|106:149,1,136,0|8,0:0|0:0,0:0:0:0:
70,63,11255,1,0,0:0:0:0:
204,10,11473,2,0,P|193:50|191:86,1,68,2|0,0:0|0:0,0:0:0:0:
275,210,11908,2,0,P|271:176|261:143,1,68,8|0,0:0|0:0,0:0:0:0:
203,262,12342,6,0,P|264:299|331:279,1,136,0|8,0:0|0:0,0:0:0:0:
393,209,12995,1,0,0:0:0:0:
316,141,13212,1,2,0:0:0:0:
466,290,13429,1,8,0:0:0:0:
481,273,13537,1,8,0:0:0:0:
493,254,13646,1,8,0:0:0:0:
500,233,13755,1,8,0:0:0:0:
502,210,13863,1,8,0:0:0:0:
499,188,13972,1,8,0:0:0:0:
490,167,14082,6,0,L|352:177,1,136,2|8,0:0|0:0,0:0:0:0:
255,151,14734,1,0,0:0:0:0:
330,9,14951,2,0,P|340:49|342:86,1,68,2|0,0:0|0:0,0:0:0:0:
192,81,15386,2,0,P|195:47|204:14,1,68,8|0,0:0|0:0,0:0:0:0:
255,151,15821,6,0,P|196:176|122:144,1,136,0|8,0:0|0:0,0:0:0:0:
64,75,16473,1,0,0:0:0:0:
2,241,16690,2,0,P|41:232|77:229,1,68,2|0,0:0|0:0,0:0:0:0:
68,229,17016,1,0,0:0:0:0:
68,229,17125,1,8,0:0:0:0:
148,292,17342,1,0,0:0:0:0:
245,202,17560,6,0,L|231:58,1,136,0|8,0:0|0:0,0:0:0:0:
309,0,18212,1,0,0:0:0:0:
408,109,18429,2,0,P|374:114|341:122,1,68,2|0,0:0|0:0,0:0:0:0:
454,253,18864,2,0,P|466:221|475:188,1,68,8|0,0:0|0:0,0:0:0:0:
302,244,19299,6,0,P|290:305|323:369,1,136,0|8,0:0|0:0,0:0:0:0:
391,293,19951,1,0,0:0:0:0:
391,293,20060,1,8,0:0:0:0:
391,293,20168,1,10,0:0:0:0:
352,155,20386,1,8,0:0:0:0:
318,150,20494,1,8,0:0:0:0:
284,146,20603,1,8,0:0:0:0:
203,208,20821,1,8,0:0:0:0:
434,199,21038,6,0,P|443:154|438:122,1,68,0|0,0:0|0:0,0:0:0:0:
356,0,21473,2,0,P|354:33|362:66,1,68,8|0,0:0|0:0,0:0:0:0:
434,199,21908,2,0,P|380:197|286:233,1,136,2|8,0:0|0:0,0:0:0:0:
242,304,22560,1,0,0:0:0:0:
130,165,22777,6,0,L|209:171,1,68,0|0,0:0|0:0,0:0:0:0:
197,170,23103,1,0,0:0:0:0:
197,170,23212,1,8,0:0:0:0:
284,116,23429,1,0,0:0:0:0:
191,1,23647,2,0,P|191:43|199:82,1,68,2|0,0:0|0:0,0:0:0:0:
369,154,24082,2,0,P|374:120|373:86,1,68,8|0,0:0|0:0,0:0:0:0:
266,223,24516,5,0,0:0:0:0:
266,223,24734,1,0,0:0:0:0:
353,275,24951,2,0,L|435:266,1,68,8|0,0:0|0:0,0:0:0:0:
276,358,25386,2,0,P|274:281|263:208,1,136,2|8,0:0|0:0,0:0:0:0:
196,147,26038,1,0,0:0:0:0:
101,252,26255,5,0,0:0:0:0:
101,252,26473,1,0,0:0:0:0:
30,178,26690,2,0,P|21:132|25:97,1,68,8|0,0:0|0:0,0:0:0:0:
126,14,27125,1,2,0:0:0:0:
221,126,27342,1,8,0:0:0:0:
243,128,27450,1,8,0:0:0:0:
265,125,27559,1,8,0:0:0:0:
286,117,27668,1,8,0:0:0:0:
305,104,27776,1,8,0:0:0:0:
319,86,27885,1,8,0:0:0:0:
330,65,27995,6,0,L|397:71,1,68,2|0,0:0|0:0,0:0:0:0:
512,161,28429,2,0,L|445:167,1,68,8|0,0:0|0:0,0:0:0:0:
269,220,28864,2,0,P|322:222|407:270,1,136,2|8,0:0|0:0,0:0:0:0:
442,349,29516,1,0,0:0:0:0:
281,384,29734,6,0,P|284:335|281:304,1,68,0|0,0:0|0:0,0:0:0:0:
267,152,30168,2,0,P|265:185|268:219,1,68,8|0,0:0|0:0,0:0:0:0:
355,106,30603,2,0,P|327:74|222:64,1,136,2|8,0:0|0:0,0:0:0:0:
106,115,31255,1,2,0:0:0:0:
109,124,31473,5,2,0:0:0:0:
406,269,32125,1,2,0:0:0:0:
403,260,32343,5,2,0:0:0:0:
255,26,32995,1,2,0:0:0:0:
348,174,33212,5,2,0:0:0:0:
348,174,33429,2,0,P|375:130|361:42,1,136,2|2,0:0|0:0,0:0:0:0:
255,26,34082,2,0,P|228:70|242:158,1,136,2|2,0:0|0:0,0:0:0:0:
275,246,34734,1,0,0:0:0:0:
407,109,34951,6,0,P|363:102|313:98,1,85,14|0,0:0|0:0,0:0:0:0:
237,150,35386,1,0,0:0:0:0:
428,283,35603,2,0,P|440:230|428:184,1,85,10|0,0:0|0:0,0:0:0:0:
320,326,36038,1,2,0:0:0:0:
503,368,36255,1,10,0:0:0:0:
299,321,36473,1,0,0:0:0:0:
454,150,36690,6,0,P|462:205|462:244,1,85,10|0,0:0|0:0,0:0:0:0:
346,199,37125,1,0,0:0:0:0:
421,38,37342,2,0,L|512:48,1,85,10|0,0:0|0:0,0:0:0:0:
346,199,37777,1,2,0:0:0:0:
316,22,37995,1,10,0:0:0:0:
349,221,38212,1,0,0:0:0:0:
505,47,38429,6,0,P|464:49|416:65,1,85,10|0,0:0|0:0,0:0:0:0:
333,120,38864,1,0,0:0:0:0:
170,19,39082,2,0,L|257:11,1,85,10|0,0:0|0:0,0:0:0:0:
126,204,39516,1,2,0:0:0:0:
44,136,39734,2,0,P|35:94|54:49,1,85,10|0,0:0|0:0,0:0:0:0:
206,157,40168,5,10,0:0:0:0:
51,257,40386,1,2,0:0:0:0:
209,146,40603,1,2,0:0:0:0:
49,267,40821,1,10,0:0:0:0:
257,357,41038,2,0,L|264:217,1,127.5,2|0,0:0|0:0,0:0:0:0:
318,158,41473,2,0,P|337:174|339:203,1,42.5,10|0,0:0|0:0,0:0:0:0:
443,124,41690,2,0,P|451:147|438:173,1,42.5,0|0,0:0|0:0,0:0:0:0:
464,349,41908,6,0,P|483:299|477:260,1,85,14|0,0:0|0:0,0:0:0:0:
447,164,42342,1,0,0:0:0:0:
306,279,42560,2,0,L|392:292,1,85,10|0,0:0|0:0,0:0:0:0:
213,368,42995,1,2,0:0:0:0:
228,189,43212,1,10,0:0:0:0:
210,384,43429,1,0,0:0:0:0:
422,242,43647,6,0,P|372:238|335:245,1,85,10|0,0:0|0:0,0:0:0:0:
222,294,44082,1,0,0:0:0:0:
270,84,44299,2,0,P|278:134|278:184,1,85,10|0,0:0|0:0,0:0:0:0:
144,20,44734,1,2,0:0:0:0:
327,0,44951,1,10,0:0:0:0:
121,23,45168,1,0,0:0:0:0:
278,168,45386,6,0,L|282:74,1,85,10|0,0:0|0:0,0:0:0:0:
211,0,45821,1,0,0:0:0:0:
77,117,46038,2,0,P|116:130|165:120,1,85,10|0,0:0|0:0,0:0:0:0:
17,21,46473,1,2,0:0:0:0:
2,203,46690,1,10,0:0:0:0:
20,0,46908,1,0,0:0:0:0:
158,123,47125,6,0,L|69:132,1,85,10|0,0:0|0:0,0:0:0:0:
218,12,47560,1,0,0:0:0:0:
234,214,47777,1,10,0:0:0:0:
202,3,47995,1,2,0:0:0:0:
376,75,48212,1,2,0:0:0:0:
376,75,48321,1,0,0:0:0:0:
376,75,48429,2,0,L|370:127,1,42.5,8|0,0:0|0:0,0:0:0:0:
259,79,48647,2,0,L|265:131,1,42.5,2|0,0:0|0:0,0:0:0:0:
172,269,48864,6,0,P|158:220|164:182,1,85,14|0,0:0|0:0,0:0:0:0:
259,79,49299,1,0,0:0:0:0:
338,209,49516,2,0,L|252:219,1,85,10|0,0:0|0:0,0:0:0:0:
417,338,49951,1,2,0:0:0:0:
435,193,50168,1,10,0:0:0:0:
415,362,50386,1,0,0:0:0:0:
253,218,50603,5,10,0:0:0:0:
281,384,50821,1,2,0:0:0:0:
249,202,51038,1,2,0:0:0:0:
163,366,51255,2,0,P|118:371|35:277,1,170,8|2,0:0|0:0,0:0:0:0:
115,127,51908,1,10,0:0:0:0:
130,274,52125,1,0,0:0:0:0:
26,75,52342,5,10,0:0:0:0:
1,220,52560,1,2,0:0:0:0:
30,58,52777,1,2,0:0:0:0:
165,197,52995,2,0,B|249:215|241:149|334:166,1,170,8|2,0:0|0:0,0:0:0:0:
312,339,53647,2,0,B|294:301|294:301|304:260,1,85,10|0,0:0|0:0,0:0:0:0:
424,161,54082,5,10,0:0:0:0:
386,290,54299,1,2,0:0:0:0:
420,151,54516,1,2,0:0:0:0:
392,299,54733,1,10,0:0:0:0:
511,178,54951,2,0,P|513:129|483:84,1,85,2|0,0:0|0:0,0:0:0:0:
426,56,55277,1,2,0:0:0:0:
420,50,55386,2,0,L|422:2,1,42.5,8|0,0:0|0:0,0:0:0:0:
307,76,55603,2,0,L|305:28,1,42.5
236,221,55821,6,0,P|235:167|222:128,1,85,14|0,0:0|0:0,0:0:0:0:
163,41,56255,1,0,0:0:0:0:
52,198,56473,2,0,L|138:190,1,85,10|0,0:0|0:0,0:0:0:0:
268,324,56908,1,2,0:0:0:0:
105,293,57125,1,10,0:0:0:0:
286,329,57342,1,0,0:0:0:0:
222,137,57560,6,0,P|233:185|235:235,1,85,10|0,0:0|0:0,0:0:0:0:
270,47,57995,1,0,0:0:0:0:
399,222,58212,2,0,P|388:270|386:320,1,85,10|0,0:0|0:0,0:0:0:0:
351,132,58647,1,2,0:0:0:0:
505,185,58864,1,10,0:0:0:0:
335,126,59082,1,0,0:0:0:0:
504,0,59299,6,0,P|505:42|489:80,1,85,10|0,0:0|0:0,0:0:0:0:
335,125,59734,1,0,0:0:0:0:
444,270,59951,2,0,P|427:231|429:189,1,85,10|0,0:0|0:0,0:0:0:0:
251,384,60386,1,2,0:0:0:0:
326,358,60604,1,10,0:0:0:0:
406,377,60821,1,0,0:0:0:0:
270,251,61038,5,2,0:0:0:0:
256,192,61147,12,0,62777,0:0:0:0:
104,52,82777,5,8,0:0:0:0:
166,168,82995,1,8,0:0:0:0:
187,174,83103,1,8,0:0:0:0:
210,176,83212,1,8,0:0:0:0:
232,172,83321,1,8,0:0:0:0:
252,162,83429,1,8,0:0:0:0:
270,148,83538,1,8,0:0:0:0:
282,129,83647,6,0,L|276:266,1,136,2|8,0:0|0:0,0:0:0:0:
326,353,84299,1,0,0:0:0:0:
449,243,84516,2,0,P|409:251|377:254,1,68,2|0,0:0|0:0,0:0:0:0:
258,342,84951,2,0,P|292:346|326:353,1,68,8|0,0:0|0:0,0:0:0:0:
164,359,85386,6,0,P|127:328|131:237,1,136,0|8,0:0|0:0,0:0:0:0:
255,157,86038,1,0,0:0:0:0:
255,157,86147,1,0,0:0:0:0:
255,157,86255,2,0,P|208:166|186:168,1,68,2|0,0:0|0:0,0:0:0:0:
303,71,86690,2,0,P|336:74|370:81,1,68,8|0,0:0|0:0,0:0:0:0:
511,195,87125,6,0,L|370:210,1,136,0|8,0:0|0:0,0:0:0:0:
303,281,87777,1,0,0:0:0:0:
235,119,87995,2,0,P|249:159|252:190,1,68,2|0,0:0|0:0,0:0:0:0:
130,246,88429,2,0,P|134:212|146:180,1,68,8|0,0:0|0:0,0:0:0:0:
199,315,88864,6,0,P|150:342|63:318,1,136,0|8,0:0|0:0,0:0:0:0:
10,246,89516,1,0,0:0:0:0:
10,246,89625,1,8,0:0:0:0:
10,246,89734,1,10,0:0:0:0:
121,108,89951,1,8,0:0:0:0:
123,141,90059,1,8,0:0:0:0:
125,175,90168,1,8,0:0:0:0:
27,146,90386,1,8,0:0:0:0:
152,20,90603,6,0,P|188:33|231:40,1,68,2|0,0:0|0:0,0:0:0:0:
368,65,91038,2,0,P|334:71|302:83,1,68,8|0,0:0|0:0,0:0:0:0:
441,138,91473,2,0,P|468:95|450:4,1,136,2|8,0:0|0:0,0:0:0:0:
368,65,92125,1,0,0:0:0:0:
427,233,92342,6,0,P|468:223|496:220,1,68,0|0,0:0|0:0,0:0:0:0:
350,164,92777,2,0,P|309:154|281:151,1,68,8|0,0:0|0:0,0:0:0:0:
201,212,93212,1,2,0:0:0:0:
201,212,93429,1,0,0:0:0:0:
288,341,93647,2,0,L|291:256,1,68,8|0,0:0|0:0,0:0:0:0:
186,373,94082,5,0,0:0:0:0:
186,373,94299,1,0,0:0:0:0:
73,284,94516,2,0,P|108:284|149:273,1,68,8|0,0:0|0:0,0:0:0:0:
142,77,94951,2,0,P|104:96|101:188,1,136,2|8,0:0|0:0,0:0:0:0:
196,164,95603,1,0,0:0:0:0:
143,9,95821,6,0,P|138:46|143:81,1,68,0|0,0:0|0:0,0:0:0:0:
197,231,96255,2,0,P|200:197|195:163,1,68,8|0,0:0|0:0,0:0:0:0:
121,301,96690,1,2,0:0:0:0:
276,348,96908,1,8,0:0:0:0:
298,345,97016,1,8,0:0:0:0:
319,336,97125,1,8,0:0:0:0:
336,321,97234,1,8,0:0:0:0:
348,302,97342,1,8,0:0:0:0:
354,280,97451,1,8,0:0:0:0:
352,259,97560,6,0,L|343:188,1,68,2|0,0:0|0:0,0:0:0:0:
262,87,97995,2,0,L|253:154,1,68,8|0,0:0|0:0,0:0:0:0:
346,49,98429,2,0,P|310:8|213:10,1,136,2|8,0:0|0:0,0:0:0:0:
135,33,99082,1,0,0:0:0:0:
187,165,99299,6,0,P|220:155|257:154,1,68,0|0,0:0|0:0,0:0:0:0:
396,224,99734,2,0,P|362:222|329:212,1,68,8|0,0:0|0:0,0:0:0:0:
450,146,100168,2,0,P|483:187|474:280,1,136,2|8,0:0|0:0,0:0:0:0:
391,348,100821,1,2,0:0:0:0:
378,343,101038,5,2,0:0:0:0:
121,36,101690,1,2,0:0:0:0:
134,41,101907,5,2,0:0:0:0:
333,193,102560,1,2,0:0:0:0:
175,155,102777,5,2,0:0:0:0:
175,155,102995,2,0,P|199:218|254:257,1,136,2|2,0:0|0:0,0:0:0:0:
333,193,103647,2,0,P|308:130|254:91,1,136,2|2,0:0|0:0,0:0:0:0:
157,57,104299,1,2,0:0:0:0:
141,212,104516,6,0,P|182:209|235:194,1,85,14|0,0:0|0:0,0:0:0:0:
254,91,104951,1,0,0:0:0:0:
330,290,105168,2,0,P|340:230|324:189,1,85,10|0,0:0|0:0,0:0:0:0:
194,338,105603,1,2,0:0:0:0:
386,370,105821,1,10,0:0:0:0:
173,334,106038,1,0,0:0:0:0:
333,207,106255,6,0,L|341:295,1,85,10|0,0:0|0:0,0:0:0:0:
457,240,106690,1,0,0:0:0:0:
301,120,106908,2,0,P|262:143|242:188,1,85,10|0,0:0|0:0,0:0:0:0:
259,369,107342,1,2,0:0:0:0:
333,207,107560,1,10,0:0:0:0:
252,384,107777,1,0,0:0:0:0:
448,296,107995,6,0,P|404:306|355:306,1,85,10|0,0:0|0:0,0:0:0:0:
242,268,108429,1,0,0:0:0:0:
314,100,108647,2,0,L|321:186,1,85,10|0,0:0|0:0,0:0:0:0:
397,29,109082,1,2,0:0:0:0:
225,26,109299,2,0,L|218:112,1,85,10|0,0:0|0:0,0:0:0:0:
50,226,109734,5,10,0:0:0:0:
127,72,109951,1,2,0:0:0:0:
53,234,110168,1,2,0:0:0:0:
124,64,110385,1,10,0:0:0:0:
196,225,110603,2,0,P|240:237|314:195,1,127.5,2|0,0:0|0:0,0:0:0:0:
338,119,111038,2,0,P|338:97|342:76,1,42.5,10|0,0:0|0:0,0:0:0:0:
452,178,111255,2,0,P|457:210|456:232,1,42.5,0|0,0:0|0:0,0:0:0:0:
504,28,111473,6,0,P|513:75|503:113,1,85,14|0,0:0|0:0,0:0:0:0:
457,221,111908,1,0,0:0:0:0:
343,77,112125,2,0,L|437:67,1,85,10|0,0:0|0:0,0:0:0:0:
280,226,112560,1,2,0:0:0:0:
242,24,112777,1,10,0:0:0:0:
284,247,112995,1,0,0:0:0:0:
427,68,113212,6,0,P|371:68|333:83,1,85,10|0,0:0|0:0,0:0:0:0:
232,140,113647,1,0,0:0:0:0:
395,254,113864,2,0,P|401:205|395:150,1,85,10|0,0:0|0:0,0:0:0:0:
239,303,114299,1,2,0:0:0:0:
446,344,114516,1,10,0:0:0:0:
215,298,114734,1,0,0:0:0:0:
398,169,114951,6,0,L|405:267,1,85,10|0,0:0|0:0,0:0:0:0:
332,360,115386,1,0,0:0:0:0:
229,145,115603,2,0,P|271:132|316:135,1,85,10|0,0:0|0:0,0:0:0:0:
177,249,116038,1,2,0:0:0:0:
92,108,116255,2,0,P|79:66|82:21,1,85,10|0,0:0|0:0,0:0:0:0:
284,17,116690,5,10,0:0:0:0:
148,168,116908,1,2,0:0:0:0:
338,201,117125,1,2,0:0:0:0:
203,59,117342,1,10,0:0:0:0:
266,251,117560,5,2,0:0:0:0:
403,117,117777,1,0,0:0:0:0:
403,117,117886,1,2,0:0:0:0:
403,117,117995,2,0,L|354:122,1,42.5,8|0,0:0|0:0,0:0:0:0:
223,246,118212,2,0,L|272:251,1,42.5,2|0,0:0|0:0,0:0:0:0:
365,384,118429,6,0,P|381:340|370:292,1,85,14|0,0:0|0:0,0:0:0:0:
338,201,118864,1,0,0:0:0:0:
204,321,119082,2,0,L|298:332,1,85,10|0,0:0|0:0,0:0:0:0:
109,209,119516,1,2,0:0:0:0:
125,366,119734,1,10,0:0:0:0:
119,199,119951,1,0,0:0:0:0:
28,325,120168,5,10,0:0:0:0:
12,168,120386,1,2,0:0:0:0:
18,335,120603,1,2,0:0:0:0:
187,241,120821,2,0,B|276:251|267:188|354:201,1,170,8|2,0:0|0:0,0:0:0:0:
498,319,121473,1,10,0:0:0:0:
334,287,121690,1,0,0:0:0:0:
512,169,121908,5,10,0:0:0:0:
348,201,122125,1,2,0:0:0:0:
510,155,122342,1,2,0:0:0:0:
306,114,122560,2,0,P|264:152|273:265,1,170,8|2,0:0|0:0,0:0:0:0:
424,259,123212,2,0,P|443:211|434:162,1,85,10|0,0:0|0:0,0:0:0:0:
344,32,123647,5,10,0:0:0:0:
348,201,123864,1,2,0:0:0:0:
337,27,124082,1,2,0:0:0:0:
355,207,124299,1,10,0:0:0:0:
508,89,124516,2,0,B|452:78|445:126|375:107,1,127.5,2|0,0:0|0:0,0:0:0:0:
337,27,124951,5,8,0:0:0:0:
290,8,125059,1,8,0:0:0:0:
239,12,125168,1,8,0:0:0:0:
199,44,125277,1,8,0:0:0:0:
173,129,125386,6,0,P|232:207|244:94,1,255,14|0,0:0|0:0,0:0:0:0:
199,44,125821,5,10,0:0:0:0:
66,196,126038,1,0,0:0:0:0:
200,339,126255,6,0,P|218:360|224:397,1,50.9999984436036,10|0,0:0|0:0,0:0:0:0:
297,298,126473,2,0,P|303:273|298:249,1,50.9999984436036,2|0,0:0|0:0,0:0:0:0:
384,377,126690,2,0,L|493:361,1,101.999996887207,10|0,0:0|0:0,0:0:0:0:
509,165,127125,5,10,0:0:0:0:
417,153,127342,1,0,0:0:0:0:
297,298,127560,5,10,0:0:0:0:
388,283,127777,1,0,0:0:0:0:
329,73,127995,6,0,L|272:64,1,50.9999984436036,10|0,0:0|0:0,0:0:0:0:
200,15,128212,2,0,L|143:24,1,50.9999984436036,2|0,0:0|0:0,0:0:0:0:
83,89,128429,2,0,B|89:138|89:138|95:143|95:143|102:199,1,101.999996887207,10|0,0:0|0:0,0:0:0:0:
320,369,128864,5,10,0:0:0:0:
338,278,129082,1,0,0:0:0:0:
187,126,129299,5,10,0:0:0:0:
201,221,129516,1,0,0:0:0:0:
327,105,129734,5,8,0:0:0:0:
345,11,129951,1,0,0:0:0:0:
201,221,130168,5,10,0:0:0:0:
207,246,130386,1,2,0:0:0:0:
80,88,130603,5,2,0:0:0:0:
80,88,132342,6,0,B|148:82|123:120|195:111,1,114.749996498108,2|2,0:0|0:0,0:0:0:0:
217,107,132777,2,0,P|208:155|210:184,1,76.4999976654053,8|0,0:0|0:0,0:0:0:0:
426,191,133212,2,0,P|374:158|340:155,1,76.4999976654053,2|0,0:0|0:0,0:0:0:0:
321,158,133538,1,2,0:0:0:0:
321,158,133647,1,8,0:0:0:0:
344,263,133864,1,0,0:0:0:0:
507,149,134082,6,0,L|497:25,1,114.749996498108,2|2,0:0|0:0,0:0:0:0:
495,8,134516,2,0,P|453:23|421:25,1,76.4999976654053,8|0,0:0|0:0,0:0:0:0:
234,44,134951,2,0,P|287:46|315:60,1,76.4999976654053,2|0,0:0|0:0,0:0:0:0:
338,88,135277,1,2,0:0:0:0:
338,88,135386,1,8,0:0:0:0:
249,218,135603,1,0,0:0:0:0:
79,159,135821,6,0,L|84:35,1,114.749996498108,2|2,0:0|0:0,0:0:0:0:
64,24,136255,2,0,L|69:110,1,76.4999976654053,8|0,0:0|0:0,0:0:0:0:
175,217,136690,2,0,P|218:226|257:212,1,76.4999976654053,2|0,0:0|0:0,0:0:0:0:
284,195,137016,1,2,0:0:0:0:
284,195,137125,1,8,0:0:0:0:
210,106,137342,1,0,0:0:0:0:
90,235,137560,6,0,P|90:285|153:331,1,114.749996498108,2|0,0:0|0:0,0:0:0:0:
121,343,137995,2,0,P|159:335|208:332,1,76.4999976654053,8|0,0:0|0:0,0:0:0:0:
309,375,138429,1,0,0:0:0:0:
411,261,138647,1,8,0:0:0:0:
411,261,138864,1,8,0:0:0:0:
252,243,139082,1,0,0:0:0:0:
471,329,139299,6,0,P|497:286|487:211,1,114.749996498108,2|2,0:0|0:0,0:0:0:0:
480,198,139734,2,0,P|477:143|479:120,1,76.4999976654053,8|0,0:0|0:0,0:0:0:0:
332,7,140168,2,0,L|345:95,1,76.4999976654053,2|0,0:0|0:0,0:0:0:0:
352,128,140495,1,2,0:0:0:0:
352,128,140603,1,8,0:0:0:0:
296,258,140821,1,0,0:0:0:0:
175,153,141038,6,0,P|120:140|70:180,1,114.749996498108,2|2,0:0|0:0,0:0:0:0:
67,197,141473,2,0,L|72:108,1,76.4999976654053,8|0,0:0|0:0,0:0:0:0:
198,37,141908,2,0,P|235:54|281:50,1,76.4999976654053,2|0,0:0|0:0,0:0:0:0:
307,40,142234,1,2,0:0:0:0:
307,40,142342,1,8,0:0:0:0:
450,0,142560,1,0,0:0:0:0:
402,176,142777,6,0,P|359:158|276:148,1,114.749996498108,2|2,0:0|0:0,0:0:0:0:
268,160,143212,2,0,P|274:214|271:250,1,76.4999976654053,8|0,0:0|0:0,0:0:0:0:
348,379,143647,2,0,P|347:340|352:302,1,76.4999976654053,2|0,0:0|0:0,0:0:0:0:
368,268,143973,1,2,0:0:0:0:
368,268,144082,1,8,0:0:0:0:
236,320,144299,1,0,0:0:0:0:
470,350,144516,5,14,0:0:0:0:
470,350,145386,5,2,0:0:0:0:
410,193,145603,1,2,0:0:0:0:
410,193,146038,5,2,0:0:0:0:
286,267,146255,2,0,P|242:265|207:197,1,114.749996498108,2|2,0:0|0:0,0:0:0:0:
208,182,146690,2,0,P|164:194|128:197,1,76.4999976654053,8|0,0:0|0:0,0:0:0:0:
36,67,147125,2,0,L|133:78,1,76.4999976654053,2|0,0:0|0:0,0:0:0:0:
153,83,147451,1,2,0:0:0:0:
153,83,147560,1,8,0:0:0:0:
255,41,147777,1,0,0:0:0:0:
333,220,147995,6,0,P|345:149|340:98,1,114.749996498108,2|2,0:0|0:0,0:0:0:0:
337,81,148429,2,0,L|425:93,1,76.4999976654053,8|0,0:0|0:0,0:0:0:0:
495,196,148864,2,0,P|501:238|487:277,1,76.4999976654053,2|0,0:0|0:0,0:0:0:0:
463,300,149190,1,2,0:0:0:0:
463,300,149299,1,8,0:0:0:0:
344,237,149516,1,0,0:0:0:0:
261,367,149734,6,0,P|210:351|128:344,1,114.749996498108,2|2,0:0|0:0,0:0:0:0:
130,326,150168,2,0,P|132:285|139:246,1,76.4999976654053,8|0,0:0|0:0,0:0:0:0:
238,93,150603,2,0,P|244:130|246:168,1,76.4999976654053,2|0,0:0|0:0,0:0:0:0:
239,212,150929,1,2,0:0:0:0:
239,212,151038,1,8,0:0:0:0:
132,144,151255,1,0,0:0:0:0:
251,2,151473,6,0,L|383:17,1,114.749996498108,2|0,0:0|0:0,0:0:0:0:
391,18,151908,2,0,L|304:25,1,76.4999976654053,8|0,0:0|0:0,0:0:0:0:
401,166,152342,1,0,0:0:0:0:
494,44,152560,1,8,0:0:0:0:
494,44,152777,1,8,0:0:0:0:
315,123,152995,1,0,0:0:0:0:
488,201,153212,6,0,P|503:249|484:311,1,114.749996498108,2|2,0:0|0:0,0:0:0:0:
496,328,153647,2,0,P|448:311|413:308,1,76.4999976654053,8|0,0:0|0:0,0:0:0:0:
277,367,154082,2,0,L|282:273,1,76.4999976654053,2|0,0:0|0:0,0:0:0:0:
286,249,154408,1,2,0:0:0:0:
286,249,154516,1,8,0:0:0:0:
234,146,154734,1,0,0:0:0:0:
71,251,154951,6,0,P|111:269|189:243,1,114.749996498108,2|2,0:0|0:0,0:0:0:0:
193,236,155386,2,0,L|188:320,1,76.4999976654053,8|0,0:0|0:0,0:0:0:0:
126,174,155821,2,0,L|121:97,1,76.4999976654053,2|0,0:0|0:0,0:0:0:0:
119,57,156147,1,2,0:0:0:0:
119,57,156255,1,8,0:0:0:0:
233,4,156473,1,0,0:0:0:0:
362,124,156690,6,0,P|308:137|238:134,1,114.749996498108,2|2,0:0|0:0,0:0:0:0:
228,127,157125,2,0,P|239:167|239:209,1,76.4999976654053,8|0,0:0|0:0,0:0:0:0:
315,344,157560,2,0,P|316:305|326:269,1,76.4999976654053,2|0,0:0|0:0,0:0:0:0:
352,238,157886,1,2,0:0:0:0:
352,238,157995,1,8,0:0:0:0:
433,323,158212,1,0,0:0:0:0:
189,271,158429,5,6,0:0:0:0:
256,192,158538,12,0,160060,0:0:0:0:
106,253,160168,6,0,L|91:154,1,93.5000028533936,14|0,0:0|0:0,0:0:0:0:
137,42,160603,1,0,0:0:0:0:
298,181,160821,2,0,P|248:200|197:188,1,93.5000028533936,10|0,0:0|0:0,0:0:0:0:
357,41,161255,1,2,0:0:0:0:
390,236,161473,1,10,0:0:0:0:
352,17,161690,1,0,0:0:0:0:
209,193,161908,6,0,L|304:180,1,93.5000028533936,10|0,0:0|0:0,0:0:0:0:
399,108,162342,1,0,0:0:0:0:
150,30,162560,2,0,P|142:80|158:120,1,93.5000028533936,10|0,0:0|0:0,0:0:0:0:
243,274,162995,1,2,0:0:0:0:
235,66,163212,1,10,0:0:0:0:
243,291,163429,1,0,0:0:0:0:
399,108,163647,6,0,P|348:97|305:115,1,93.5000028533936,10|0,0:0|0:0,0:0:0:0:
209,193,164082,1,0,0:0:0:0:
367,297,164299,2,0,L|359:193,1,93.5000028533936,10|0,0:0|0:0,0:0:0:0:
236,362,164734,1,2,0:0:0:0:
404,383,164951,1,10,0:0:0:0:
216,360,165168,1,0,0:0:0:0:
432,240,165386,5,10,0:0:0:0:
264,261,165603,1,2,0:0:0:0:
440,231,165821,1,2,0:0:0:0:
258,269,166038,1,10,0:0:0:0:
431,370,166255,2,0,L|440:230,1,140.25000428009,2|0,0:0|0:0,0:0:0:0:
370,174,166690,2,0,L|323:177,1,46.7500014266968,10|0,0:0|0:0,0:0:0:0:
463,82,166908,2,0,L|509:85,1,46.7500014266968,0|0,0:0|0:0,0:0:0:0:
348,7,167125,6,0,P|302:-6|254:0,1,93.5000028533936,14|0,0:0|0:0,0:0:0:0:
168,64,167560,1,0,0:0:0:0:
301,199,167777,2,0,L|297:85,1,93.5000028533936,10|0,0:0|0:0,0:0:0:0:
252,296,168212,1,2,0:0:0:0:
437,288,168429,1,10,0:0:0:0:
232,297,168647,1,0,0:0:0:0:
297,105,168864,6,0,P|308:147|302:201,1,93.5000028533936,10|0,0:0|0:0,0:0:0:0:
205,159,169299,1,0,0:0:0:0:
363,27,169516,2,0,L|456:40,1,93.5000028533936,10|0,0:0|0:0,0:0:0:0:
303,196,169951,1,2,0:0:0:0:
278,11,170168,1,10,0:0:0:0:
307,221,170386,1,0,0:0:0:0:
124,153,170603,6,0,P|101:107|101:64,1,93.5000028533936,10|0,0:0|0:0,0:0:0:0:
219,82,171038,1,0,0:0:0:0:
142,255,171255,2,0,L|42:246,1,93.5000028533936,10|0,0:0|0:0,0:0:0:0:
236,172,171690,1,2,0:0:0:0:
227,355,171908,1,10,0:0:0:0:
238,155,172125,1,0,0:0:0:0:
425,282,172342,5,10,0:0:0:0:
227,355,172560,1,2,0:0:0:0:
340,165,172777,1,2,0:0:0:0:
424,371,172995,1,10,0:0:0:0:
238,253,173212,5,2,0:0:0:0:
439,148,173429,1,0,0:0:0:0:
439,148,173538,1,2,0:0:0:0:
439,148,173647,2,0,L|431:205,1,46.7500014266968,8|0,0:0|0:0,0:0:0:0:
323,78,173864,2,0,L|316:31,1,46.7500014266968,2|0,0:0|0:0,0:0:0:0:
169,130,174082,6,0,P|210:151|257:148,1,93.5000028533936,14|0,0:0|0:0,0:0:0:0:
230,51,174516,1,0,0:0:0:0:
78,126,174734,2,0,L|89:221,1,93.5000028533936,10|0,0:0|0:0,0:0:0:0:
153,363,175168,1,2,0:0:0:0:
195,202,175386,1,10,0:0:0:0:
149,380,175603,1,0,0:0:0:0:
296,160,175821,5,10,0:0:0:0:
337,338,176038,1,2,0:0:0:0:
292,143,176256,1,2,0:0:0:0:
487,228,176473,2,0,P|501:276|421:375,1,187.000005706787,8|2,0:0|0:0,0:0:0:0:
231,306,177125,1,10,0:0:0:0:
405,280,177342,1,0,0:0:0:0:
201,169,177560,5,10,0:0:0:0:
375,195,177777,1,2,0:0:0:0:
187,177,177995,1,2,0:0:0:0:
332,11,178212,2,0,B|433:-4|419:69|512:44,1,187.000005706787,8|2,0:0|0:0,0:0:0:0:
375,195,178864,2,0,P|369:136|357:87,1,93.5000028533936,10|0,0:0|0:0,0:0:0:0:
240,239,179299,5,10,0:0:0:0:
434,272,179516,1,2,0:0:0:0:
236,226,179734,1,2,0:0:0:0:
439,285,179951,1,10,0:0:0:0:
178,384,180168,2,0,P|151:353|168:247,1,140.25000428009,2|0,0:0|0:0,0:0:0:0:
236,226,180603,5,8,0:0:0:0:
265,184,180711,1,8,0:0:0:0:
257,133,180820,1,8,0:0:0:0:
216,100,180929,1,8,0:0:0:0:
135,94,181038,6,0,B|22:160|-22:107|-20:44|23:17|70:35,1,255,14|0,0:0|0:0,0:0:0:0:
145,82,181473,5,10,0:0:0:0:
87,249,181690,1,0,0:0:0:0:
235,372,181908,6,0,P|235:341|222:315,1,50.9999984436036,10|0,0:0|0:0,0:0:0:0:
301,195,182125,2,0,P|292:218|293:244,1,50.9999984436036,2|0,0:0|0:0,0:0:0:0:
385,337,182342,2,0,L|489:324,1,101.999996887207,10|0,0:0|0:0,0:0:0:0:
512,173,182777,5,10,0:0:0:0:
424,159,182995,1,0,0:0:0:0:
221,48,183212,5,10,0:0:0:0:
314,31,183429,1,0,0:0:0:0:
130,224,183647,6,0,P|112:223|128:207,1,50.9999984436036,10|0,0:0|0:0,0:0:0:0:
222,271,183864,2,0,P|240:270|224:254,1,50.9999984436036,2|0,0:0|0:0,0:0:0:0:
91,321,184082,2,0,P|128:355|185:355,1,101.999996887207,10|0,0:0|0:0,0:0:0:0:
394,225,184516,5,10,0:0:0:0:
385,316,184734,1,0,0:0:0:0:
222,271,184951,5,10,0:0:0:0:
208,174,185168,1,0,0:0:0:0:
428,85,185386,6,0,L|421:139,1,50.9999984436036,10|0,0:0|0:0,0:0:0:0:
336,61,185603,2,0,L|329:10,1,50.9999984436036,2|0,0:0|0:0,0:0:0:0:
505,38,185821,1,10,0:0:0:0:
328,162,186038,1,2,0:0:0:0:
482,260,186255,5,10,0:0:0:0:
421,135,186473,1,2,0:0:0:0:
427,336,186690,5,10,0:0:0:0:
503,148,186908,1,2,0:0:0:0:
329,376,187125,5,10,0:0:0:0:
275,173,187342,1,0,0:0:0:0:
275,173,187451,1,2,0:0:0:0:
275,173,187560,2,0,P|277:141|284:122,1,50.9999984436036,10|0,0:0|0:0,0:0:0:0:
167,52,187777,2,0,P|172:77|185:100,1,50.9999984436036,0|0,0:0|0:0,0:0:0:0:
367,164,187995,5,14,0:0:0:0:
213,251,188212,1,2,0:0:0:0:
375,157,188429,5,8,0:0:0:0:
212,264,188647,1,2,0:0:0:0:
184,99,188864,5,8,0:0:0:0:
370,254,189082,1,2,0:0:0:0:
131,303,189299,2,0,P|122:254|142:207,1,101.999996887207,10|0,0:0|0:0,0:0:0:0:
310,122,189734,5,10,0:0:0:0:
212,264,189951,1,2,0:0:0:0:
319,111,190168,2,0,L|309:8,1,101.999996887207,10|0,0:0|0:0,0:0:0:0:
150,125,190603,5,8,0:0:0:0:
311,206,190821,1,2,0:0:0:0:
146,114,191038,5,10,0:0:0:0:
315,217,191256,1,2,0:0:0:0:
133,233,191473,5,10,0:0:0:0:
319,111,191690,1,2,0:0:0:0:
78,48,191908,6,0,P|54:91|56:142,1,101.999996887207,10|0,0:0|0:0,0:0:0:0:
228,297,192342,1,8,0:0:0:0:
146,114,192560,1,2,0:0:0:0:
16,275,192777,6,0,B|93:293|89:226|193:252,1,152.999995330811,10|0,0:0|0:0,0:0:0:0:
228,297,193212,5,10,0:0:0:0:
272,98,193429,1,2,0:0:0:0:
234,309,193647,5,10,0:0:0:0:
268,86,193864,1,2,0:0:0:0:
407,289,194082,2,0,B|363:284|363:284|356:275|356:275|303:270,1,101.999996887207,10|0,0:0|0:0,0:0:0:0:
232,219,194408,1,2,0:0:0:0:
225,213,194516,2,0,P|218:188|223:163,1,50.9999984436036,8|0,0:0|0:0,0:0:0:0:
355,66,194734,2,0,P|359:90|353:115,1,50.9999984436036,0|0,0:0|0:0,0:0:0:0:
291,0,194951,5,14,0:0:0:0:
477,59,195168,1,0,0:0:0:0:
276,7,195386,5,8,0:0:0:0:
488,54,195603,1,0,0:0:0:0:
351,202,195821,5,10,0:0:0:0:
407,0,196038,1,2,0:0:0:0:
227,216,196255,5,10,0:0:0:0:
512,189,196473,1,0,0:0:0:0:
251,359,196690,5,14,0:0:0:0:
222,109,196908,1,0,0:0:0:0:
257,372,197125,5,8,0:0:0:0:
216,100,197342,1,0,0:0:0:0:
51,323,197560,5,10,0:0:0:0:
313,289,197777,1,2,0:0:0:0:
98,119,197995,5,10,0:0:0:0:
136,378,198212,1,0,0:0:0:0:
319,159,198429,5,14,0:0:0:0:
95,101,198647,1,0,0:0:0:0:
37,325,198864,5,10,0:0:0:0:
261,383,199082,1,0,0:0:0:0:
403,156,199299,5,10,2:2:0:0:
383,103,199407,1,0,3:2:0:0:
330,81,199516,1,0,2:2:0:0:
274,90,199625,1,0,3:2:0:0:
239,133,199734,6,0,L|231:82,1,50.9999984436036,10|0,2:2|3:2,0:0:0:0:
133,181,199951,2,0,L|125:232,1,50.9999984436036,0|0,2:2|3:2,0:0:0:0:
224,290,200168,6,0,L|292:281,2,68,2|2|2,0:0|0:0|0:0,0:0:0:0:
337,198,200821,1,2,0:0:0:0:
278,384,201038,2,0,L|380:374,1,102,2|2,0:0|0:0,0:0:0:0:
