osu file format v14

[General]
AudioFilename: audio.mp3
AudioLeadIn: 0
PreviewTime: 100821
Countdown: 0
SampleSet: Soft
StackLeniency: 0.4
Mode: 0
LetterboxInBreaks: 0
WidescreenStoryboard: 1

[Editor]
Bookmarks: 125386
DistanceSpacing: 1.5
BeatDivisor: 4
GridSize: 8
TimelineZoom: 1

[Metadata]
Title:Can't Remember to Forget You feat. Rihanna
TitleUnicode:Can't Remember to Forget You feat. Rihanna
Artist:Shakira
ArtistUnicode:Shakira
Creator:arronchu1207
Version:Insane
Source:
Tags:english pop rock latin riri Nunca Me Acuerdo de Olvidarte
BeatmapID:2749107
BeatmapSetID:1326967

[Difficulty]
HPDrainRate:5
CircleSize:4.4
OverallDifficulty:7.6
ApproachRate:8.2
SliderMultiplier:1.6
SliderTickRate:1

[Events]
//Background and Video events
0,0,"shariri.jpg",0,0
//Break Periods
2,62977,81908
//Storyboard Layer 0 (Background)
//Storyboard Layer 1 (Fail)
//Storyboard Layer 2 (Pass)
//Storyboard Layer 3 (Foreground)
//Storyboard Layer 4 (Overlay)
//Storyboard Sound Samples

[TimingPoints]
169,434.782608695652,4,2,1,50,1,0
7125,-125,4,2,1,50,0,0
31473,-125,4,2,0,50,0,0
34951,-100,4,2,1,80,0,1
61038,-125,4,2,1,50,0,0
83647,-125,4,2,1,50,0,0
101038,-125,4,2,0,50,0,0
104516,-100,4,2,1,80,0,1
124951,-100,4,2,1,80,0,0
125386,-83.3333333333333,4,2,1,80,0,1
130603,-125,4,2,1,50,0,0
132342,-111.111111111111,4,2,1,50,0,0
160060,-111.111111111111,4,2,1,5,0,0
160168,-100,4,2,1,80,0,1
180603,-90.9090909090909,4,2,1,80,0,0
181038,-83.3333333333333,4,2,1,80,0,1
194516,-83.3333333333333,4,2,1,80,0,0
194951,-83.3333333333333,4,2,1,80,0,1
199299,-83.3333333333333,4,2,1,90,0,1
199734,-83.3333333333333,4,2,1,100,0,1
200168,-125,4,2,0,40,0,0

[Colours]
Combo1 : 63,63,63
Combo2 : 249,228,134
Combo3 : 0,128,64
Combo4 : 0,128,128

[HitObjects]
210,54,7125,6,0,L|219:191,1,128,0|8,0:0|0:0,0:0:0:0:
293,241,7777,1,0,0:0:0:0:
293,241,7995,2,0,P|331:250|370:238,1,64,2|0,0:0|0:0,0:0:0:0:
218,181,8429,2,0,P|180:172|141:184,1,64,8|0,0:0|0:0,0:0:0:0:
58,266,8864,6,0,P|113:285|194:257,1,128,0|8,0:0|0:0,0:0:0:0:
218,181,9516,1,0,0:0:0:0:
218,181,9734,2,0,L|212:80,1,96,2|0,0:0|0:0,0:0:0:0:
211,59,10168,2,0,P|246:64|283:61,1,64,8|0,0:0|0:0,0:0:0:0:
401,3,10603,6,0,P|379:51|410:124,1,128,0|8,0:0|0:0,0:0:0:0:
488,164,11255,1,0,0:0:0:0:
488,164,11473,2,0,L|483:235,1,64,2|0,0:0|0:0,0:0:0:0:
405,284,11908,2,0,L|400:347,1,64,8|0,0:0|0:0,0:0:0:0:
337,216,12342,6,0,P|286:245|214:224,1,128,0|8,0:0|0:0,0:0:0:0:
157,157,12995,1,0,0:0:0:0:
206,74,13212,1,2,0:0:0:0:
135,8,13429,1,8,0:0:0:0:
119,9,13537,1,8,0:0:0:0:
103,10,13646,1,8,0:0:0:0:
87,11,13755,1,8,0:0:0:0:
71,12,13863,1,8,0:0:0:0:
55,13,13972,1,8,0:0:0:0:
39,14,14082,6,0,P|20:73|46:153,1,128,2|8,0:0|0:0,0:0:0:0:
97,215,14734,1,0,0:0:0:0:
97,215,14951,2,0,P|102:259|89:296,1,64,2|0,0:0|0:0,0:0:0:0:
192,346,15386,2,0,P|187:315|193:284,1,64,8|0,0:0|0:0,0:0:0:0:
255,169,15821,6,0,L|399:185,1,128,0|8,0:0|0:0,0:0:0:0:
467,138,16473,1,0,0:0:0:0:
467,138,16690,2,0,P|479:85|466:33,1,96,2|0,0:0|0:0,0:0:0:0:
457,24,17125,2,0,L|389:28,1,64,8|0,0:0|0:0,0:0:0:0:
279,90,17560,6,0,L|151:75,1,128,0|8,0:0|0:0,0:0:0:0:
75,134,18212,1,0,0:0:0:0:
75,134,18429,2,0,P|64:177|72:204,1,64,2|0,0:0|0:0,0:0:0:0:
151,313,18864,2,0,P|155:281|145:252,1,64,8|0,0:0|0:0,0:0:0:0:
91,379,19299,6,0,L|231:370,1,128,0|8,0:0|0:0,0:0:0:0:
321,362,19951,1,0,0:0:0:0:
321,362,20060,1,8,0:0:0:0:
321,362,20168,1,10,0:0:0:0:
293,269,20386,1,8,0:0:0:0:
288,238,20494,1,8,0:0:0:0:
293,206,20603,1,8,0:0:0:0:
382,240,20821,1,8,0:0:0:0:
321,362,21038,6,0,L|243:355,1,64,0|0,0:0|0:0,0:0:0:0:
176,303,21473,2,0,L|98:310,1,64,8|0,0:0|0:0,0:0:0:0:
37,247,21908,2,0,P|16:192|45:118,1,128,2|8,0:0|0:0,0:0:0:0:
105,62,22560,1,0,0:0:0:0:
172,130,22777,1,0,0:0:0:0:
243,65,22995,1,0,0:0:0:0:
243,65,23103,1,0,0:0:0:0:
243,65,23212,2,0,P|277:63|315:72,1,64,8|0,0:0|0:0,0:0:0:0:
381,128,23647,5,2,0:0:0:0:
323,204,23864,1,0,0:0:0:0:
386,276,24082,2,0,P|423:271|457:268,1,64,8|0,0:0|0:0,0:0:0:0:
332,356,24516,2,0,P|281:344|195:329,1,128,0|8,0:0|0:0,0:0:0:0:
114,357,25168,1,0,0:0:0:0:
114,357,25386,2,0,P|89:313|109:238,1,128,2|8,0:0|0:0,0:0:0:0:
183,183,26038,1,0,0:0:0:0:
183,183,26255,6,0,P|188:139|183:118,1,64,0|0,0:0|0:0,0:0:0:0:
270,17,26690,2,0,P|265:48|271:80,1,64,8|0,0:0|0:0,0:0:0:0:
334,152,27125,1,2,0:0:0:0:
412,97,27342,1,8,0:0:0:0:
433,96,27450,1,8,0:0:0:0:
453,101,27559,1,8,0:0:0:0:
471,112,27668,1,8,0:0:0:0:
485,129,27776,1,8,0:0:0:0:
493,148,27885,1,8,0:0:0:0:
495,170,27995,6,0,L|501:258,1,64,2|0,0:0|0:0,0:0:0:0:
415,351,28429,2,0,L|420:288,1,64,8|0,0:0|0:0,0:0:0:0:
346,225,28864,2,0,P|303:213|218:244,1,128,2|8,0:0|0:0,0:0:0:0:
176,320,29516,1,0,0:0:0:0:
87,281,29734,6,0,P|78:234|87:208,1,64,0|0,0:0|0:0,0:0:0:0:
151,98,30168,2,0,P|161:128|157:160,1,64,8|0,0:0|0:0,0:0:0:0:
59,71,30603,2,0,P|89:25|170:6,1,128,2|8,0:0|0:0,0:0:0:0:
253,30,31255,1,2,0:0:0:0:
253,30,31473,5,2,0:0:0:0:
259,354,32125,1,2,0:0:0:0:
259,354,32343,5,2,0:0:0:0:
446,191,32995,1,2,0:0:0:0:
359,226,33212,5,2,0:0:0:0:
359,226,33429,2,0,L|367:95,1,128,2|2,0:0|0:0,0:0:0:0:
270,89,34082,2,0,L|262:216,1,128,2|2,0:0|0:0,0:0:0:0:
193,284,34734,1,0,0:0:0:0:
95,213,34951,6,0,P|50:220|14:244,2,80,14|0|0,0:0|0:0|0:0,0:0:0:0:
220,362,35603,2,0,P|163:368|83:292,1,160,10|2,0:0|0:0,0:0:0:0:
281,284,36255,1,10,0:0:0:0:
281,284,36473,1,0,0:0:0:0:
167,112,36690,6,0,L|178:281,1,160,10|0,0:0|0:0,0:0:0:0:
262,100,37342,2,0,P|245:58|215:30,1,80,10|0,0:0|0:0,0:0:0:0:
326,186,37777,1,2,0:0:0:0:
326,186,37995,2,0,L|409:175,1,80,10|0,0:0|0:0,0:0:0:0:
250,384,38429,6,0,P|225:337|250:228,1,160,10|0,0:0|0:0,0:0:0:0:
412,300,39082,2,0,P|366:299|331:304,1,80,10|0,0:0|0:0,0:0:0:0:
495,371,39516,1,2,0:0:0:0:
495,371,39734,1,10,0:0:0:0:
478,183,39951,1,0,0:0:0:0:
332,303,40168,6,0,P|320:256|333:213,1,80,10|2,0:0|0:0,0:0:0:0:
425,80,40603,1,2,0:0:0:0:
415,257,40821,1,10,0:0:0:0:
252,118,41038,2,0,L|335:111,1,80,2|0,0:0|0:0,0:0:0:0:
234,296,41473,2,0,L|151:289,1,80,10|0,0:0|0:0,0:0:0:0:
320,237,41908,6,0,P|336:279|333:325,2,80,14|0|0,0:0|0:0|0:0,0:0:0:0:
132,199,42560,2,0,P|149:258|249:293,1,160,10|2,0:0|0:0,0:0:0:0:
177,110,43212,1,10,0:0:0:0:
177,110,43429,1,0,0:0:0:0:
385,177,43647,6,0,P|334:182|221:202,1,160,10|0,0:0|0:0,0:0:0:0:
445,256,44299,2,0,P|471:223|479:175,1,80,10|0,0:0|0:0,0:0:0:0:
353,291,44734,1,2,0:0:0:0:
353,291,44951,2,0,L|361:371,1,80,10|0,0:0|0:0,0:0:0:0:
265,240,45386,6,0,P|214:228|112:278,1,160,10|0,0:0|0:0,0:0:0:0:
0,156,46038,2,0,P|38:171|85:174,1,80,10|0,0:0|0:0,0:0:0:0:
223,89,46473,1,2,0:0:0:0:
223,89,46690,1,10,0:0:0:0:
65,51,46908,1,0,0:0:0:0:
215,194,47125,5,10,0:0:0:0:
277,0,47342,1,0,0:0:0:0:
322,168,47560,5,0,0:0:0:0:
160,30,47777,1,10,0:0:0:0:
381,11,47995,2,0,P|389:57|372:102,1,80,2|2,0:0|0:0,0:0:0:0:
321,245,48429,2,0,P|313:199|330:154,1,80,8|2,0:0|0:0,0:0:0:0:
389,323,48864,6,0,L|474:315,2,80,14|0|0,0:0|0:0|0:0,0:0:0:0:
249,382,49516,2,0,L|164:374,2,80,10|0|2,0:0|0:0|0:0,0:0:0:0:
141,283,50168,2,0,P|102:305|81:339,1,80,10|0,0:0|0:0,0:0:0:0:
249,382,50603,5,10,0:0:0:0:
249,382,50821,1,2,0:0:0:0:
229,220,51038,1,2,0:0:0:0:
397,308,51255,2,0,P|355:322|316:319,1,80,8|0,0:0|0:0,0:0:0:0:
446,221,51690,1,2,0:0:0:0:
446,221,51908,2,0,P|479:250|496:285,1,80,10|0,0:0|0:0,0:0:0:0:
344,217,52342,5,10,0:0:0:0:
344,217,52560,1,2,0:0:0:0:
396,77,52777,1,2,0:0:0:0:
253,168,52995,2,0,P|242:218|247:248,1,80,8|0,0:0|0:0,0:0:0:0:
359,375,53429,1,2,0:0:0:0:
359,375,53647,2,0,P|370:325|365:295,1,80,10|0,0:0|0:0,0:0:0:0:
253,168,54082,5,10,0:0:0:0:
276,327,54299,1,2,0:0:0:0:
147,181,54516,5,2,0:0:0:0:
170,340,54733,1,10,0:0:0:0:
326,193,54951,2,0,P|281:170|242:168,1,80,2|0,0:0|0:0,0:0:0:0:
96,314,55386,2,0,P|141:337|180:339,1,80,8|0,0:0|0:0,0:0:0:0:
326,193,55821,6,0,L|316:95,2,80,14|0|0,0:0|0:0|0:0,0:0:0:0:
407,380,56473,2,0,L|421:214,1,160,10|2,0:0|0:0,0:0:0:0:
309,354,57125,1,10,0:0:0:0:
309,354,57342,1,0,0:0:0:0:
512,235,57560,6,0,P|497:168|408:128,1,160,10|0,0:0|0:0,0:0:0:0:
255,174,58212,2,0,P|291:185|339:176,1,80,10|0,0:0|0:0,0:0:0:0:
187,19,58647,1,2,0:0:0:0:
187,19,58864,2,0,L|181:115,1,80,10|0,0:0|0:0,0:0:0:0:
108,303,59299,6,0,P|132:254|103:156,1,160,10|0,0:0|0:0,0:0:0:0:
12,310,59951,2,0,P|29:358|49:379,1,80,10|0,0:0|0:0,0:0:0:0:
292,333,60386,1,2,0:0:0:0:
108,303,60603,1,10,0:0:0:0:
313,336,60821,1,0,0:0:0:0:
255,176,61038,5,2,0:0:0:0:
256,192,61147,12,0,62777,0:0:0:0:
360,189,82777,5,8,0:0:0:0:
309,270,82995,1,8,0:0:0:0:
287,268,83103,1,8,0:0:0:0:
266,266,83212,1,8,0:0:0:0:
245,265,83321,1,8,0:0:0:0:
223,263,83429,1,8,0:0:0:0:
202,261,83538,1,8,0:0:0:0:
181,260,83647,6,0,P|163:211|186:132,1,128,2|8,0:0|0:0,0:0:0:0:
258,83,84299,1,0,0:0:0:0:
258,83,84516,2,0,L|252:19,1,64,2|0,0:0|0:0,0:0:0:0:
353,69,84951,2,0,L|347:132,1,64,8|0,0:0|0:0,0:0:0:0:
270,236,85386,6,0,P|326:230|393:263,1,128,0|8,0:0|0:0,0:0:0:0:
396,359,86038,1,0,0:0:0:0:
396,359,86147,1,0,0:0:0:0:
396,359,86255,2,0,P|354:373|326:374,1,64,2|0,0:0|0:0,0:0:0:0:
182,323,86690,2,0,P|214:327|243:338,1,64,8|0,0:0|0:0,0:0:0:0:
98,370,87125,6,0,P|93:291|120:249,1,128,0|8,0:0|0:0,0:0:0:0:
203,208,87777,1,0,0:0:0:0:
203,208,87995,2,0,P|216:160|210:131,1,64,2|0,0:0|0:0,0:0:0:0:
272,18,88429,2,0,P|272:50|284:80,1,64,8|0,0:0|0:0,0:0:0:0:
469,88,88864,6,0,P|434:45|365:31,1,128,0|8,0:0|0:0,0:0:0:0:
283,79,89516,1,0,0:0:0:0:
283,79,89625,1,8,0:0:0:0:
283,79,89734,1,10,0:0:0:0:
218,150,89951,5,8,0:0:0:0:
243,167,90059,1,8,0:0:0:0:
275,174,90168,1,8,0:0:0:0:
364,139,90386,1,8,0:0:0:0:
218,150,90603,6,0,L|227:222,1,64,2|0,0:0|0:0,0:0:0:0:
287,343,91038,2,0,L|295:280,1,64,8|0,0:0|0:0,0:0:0:0:
200,380,91473,2,0,P|141:357|67:367,1,128,2|8,0:0|0:0,0:0:0:0:
6,297,92125,1,0,0:0:0:0:
105,202,92342,6,0,P|98:242|97:281,1,64,0|0,0:0|0:0,0:0:0:0:
33,139,92777,2,0,P|30:107|24:75,1,64,8|0,0:0|0:0,0:0:0:0:
93,8,93212,1,2,0:0:0:0:
165,70,93429,1,0,0:0:0:0:
234,3,93647,2,0,P|275:3|306:20,1,64,8|0,0:0|0:0,0:0:0:0:
309,198,94082,6,0,P|262:155|252:93,1,128,0|8,0:0|0:0,0:0:0:0:
345,109,94734,1,0,0:0:0:0:
403,184,94951,2,0,L|395:322,1,128,2|8,0:0|0:0,0:0:0:0:
320,371,95603,1,0,0:0:0:0:
253,300,95821,6,0,P|215:290|180:295,1,64,0|0,0:0|0:0,0:0:0:0:
79,216,96255,2,0,P|111:218|142:209,1,64,8|0,0:0|0:0,0:0:0:0:
194,128,96690,1,2,0:0:0:0:
136,50,96908,1,8,0:0:0:0:
115,46,97016,1,8,0:0:0:0:
93,48,97125,1,8,0:0:0:0:
73,55,97234,1,8,0:0:0:0:
56,68,97342,1,8,0:0:0:0:
43,84,97451,1,8,0:0:0:0:
34,104,97560,6,0,L|41:170,1,64,2|0,0:0|0:0,0:0:0:0:
104,298,97995,2,0,L|110:235,1,64,8|0,0:0|0:0,0:0:0:0:
168,365,98429,2,0,P|217:344|303:362,1,128,2|8,0:0|0:0,0:0:0:0:
377,315,99082,1,0,0:0:0:0:
286,194,99299,6,0,P|295:221|299:262,1,64,0|0,0:0|0:0,0:0:0:0:
352,129,99734,2,0,P|355:97|365:66,1,64,8|0,0:0|0:0,0:0:0:0:
503,11,100168,2,0,P|504:58|447:118,1,128,2|8,0:0|0:0,0:0:0:0:
365,66,100821,1,2,0:0:0:0:
365,66,101038,5,2,0:0:0:0:
147,318,101690,1,2,0:0:0:0:
147,318,101907,5,2,0:0:0:0:
437,268,102560,1,2,0:0:0:0:
376,193,102777,1,2,0:0:0:0:
376,193,102995,2,0,L|245:212,1,128,2|2,0:0|0:0,0:0:0:0:
310,286,103647,2,0,L|436:267,1,128,2|2,0:0|0:0,0:0:0:0:
497,192,104299,1,2,0:0:0:0:
404,115,104516,6,0,P|415:71|402:32,2,80,14|0|0,0:0|0:0|0:0,0:0:0:0:
218,169,105168,2,0,P|233:123|329:76,1,160,10|2,0:0|0:0,0:0:0:0:
254,253,105821,1,10,0:0:0:0:
254,253,106038,1,0,0:0:0:0:
480,190,106255,6,0,P|430:184|317:177,1,160,10|0,0:0|0:0,0:0:0:0:
395,356,106908,2,0,P|407:313|398:268,1,80,10|0,0:0|0:0,0:0:0:0:
225,374,107342,1,2,0:0:0:0:
225,374,107560,2,0,L|309:385,1,80,10|0,0:0|0:0,0:0:0:0:
146,207,107995,6,0,P|123:249|132:358,1,160,10|0,0:0|0:0,0:0:0:0:
243,223,108647,2,0,P|240:178|217:138,1,80,10|0,0:0|0:0,0:0:0:0:
86,43,109082,1,2,0:0:0:0:
86,43,109299,1,10,0:0:0:0:
146,207,109516,1,0,0:0:0:0:
258,22,109734,6,0,L|173:16,1,80,10|2,0:0|0:0,0:0:0:0:
322,189,110168,1,2,0:0:0:0:
361,29,110386,1,10,0:0:0:0:
239,152,110603,2,0,P|231:199|247:241,1,80,2|0,0:0|0:0,0:0:0:0:
310,378,111038,2,0,P|318:331|302:289,1,80,10|0,0:0|0:0,0:0:0:0:
135,347,111473,6,0,L|230:340,2,80,14|0|0,0:0|0:0|0:0,0:0:0:0:
101,99,112125,2,0,L|98:267,1,160,10|2,0:0|0:0,0:0:0:0:
201,105,112777,1,10,0:0:0:0:
201,105,112995,1,0,0:0:0:0:
9,99,113212,6,0,P|29:43|129:12,1,160,10|0,0:0|0:0,0:0:0:0:
277,112,113864,2,0,P|228:117|198:103,1,80,10|0,0:0|0:0,0:0:0:0:
360,166,114299,1,2,0:0:0:0:
360,166,114516,2,0,L|356:255,1,80,10|0,0:0|0:0,0:0:0:0:
214,384,114951,6,0,P|208:320|272:241,1,160,10|0,0:0|0:0,0:0:0:0:
398,340,115603,2,0,P|357:349|312:340,1,80,10|0,0:0|0:0,0:0:0:0:
476,193,116038,1,2,0:0:0:0:
476,193,116255,1,10,0:0:0:0:
498,366,116473,1,0,0:0:0:0:
300,192,116690,5,10,0:0:0:0:
466,104,116908,1,2,0:0:0:0:
258,105,117125,5,2,0:0:0:0:
424,17,117343,1,10,0:0:0:0:
300,192,117560,2,0,P|262:201|207:189,1,80,2|0,0:0|0:0,0:0:0:0:
52,136,117995,2,0,P|90:127|145:139,1,80,8|2,0:0|0:0,0:0:0:0:
103,315,118429,6,0,L|95:224,2,80,14|0|0,0:0|0:0|0:0,0:0:0:0:
221,195,119082,2,0,L|229:104,2,80,10|0|2,0:0|0:0|0:0,0:0:0:0:
311,67,119734,2,0,P|283:36|243:19,1,80,10|0,0:0|0:0,0:0:0:0:
79,95,120168,5,10,0:0:0:0:
79,95,120386,1,2,0:0:0:0:
228,115,120603,1,2,0:0:0:0:
69,271,120821,2,0,L|60:182,1,80,8|0,0:0|0:0,0:0:0:0:
137,346,121255,1,2,0:0:0:0:
137,346,121473,2,0,P|177:346|220:367,1,80,10|0,0:0|0:0,0:0:0:0:
351,237,121908,5,10,0:0:0:0:
351,237,122125,1,2,0:0:0:0:
187,258,122342,1,2,0:0:0:0:
410,381,122560,2,0,P|423:337|416:300,1,80,8|0,0:0|0:0,0:0:0:0:
358,160,122995,1,2,0:0:0:0:
358,160,123212,2,0,P|345:204|352:241,1,80,10|0,0:0|0:0,0:0:0:0:
450,125,123647,5,10,0:0:0:0:
262,104,123864,1,2,0:0:0:0:
461,34,124082,5,2,0:0:0:0:
273,13,124299,1,10,0:0:0:0:
450,125,124516,2,0,P|455:174|439:218,1,80,2|0,0:0|0:0,0:0:0:0:
347,315,124951,1,8,0:0:0:0:
342,295,125059,1,8,0:0:0:0:
341,275,125168,1,8,0:0:0:0:
343,255,125277,1,8,0:0:0:0:
350,236,125385,5,14,0:0:0:0:
175,317,125603,1,0,0:0:0:0:
231,178,125821,5,10,0:0:0:0:
291,369,126038,1,0,0:0:0:0:
63,354,126255,5,10,0:0:0:0:
175,317,126473,1,2,0:0:0:0:
72,260,126690,2,0,P|58:313|63:354,1,95.9999970703126,10|0,0:0|0:0,0:0:0:0:
233,205,127125,5,10,0:0:0:0:
124,140,127342,1,0,0:0:0:0:
300,96,127560,5,10,0:0:0:0:
191,31,127777,1,0,0:0:0:0:
370,165,127995,5,10,0:0:0:0:
384,43,128212,1,2,0:0:0:0:
457,138,128429,2,0,P|416:163|353:159,1,95.9999970703126,10|0,0:0|0:0,0:0:0:0:
274,68,128864,5,10,0:0:0:0:
243,222,129082,1,0,0:0:0:0:
181,46,129299,5,10,0:0:0:0:
150,200,129517,1,0,0:0:0:0:
279,66,129734,5,8,0:0:0:0:
245,232,129952,1,0,0:0:0:0:
176,41,130169,5,10,0:0:0:0:
143,207,130387,1,2,0:0:0:0:
215,117,130603,5,2,0:0:0:0:
215,117,132342,6,0,P|251:146|317:144,1,107.999996704102,2|2,0:0|0:0,0:0:0:0:
331,135,132777,2,0,L|328:212,1,71.9999978027344,8|0,0:0|0:0,0:0:0:0:
377,303,133212,2,0,P|417:328|485:311,2,107.999996704102,2|2|0,0:0|0:0|0:0,0:0:0:0:
258,357,134082,6,0,P|206:346|160:372,1,107.999996704102,2|2,0:0|0:0,0:0:0:0:
146,358,134516,2,0,L|149:277,1,71.9999978027344,8|0,0:0|0:0,0:0:0:0:
230,135,134951,2,0,P|247:177|228:244,2,107.999996704102,2|2|0,0:0|0:0|0:0,0:0:0:0:
330,36,135821,6,0,L|437:42,1,107.999996704102,2|2,0:0|0:0,0:0:0:0:
459,33,136255,2,0,L|454:115,1,71.9999978027344,8|0,0:0|0:0,0:0:0:0:
356,233,136690,2,0,L|351:161,1,71.9999978027344,2|0,0:0|0:0,0:0:0:0:
350,130,137016,1,2,0:0:0:0:
350,130,137125,1,8,0:0:0:0:
450,193,137342,1,0,0:0:0:0:
329,321,137560,6,0,P|282:302|192:333,1,143.999995605469,2|8,0:0|0:0,0:0:0:0:
99,376,138212,1,0,0:0:0:0:
45,282,138429,2,0,L|50:195,1,71.9999978027344,0|8,0:0|0:0,0:0:0:0:
192,256,138864,2,0,L|196:327,1,71.9999978027344,8|0,0:0|0:0,0:0:0:0:
363,199,139299,6,0,P|324:175|252:182,1,107.999996704102,2|2,0:0|0:0,0:0:0:0:
245,188,139734,2,0,L|249:104,1,71.9999978027344,8|0,0:0|0:0,0:0:0:0:
159,54,140168,2,0,P|121:48|55:88,2,107.999996704102,2|2|0,0:0|0:0|0:0,0:0:0:0:
62,172,141038,6,0,L|70:280,1,107.999996704102,2|2,0:0|0:0,0:0:0:0:
83,297,141473,2,0,P|119:287|157:285,1,71.9999978027344,8|0,0:0|0:0,0:0:0:0:
228,363,141908,2,0,L|337:349,2,107.999996704102,2|2|0,0:0|0:0|0:0,0:0:0:0:
299,229,142777,6,0,L|408:243,1,107.999996704102,2|2,0:0|0:0,0:0:0:0:
429,247,143212,2,0,L|423:175,1,71.9999978027344,8|0,0:0|0:0,0:0:0:0:
324,41,143647,2,0,L|318:113,1,71.9999978027344,2|0,0:0|0:0,0:0:0:0:
315,145,143974,1,2,0:0:0:0:
315,145,144082,1,8,0:0:0:0:
415,87,144299,1,0,0:0:0:0:
199,65,144516,5,14,0:0:0:0:
199,65,145386,5,2,0:0:0:0:
215,267,145603,1,2,0:0:0:0:
215,267,146255,6,0,P|251:238|317:240,1,107.999996704102,2|2,0:0|0:0,0:0:0:0:
331,249,146690,2,0,L|328:172,1,71.9999978027344,8|0,0:0|0:0,0:0:0:0:
377,81,147125,2,0,P|417:56|485:73,2,107.999996704102,2|2|0,0:0|0:0|0:0,0:0:0:0:
258,27,147995,6,0,P|206:38|160:12,1,107.999996704102,2|2,0:0|0:0,0:0:0:0:
146,26,148429,2,0,L|149:107,1,71.9999978027344,8|0,0:0|0:0,0:0:0:0:
230,249,148864,2,0,P|247:207|228:140,2,107.999996704102,2|2|0,0:0|0:0|0:0,0:0:0:0:
330,348,149734,6,0,L|437:342,1,107.999996704102,2|2,0:0|0:0,0:0:0:0:
459,351,150168,2,0,L|454:269,1,71.9999978027344,8|0,0:0|0:0,0:0:0:0:
356,151,150603,2,0,L|351:223,1,71.9999978027344,2|0,0:0|0:0,0:0:0:0:
350,254,150929,1,2,0:0:0:0:
350,254,151038,1,8,0:0:0:0:
450,191,151255,1,0,0:0:0:0:
329,63,151473,6,0,P|282:82|192:51,1,143.999995605469,2|8,0:0|0:0,0:0:0:0:
99,8,152125,1,0,0:0:0:0:
45,102,152342,2,0,L|50:189,1,71.9999978027344,0|8,0:0|0:0,0:0:0:0:
192,128,152777,2,0,L|196:57,1,71.9999978027344,8|0,0:0|0:0,0:0:0:0:
363,185,153212,6,0,P|324:209|252:202,1,107.999996704102,2|2,0:0|0:0,0:0:0:0:
245,196,153647,2,0,L|249:280,1,71.9999978027344,8|0,0:0|0:0,0:0:0:0:
159,330,154081,2,0,P|121:336|55:296,2,107.999996704102,2|2|0,0:0|0:0|0:0,0:0:0:0:
62,212,154951,6,0,L|70:104,1,107.999996704102,2|2,0:0|0:0,0:0:0:0:
83,87,155386,2,0,P|119:97|157:99,1,71.9999978027344,8|0,0:0|0:0,0:0:0:0:
228,21,155821,2,0,L|337:35,2,107.999996704102,2|2|0,0:0|0:0|0:0,0:0:0:0:
299,155,156690,6,0,L|408:141,1,107.999996704102,2|2,0:0|0:0,0:0:0:0:
429,137,157125,2,0,L|423:209,1,71.9999978027344,8|0,0:0|0:0,0:0:0:0:
324,343,157560,2,0,L|318:271,1,71.9999978027344,2|0,0:0|0:0,0:0:0:0:
315,239,157887,1,2,0:0:0:0:
315,239,157995,1,8,0:0:0:0:
415,297,158212,1,0,0:0:0:0:
199,319,158429,5,6,0:0:0:0:
256,192,158538,12,0,160060,0:0:0:0:
417,171,160168,6,0,P|462:164|498:140,2,80,14|0|0,0:0|0:0|0:0,0:0:0:0:
292,22,160820,2,0,P|349:16|429:92,1,160,10|2,0:0|0:0,0:0:0:0:
231,100,161472,1,10,0:0:0:0:
231,100,161690,1,0,0:0:0:0:
345,272,161907,6,0,L|334:103,1,160,10|0,0:0|0:0,0:0:0:0:
250,284,162559,2,0,P|267:326|297:354,1,80,10|0,0:0|0:0,0:0:0:0:
186,198,162994,1,2,0:0:0:0:
186,198,163212,2,0,L|103:209,1,80,10|0,0:0|0:0,0:0:0:0:
262,0,163647,6,0,P|287:47|262:156,1,160,10|0,0:0|0:0,0:0:0:0:
100,84,164299,2,0,P|146:85|181:80,1,80,10|0,0:0|0:0,0:0:0:0:
17,13,164733,1,2,0:0:0:0:
17,13,164951,1,10,0:0:0:0:
34,201,165168,1,0,0:0:0:0:
180,81,165385,6,0,P|192:128|179:171,1,80,10|2,0:0|0:0,0:0:0:0:
87,304,165820,1,2,0:0:0:0:
97,127,166038,1,10,0:0:0:0:
260,266,166255,2,0,L|177:273,1,80,2|0,0:0|0:0,0:0:0:0:
278,88,166690,2,0,L|361:95,1,80,10|0,0:0|0:0,0:0:0:0:
192,147,167125,6,0,P|176:105|179:59,2,80,14|0|0,0:0|0:0|0:0,0:0:0:0:
380,185,167777,2,0,P|363:126|263:91,1,160,10|2,0:0|0:0,0:0:0:0:
335,274,168429,1,10,0:0:0:0:
335,274,168646,1,0,0:0:0:0:
127,207,168864,6,0,P|178:202|291:182,1,160,10|0,0:0|0:0,0:0:0:0:
67,128,169516,2,0,P|41:161|33:209,1,80,10|0,0:0|0:0,0:0:0:0:
159,93,169951,1,2,0:0:0:0:
159,93,170168,2,0,L|151:13,1,80,10|0,0:0|0:0,0:0:0:0:
247,144,170603,6,0,P|298:156|400:106,1,160,10|0,0:0|0:0,0:0:0:0:
512,228,171255,2,0,P|474:213|427:210,1,80,10|0,0:0|0:0,0:0:0:0:
289,295,171690,1,2,0:0:0:0:
289,295,171907,1,10,0:0:0:0:
447,333,172125,1,0,0:0:0:0:
297,190,172342,5,10,0:0:0:0:
235,384,172559,1,2,0:0:0:0:
190,216,172777,5,2,0:0:0:0:
352,354,172994,1,10,0:0:0:0:
131,373,173212,2,0,P|123:327|140:282,1,80,2|0,0:0|0:0,0:0:0:0:
191,139,173646,2,0,P|199:185|182:230,1,80,8|2,0:0|0:0,0:0:0:0:
123,61,174081,6,0,L|38:69,2,80,14|0|0,0:0|0:0|0:0,0:0:0:0:
263,2,174733,2,0,L|348:10,2,80,10|0|2,0:0|0:0|0:0,0:0:0:0:
371,101,175385,2,0,P|410:79|431:45,1,80,10|0,0:0|0:0,0:0:0:0:
263,2,175820,5,10,0:0:0:0:
263,2,176038,1,2,0:0:0:0:
283,164,176255,1,2,0:0:0:0:
115,76,176472,2,0,P|157:62|196:65,1,80,8|0,0:0|0:0,0:0:0:0:
66,163,176907,1,2,0:0:0:0:
66,163,177125,2,0,P|33:134|16:99,1,80,10|0,0:0|0:0,0:0:0:0:
168,167,177559,5,10,0:0:0:0:
168,167,177777,1,2,0:0:0:0:
116,307,177994,1,2,0:0:0:0:
259,216,178212,2,0,P|270:166|265:136,1,80,8|0,0:0|0:0,0:0:0:0:
153,9,178646,1,2,0:0:0:0:
153,9,178864,2,0,P|142:59|147:89,1,80,10|0,0:0|0:0,0:0:0:0:
259,216,179299,5,10,0:0:0:0:
236,57,179516,1,2,0:0:0:0:
365,203,179733,5,2,0:0:0:0:
342,44,179950,1,10,0:0:0:0:
186,191,180168,2,0,P|231:214|270:216,1,80,2|0,0:0|0:0,0:0:0:0:
416,70,180603,5,8,0:0:0:0:
399,58,180711,1,8,0:0:0:0:
381,50,180820,1,8,0:0:0:0:
362,45,180929,1,8,0:0:0:0:
342,44,181037,5,14,0:0:0:0:
258,215,181255,1,0,0:0:0:0:
236,57,181473,5,10,0:0:0:0:
365,203,181691,1,0,0:0:0:0:
154,257,181908,5,10,0:0:0:0:
300,128,182126,1,2,0:0:0:0:
314,331,182342,2,0,P|266:339|218:316,1,95.9999970703126,10|0,0:0|0:0,0:0:0:0:
130,153,182777,5,10,0:0:0:0:
276,249,182995,1,0,0:0:0:0:
109,342,183212,5,10,0:0:0:0:
205,196,183430,1,0,0:0:0:0:
304,366,183647,5,10,0:0:0:0:
158,270,183865,1,2,0:0:0:0:
378,187,184082,2,0,P|387:239|367:288,1,95.9999970703126,10|0,0:0|0:0,0:0:0:0:
260,135,184516,5,10,0:0:0:0:
414,21,184734,1,0,0:0:0:0:
245,45,184951,5,10,0:0:0:0:
429,111,185169,1,0,0:0:0:0:
272,261,185386,5,10,0:0:0:0:
338,77,185604,1,2,0:0:0:0:
453,257,185821,2,0,P|402:281|358:279,1,95.9999970703126,10|2,0:0|0:0,0:0:0:0:
220,162,186255,5,10,0:0:0:0:
388,188,186473,1,2,0:0:0:0:
195,254,186690,5,10,0:0:0:0:
363,280,186908,1,2,0:0:0:0:
185,370,187125,6,0,L|175:266,1,95.9999970703126,10|0,0:0|0:0,0:0:0:0:
229,66,187560,2,0,L|219:161,1,95.9999970703126,10|0,0:0|0:0,0:0:0:0:
34,192,187995,6,0,P|79:170|129:183,1,95.9999970703126,14|2,0:0|0:0,0:0:0:0:
249,300,188429,1,8,0:0:0:0:
89,255,188647,1,2,0:0:0:0:
286,124,188864,6,0,L|295:227,1,95.9999970703126,8|2,0:0|0:0,0:0:0:0:
158,375,189299,2,0,L|166:279,1,95.9999970703126,10|0,0:0|0:0,0:0:0:0:
373,261,189734,5,10,0:0:0:0:
252,334,189951,1,2,0:0:0:0:
339,178,190168,2,0,P|375:170|432:192,1,95.9999970703126,10|0,0:0|0:0,0:0:0:0:
342,345,190603,2,0,P|306:353|249:331,1,95.9999970703126,8|2,0:0|0:0,0:0:0:0:
197,155,191038,5,10,0:0:0:0:
304,264,191255,1,2,0:0:0:0:
144,224,191473,5,10,0:0:0:0:
251,333,191690,1,2,0:0:0:0:
286,171,191908,2,0,P|278:116|246:80,1,95.9999970703126,10|0,0:0|0:0,0:0:0:0:
48,219,192342,2,0,L|148:224,1,95.9999970703126,8|2,0:0|0:0,0:0:0:0:
202,18,192777,2,0,P|174:56|169:103,1,95.9999970703126,10|0,0:0|0:0,0:0:0:0:
257,264,193212,5,10,0:0:0:0:
253,85,193429,1,2,0:0:0:0:
92,177,193647,5,10,0:0:0:0:
271,173,193864,1,2,0:0:0:0:
185,375,194082,5,10,0:0:0:0:
181,196,194299,1,0,0:0:0:0:
366,348,194516,2,0,P|325:367|271:353,1,95.9999970703126,8|0,0:0|0:0,0:0:0:0:
428,142,194951,5,14,0:0:0:0:
466,375,195168,1,0,0:0:0:0:
276,232,195386,5,8,0:0:0:0:
509,194,195603,1,0,0:0:0:0:
276,356,195821,5,10,0:0:0:0:
238,123,196038,1,2,0:0:0:0:
456,269,196255,2,0,L|355:269,1,95.9999970703126,10|0,0:0|0:0,0:0:0:0:
59,189,196690,5,14,0:0:0:0:
319,127,196908,1,0,0:0:0:0:
178,360,197125,5,8,0:0:0:0:
117,99,197343,1,0,0:0:0:0:
428,161,197560,5,10,0:0:0:0:
167,223,197778,1,2,0:0:0:0:
450,378,197995,2,0,P|463:317|447:260,1,95.9999970703126,10|0,0:0|0:0,0:0:0:0:
274,54,198429,5,14,0:0:0:0:
364,324,198647,1,0,0:0:0:0:
363,24,198864,5,10,0:0:0:0:
273,294,199082,1,0,0:0:0:0:
373,0,199299,6,0,L|432:5,3,47.9999985351563,10|0|0|0,2:2|3:2|2:2|3:2,0:0:0:0:
274,54,199734,2,0,L|215:59,3,47.9999985351563,10|0|0|0,2:2|3:2|2:2|3:2,0:0:0:0:
356,135,200168,6,0,P|363:180|354:211,1,64,2|2,0:0|0:0,0:0:0:0:
290,267,200603,1,2,0:0:0:0:
290,267,200821,1,2,0:0:0:0:
203,222,201038,2,0,P|158:210|98:246,1,96,2|2,0:0|0:0,0:0:0:0:
