osu file format v14

[General]
AudioFilename: audio.mp3
AudioLeadIn: 0
PreviewTime: 100821
Countdown: 0
SampleSet: Soft
StackLeniency: 0.4
Mode: 0
LetterboxInBreaks: 0
WidescreenStoryboard: 1

[Editor]
Bookmarks: 125386
DistanceSpacing: 1.3
BeatDivisor: 4
GridSize: 8
TimelineZoom: 1

[Metadata]
Title:Can't Remember to Forget You feat. Rihanna
TitleUnicode:Can't Remember to Forget You feat. Rihanna
Artist:Shakira
ArtistUnicode:Shakira
Creator:arronchu1207
Version:Hard
Source:
Tags:english pop rock latin riri Nunca Me Acuerdo de Olvidarte
BeatmapID:2749106
BeatmapSetID:1326967

[Difficulty]
HPDrainRate:4
CircleSize:4.2
OverallDifficulty:6.5
ApproachRate:7.4
SliderMultiplier:1.4
SliderTickRate:1

[Events]
//Background and Video events
0,0,"shariri.jpg",0,0
//Break Periods
2,62977,81908
//Storyboard Layer 0 (Background)
//Storyboard Layer 1 (Fail)
//Storyboard Layer 2 (Pass)
//Storyboard Layer 3 (Foreground)
//Storyboard Layer 4 (Overlay)
//Storyboard Sound Samples

[TimingPoints]
169,434.782608695652,4,2,1,50,1,0
7125,-125,4,2,1,50,0,0
31473,-125,4,2,0,50,0,0
34951,-100,4,2,1,80,0,1
61038,-125,4,2,1,50,0,0
83647,-125,4,2,1,50,0,0
101038,-125,4,2,0,50,0,0
104516,-100,4,2,1,80,0,1
124951,-100,4,2,1,80,0,0
125386,-83.3333333333333,4,2,1,80,0,1
130603,-125,4,2,1,50,0,0
132342,-111.111111111111,4,2,1,50,0,0
159734,-111.111111111111,4,2,1,5,0,0
160168,-100,4,2,1,80,0,1
180603,-90.9090909090909,4,2,1,80,0,0
181038,-83.3333333333333,4,2,1,80,0,1
194516,-83.3333333333333,4,2,1,80,0,0
194951,-83.3333333333333,4,2,1,80,0,1
199299,-83.3333333333333,4,2,1,90,0,1
199734,-83.3333333333333,4,2,1,100,0,1
200168,-125,4,2,0,40,0,0

[Colours]
Combo1 : 63,63,63
Combo2 : 249,228,134
Combo3 : 0,128,64
Combo4 : 0,128,128

[HitObjects]
4,66,7125,6,0,P|37:95|127:95,1,112,0|8,0:0|0:0,0:0:0:0:
180,68,7777,1,0,0:0:0:0:
180,68,7995,2,0,P|188:108|184:132,1,56,2|0,0:0|0:0,0:0:0:0:
153,200,8429,2,0,P|145:240|149:264,1,56,8|0,0:0|0:0,0:0:0:0:
212,357,8864,6,0,L|337:348,1,112,0|8,0:0|0:0,0:0:0:0:
400,311,9516,1,0,0:0:0:0:
400,311,9734,2,0,P|418:267|406:217,2,84,2|0|0,0:0|0:0|0:0,0:0:0:0:
312,253,10603,6,0,P|294:229|296:144,1,112,0|8,0:0|0:0,0:0:0:0:
332,75,11255,1,0,0:0:0:0:
332,75,11473,2,0,L|261:68,1,56,2|0,0:0|0:0,0:0:0:0:
210,17,11908,2,0,L|139:24,1,56,8|0,0:0|0:0,0:0:0:0:
68,104,12342,6,0,P|52:151|73:222,1,112,0|8,0:0|0:0,0:0:0:0:
138,262,12995,1,0,0:0:0:0:
207,215,13212,2,0,L|288:212,1,56,2|8,0:0|0:0,0:0:0:0:
297,188,13538,1,8,0:0:0:0:
297,188,13647,2,0,L|337:191,3,28,8|8|0|0,0:0|0:0|0:0|0:0,0:0:0:0:
360,212,14082,6,0,P|350:162|359:98,1,112,2|8,0:0|0:0,0:0:0:0:
388,23,14734,1,0,0:0:0:0:
307,0,14951,2,0,L|241:10,1,56,2|0,0:0|0:0,0:0:0:0:
197,73,15386,2,0,L|131:63,1,56,8|0,0:0|0:0,0:0:0:0:
72,158,15821,6,0,L|81:286,1,112,0|8,0:0|0:0,0:0:0:0:
135,333,16473,1,0,0:0:0:0:
209,295,16690,2,0,L|201:183,1,112,2|8,0:0|0:0,0:0:0:0:
166,106,17342,1,0,0:0:0:0:
277,42,17560,6,0,P|310:71|385:63,1,112,0|8,0:0|0:0,0:0:0:0:
434,139,18212,1,0,0:0:0:0:
434,139,18429,2,0,P|446:176|445:198,1,56,2|0,0:0|0:0,0:0:0:0:
395,260,18864,2,0,P|383:297|384:319,1,56,8|0,0:0|0:0,0:0:0:0:
296,382,19299,6,0,L|167:368,1,112,0|8,0:0|0:0,0:0:0:0:
119,316,19951,2,0,L|85:321,2,28,0|8|10,0:0|0:0|0:0,0:0:0:0:
183,262,20386,1,8,0:0:0:0:
183,262,20495,1,8,0:0:0:0:
183,262,20603,1,8,0:0:0:0:
118,207,20821,1,8,0:0:0:0:
214,138,21038,6,0,L|273:144,1,56,0|0,0:0|0:0,0:0:0:0:
324,79,21473,2,0,L|383:73,1,56,8|0,0:0|0:0,0:0:0:0:
450,118,21908,2,0,P|473:161|461:231,1,112,2|8,0:0|0:0,0:0:0:0:
421,293,22560,1,0,0:0:0:0:
317,243,22777,5,0,0:0:0:0:
265,309,22995,1,0,0:0:0:0:
265,309,23103,1,0,0:0:0:0:
265,309,23212,2,0,L|206:301,1,56,8|0,0:0|0:0,0:0:0:0:
136,257,23647,2,0,P|126:282|126:310,1,56,2|0,0:0|0:0,0:0:0:0:
211,217,24082,2,0,P|210:189|200:163,1,56,8|0,0:0|0:0,0:0:0:0:
118,80,24516,6,0,P|163:87|221:41,1,112,0|8,0:0|0:0,0:0:0:0:
297,23,25168,1,0,0:0:0:0:
297,23,25386,2,0,P|340:33|419:45,1,112,2|8,0:0|0:0,0:0:0:0:
489,26,26038,1,0,0:0:0:0:
438,142,26255,6,0,L|447:209,1,56,0|0,0:0|0:0,0:0:0:0:
468,278,26690,2,0,L|459:345,1,56,8|0,0:0|0:0,0:0:0:0:
390,379,27125,1,2,0:0:0:0:
327,325,27342,1,8,0:0:0:0:
327,325,27451,1,8,0:0:0:0:
327,325,27560,2,0,L|291:330,3,28,8|8|0|0,0:0|0:0|0:0|0:0,0:0:0:0:
264,304,27995,6,0,P|253:274|258:236,1,56,2|0,0:0|0:0,0:0:0:0:
282,171,28429,2,0,P|293:141|288:103,1,56,8|0,0:0|0:0,0:0:0:0:
247,46,28864,2,0,L|121:56,1,112,2|8,0:0|0:0,0:0:0:0:
72,110,29516,1,0,0:0:0:0:
158,188,29734,6,0,L|152:259,1,56,0|0,0:0|0:0,0:0:0:0:
236,256,30168,2,0,L|240:200,1,56,8|0,0:0|0:0,0:0:0:0:
311,154,30603,2,0,P|354:141|428:171,1,112,2|8,0:0|0:0,0:0:0:0:
455,235,31255,1,2,0:0:0:0:
455,235,31473,5,2,0:0:0:0:
223,353,32125,1,2,0:0:0:0:
223,353,32342,5,2,0:0:0:0:
313,117,32995,1,2,0:0:0:0:
236,96,33212,5,2,0:0:0:0:
236,96,33429,2,0,P|198:89|127:122,1,112,2|2,0:0|0:0,0:0:0:0:
152,198,34082,2,0,P|190:205|261:172,1,112,2|2,0:0|0:0,0:0:0:0:
313,117,34734,1,0,0:0:0:0:
426,178,34951,6,0,L|420:321,1,140,14|0,0:0|0:0,0:0:0:0:
326,366,35603,2,0,P|275:378|190:330,1,140,10|2,0:0|0:0,0:0:0:0:
159,243,36255,1,10,0:0:0:0:
159,243,36473,1,0,0:0:0:0:
274,143,36690,6,0,B|298:190|298:190|274:296,1,140,10|0,0:0|0:0,0:0:0:0:
159,243,37342,2,0,B|135:196|135:196|159:90,1,140,10|2,0:0|0:0,0:0:0:0:
197,16,37995,1,10,0:0:0:0:
197,16,38212,1,0,0:0:0:0:
274,143,38429,6,0,P|337:168|404:149,1,140,10|0,0:0|0:0,0:0:0:0:
410,43,39082,2,0,P|346:17|279:36,1,140,10|2,0:0|0:0,0:0:0:0:
198,102,39734,1,10,0:0:0:0:
198,102,39951,1,0,0:0:0:0:
280,212,40168,6,0,L|273:139,1,70,10|2,0:0|0:0,0:0:0:0:
178,187,40603,2,0,L|171:256,1,70,2|10,0:0|0:0,0:0:0:0:
231,342,41038,2,0,P|296:308|381:336,1,140,2|10,0:0|0:0,0:0:0:0:
448,374,41690,1,0,0:0:0:0:
505,248,41908,6,0,L|512:107,1,140,14|0,0:0|0:0,0:0:0:0:
392,70,42560,2,0,L|399:209,1,140,10|2,0:0|0:0,0:0:0:0:
336,293,43212,1,10,0:0:0:0:
336,293,43429,1,0,0:0:0:0:
207,225,43647,6,0,P|152:199|62:222,1,140,10|0,0:0|0:0,0:0:0:0:
103,313,44299,2,0,P|157:338|247:315,1,140,10|2,0:0|0:0,0:0:0:0:
336,293,44951,1,10,0:0:0:0:
336,293,45168,1,0,0:0:0:0:
226,185,45386,6,0,L|233:325,1,140,10|0,0:0|0:0,0:0:0:0:
336,293,46038,2,0,L|330:153,1,140,10|2,0:0|0:0,0:0:0:0:
258,82,46691,1,10,0:0:0:0:
258,82,46908,1,0,0:0:0:0:
361,0,47125,6,0,P|397:14|434:8,1,70,10|0,0:0|0:0,0:0:0:0:
489,95,47560,2,0,P|454:92|422:105,1,70,0|10,0:0|0:0,0:0:0:0:
470,198,47995,2,0,L|463:309,2,105,2|0|2,0:0|0:0|0:0,0:0:0:0:
337,108,48864,6,0,P|275:102|190:144,1,140,14|0,0:0|0:0,0:0:0:0:
225,234,49516,2,0,P|287:240|372:198,1,140,10|2,0:0|0:0,0:0:0:0:
423,129,50168,1,10,0:0:0:0:
423,129,50386,1,0,0:0:0:0:
322,18,50603,6,0,P|262:31|243:31,1,70,10|2,0:0|0:0,0:0:0:0:
149,19,51038,1,2,0:0:0:0:
149,19,51255,2,0,P|163:87|164:157,1,140,8|2,0:0|0:0,0:0:0:0:
117,252,51908,2,0,P|149:250|189:268,1,70,10|0,0:0|0:0,0:0:0:0:
252,369,52342,6,0,P|284:371|324:353,1,70,10|2,0:0|0:0,0:0:0:0:
394,283,52777,1,2,0:0:0:0:
394,283,52995,2,0,L|381:131,1,140,8|2,0:0|0:0,0:0:0:0:
288,105,53647,2,0,L|280:181,1,70,10|0,0:0|0:0,0:0:0:0:
244,275,54082,5,10,0:0:0:0:
244,275,54299,1,2,0:0:0:0:
150,229,54516,2,0,P|107:233|77:249,1,70,2|10,0:0|0:0,0:0:0:0:
13,323,54951,2,0,L|-1:182,1,140,2|8,0:0|0:0,0:0:0:0:
17,79,55603,1,0,0:0:0:0:
142,172,55821,6,0,P|169:197|280:197,1,140,14|0,0:0|0:0,0:0:0:0:
295,102,56473,2,0,P|237:64|169:71,1,140,10|2,0:0|0:0,0:0:0:0:
142,172,57125,1,10,0:0:0:0:
142,172,57342,1,0,0:0:0:0:
267,203,57560,6,0,P|320:210|415:210,1,140,10|0,0:0|0:0,0:0:0:0:
359,307,58212,2,0,P|306:300|211:300,1,140,10|2,0:0|0:0,0:0:0:0:
137,364,58864,1,10,0:0:0:0:
137,364,59082,1,0,0:0:0:0:
33,241,59299,6,0,L|24:92,1,140,10|0,0:0|0:0,0:0:0:0:
129,93,59951,2,0,L|138:232,1,140,10|2,0:0|0:0,0:0:0:0:
219,299,60603,1,10,0:0:0:0:
219,299,60821,1,0,0:0:0:0:
285,223,61038,5,2,0:0:0:0:
256,192,61147,12,0,62777,0:0:0:0:
330,169,82777,5,8,0:0:0:0:
240,196,82995,1,8,0:0:0:0:
240,196,83103,1,8,0:0:0:0:
240,196,83212,2,0,L|200:193,3,28,8|8|8|8,0:0|0:0|0:0|0:0,0:0:0:0:
177,172,83647,6,0,P|187:222|178:286,1,112,2|8,0:0|0:0,0:0:0:0:
149,361,84299,1,0,0:0:0:0:
230,384,84516,2,0,L|296:374,1,56,2|0,0:0|0:0,0:0:0:0:
340,311,84951,2,0,L|406:321,1,56,8|0,0:0|0:0,0:0:0:0:
465,226,85386,6,0,L|456:98,1,112,0|8,0:0|0:0,0:0:0:0:
402,51,86038,1,0,0:0:0:0:
402,51,86147,1,0,0:0:0:0:
402,51,86255,2,0,P|368:49|337:64,1,56,2|0,0:0|0:0,0:0:0:0:
266,36,86690,2,0,P|264:70|279:101,1,56,8|0,0:0|0:0,0:0:0:0:
192,181,87125,6,0,P|159:152|84:160,1,112,0|8,0:0|0:0,0:0:0:0:
22,199,87777,1,0,0:0:0:0:
22,199,87995,2,0,P|10:162|11:140,1,56,2|0,0:0|0:0,0:0:0:0:
61,78,88429,2,0,P|73:41|72:19,1,56,8|0,0:0|0:0,0:0:0:0:
189,0,88864,6,0,L|318:14,1,112,0|8,0:0|0:0,0:0:0:0:
366,66,89516,2,0,L|400:61,2,28,0|8|10,0:0|0:0|0:0,0:0:0:0:
302,120,89951,1,8,0:0:0:0:
302,120,90060,1,8,0:0:0:0:
302,120,90168,1,8,0:0:0:0:
367,175,90386,1,8,0:0:0:0:
299,274,90603,6,0,L|240:268,1,56,2|0,0:0|0:0,0:0:0:0:
179,323,91038,2,0,L|120:329,1,56,8|0,0:0|0:0,0:0:0:0:
40,313,91473,2,0,P|17:270|29:200,1,112,2|8,0:0|0:0,0:0:0:0:
69,138,92125,1,0,0:0:0:0:
187,178,92342,5,0,0:0:0:0:
239,112,92560,1,0,0:0:0:0:
239,112,92777,2,0,L|298:120,1,56,8|0,0:0|0:0,0:0:0:0:
368,164,93212,2,0,P|378:139|378:111,1,56,2|0,0:0|0:0,0:0:0:0:
293,204,93647,2,0,P|294:232|304:258,1,56,8|0,0:0|0:0,0:0:0:0:
385,337,94082,6,0,P|340:330|282:376,1,112,0|8,0:0|0:0,0:0:0:0:
206,366,94734,1,0,0:0:0:0:
206,366,94951,2,0,P|163:356|84:344,1,112,2|8,0:0|0:0,0:0:0:0:
23,302,95603,1,0,0:0:0:0:
115,214,95821,6,0,L|106:147,1,56,0|0,0:0|0:0,0:0:0:0:
52,95,96255,2,0,L|61:28,1,56,8|0,0:0|0:0,0:0:0:0:
138,7,96690,1,2,0:0:0:0:
205,73,96908,1,8,0:0:0:0:
205,73,97016,1,8,0:0:0:0:
205,73,97125,2,0,L|241:68,3,28,8|8|8|8,0:0|0:0|0:0|0:0,0:0:0:0:
267,92,97560,6,0,P|278:122|273:160,1,56,2|0,0:0|0:0,0:0:0:0:
240,220,97995,2,0,P|229:250|234:288,1,56,8|0,0:0|0:0,0:0:0:0:
282,339,98429,2,0,P|323:315|391:320,1,112,2|8,0:0|0:0,0:0:0:0:
460,358,99082,1,0,0:0:0:0:
471,235,99299,6,0,L|477:164,1,56,0|0,0:0|0:0,0:0:0:0:
393,167,99734,2,0,L|389:223,1,56,8|0,0:0|0:0,0:0:0:0:
318,269,100168,2,0,P|275:282|201:252,1,112,2|8,0:0|0:0,0:0:0:0:
174,188,100821,1,2,0:0:0:0:
174,188,101038,5,2,0:0:0:0:
292,31,101690,1,2,0:0:0:0:
292,31,101908,5,2,0:0:0:0:
202,267,102560,1,2,0:0:0:0:
287,289,102777,5,2,0:0:0:0:
287,289,102995,2,0,P|325:296|396:263,1,112,2|2,0:0|0:0,0:0:0:0:
366,187,103647,2,0,P|328:180|257:213,1,112,2|2,0:0|0:0,0:0:0:0:
202,267,104299,1,2,0:0:0:0:
88,193,104516,6,0,P|93:135|105:49,1,140,14|0,0:0|0:0,0:0:0:0:
198,6,105168,2,0,P|207:75|214:145,1,140,10|2,0:0|0:0,0:0:0:0:
196,252,105821,1,10,0:0:0:0:
196,252,106038,1,0,0:0:0:0:
335,267,106255,6,0,P|392:239|468:244,1,140,10|0,0:0|0:0,0:0:0:0:
484,351,106908,2,0,P|427:379|351:374,1,140,10|2,0:0|0:0,0:0:0:0:
251,339,107560,1,10,0:0:0:0:
251,339,107777,1,0,0:0:0:0:
356,234,107995,6,0,P|350:284|352:378,1,140,10|0,0:0|0:0,0:0:0:0:
251,339,108647,2,0,P|257:289|255:195,1,140,10|2,0:0|0:0,0:0:0:0:
185,127,109299,1,10,0:0:0:0:
185,127,109516,1,0,0:0:0:0:
281,52,109734,6,0,L|366:63,1,70,10|2,0:0|0:0,0:0:0:0:
433,132,110168,1,2,0:0:0:0:
433,132,110386,1,10,0:0:0:0:
346,191,110603,2,0,P|341:225|352:258,1,70,2|0,0:0|0:0,0:0:0:0:
385,358,111038,2,0,P|344:353|301:357,1,70,10|0,0:0|0:0,0:0:0:0:
209,258,111473,6,0,P|184:209|208:118,1,140,14|0,0:0|0:0,0:0:0:0:
304,120,112125,2,0,P|329:169|305:260,1,140,10|2,0:0|0:0,0:0:0:0:
271,348,112777,1,10,0:0:0:0:
271,348,112995,1,0,0:0:0:0:
176,239,113212,6,0,P|222:231|327:256,1,140,10|0,0:0|0:0,0:0:0:0:
271,348,113864,2,0,P|225:356|120:331,1,140,10|2,0:0|0:0,0:0:0:0:
47,287,114516,1,10,0:0:0:0:
47,287,114734,1,0,0:0:0:0:
149,199,114951,6,0,L|132:354,1,140,10|0,0:0|0:0,0:0:0:0:
47,287,115603,2,0,L|63:148,1,140,10|2,0:0|0:0,0:0:0:0:
146,83,116255,1,10,0:0:0:0:
146,83,116473,1,0,0:0:0:0:
213,163,116690,6,0,P|258:166|289:153,1,70,10|2,0:0|0:0,0:0:0:0:
310,57,117125,2,0,P|265:54|234:67,1,70,2|10,0:0|0:0,0:0:0:0:
376,137,117560,2,0,L|490:144,2,105,2|2|2,0:0|0:0|0:0,0:0:0:0:
241,175,118429,6,0,P|225:215|250:328,1,140,14|0,0:0|0:0,0:0:0:0:
321,373,119082,2,0,L|465:359,1,140,10|2,0:0|0:0,0:0:0:0:
510,268,119734,1,10,0:0:0:0:
510,268,119951,1,0,0:0:0:0:
406,201,120168,6,0,P|402:243|414:278,1,70,10|2,0:0|0:0,0:0:0:0:
510,268,120603,1,2,0:0:0:0:
510,268,120821,2,0,L|496:118,1,140,8|2,0:0|0:0,0:0:0:0:
449,34,121473,2,0,P|415:45|377:40,1,70,10|0,0:0|0:0,0:0:0:0:
250,14,121908,6,0,L|261:85,1,70,10|2,0:0|0:0,0:0:0:0:
333,158,122342,1,2,0:0:0:0:
333,158,122560,2,0,P|326:225|315:307,1,140,8|2,0:0|0:0,0:0:0:0:
220,341,123212,2,0,L|212:270,1,70,10|0,0:0|0:0,0:0:0:0:
202,170,123647,5,10,0:0:0:0:
202,170,123864,1,2,0:0:0:0:
98,150,124082,2,0,P|61:149|21:170,1,70,2|10,0:0|0:0,0:0:0:0:
14,265,124516,1,2,0:0:0:0:
81,346,124734,1,0,0:0:0:0:
185,336,124951,2,0,L|238:343,3,35,8|8|8|8,0:0|0:0|0:0|0:0,0:0:0:0:
264,344,125386,6,0,P|293:307|304:269,1,83.9999974365235,14|0,0:0|0:0,0:0:0:0:
161,192,125821,2,0,P|175:231|203:262,1,83.9999974365235,10|0,0:0|0:0,0:0:0:0:
344,178,126255,2,0,P|302:170|262:179,1,83.9999974365235,10|2,0:0|0:0,0:0:0:0:
203,262,126690,1,10,0:0:0:0:
203,262,126908,1,0,0:0:0:0:
315,355,127125,6,0,L|302:261,1,83.9999974365235,10|0,0:0|0:0,0:0:0:0:
486,292,127560,2,0,L|402:303,1,83.9999974365235,10|0,0:0|0:0,0:0:0:0:
416,122,127995,2,0,L|429:216,1,83.9999974365235,10|2,0:0|0:0,0:0:0:0:
335,178,128429,1,10,0:0:0:0:
335,178,128647,1,0,0:0:0:0:
374,45,128864,6,0,P|411:34|469:53,1,83.9999974365235,10|0,0:0|0:0,0:0:0:0:
335,178,129299,2,0,P|298:189|240:170,1,83.9999974365235,10|0,0:0|0:0,0:0:0:0:
279,15,129734,2,0,P|290:64|293:99,1,83.9999974365235,8|0,0:0|0:0,0:0:0:0:
163,202,130168,2,0,P|167:160|176:119,1,83.9999974365235,10|2,0:0|0:0,0:0:0:0:
135,26,130603,5,2,0:0:0:0:
138,38,132342,6,0,P|102:35|49:80,2,94.499997116089,2|2|0,0:0|0:0|0:0,0:0:0:0:
221,83,133212,2,0,L|322:69,1,94.499997116089,2|2,0:0|0:0,0:0:0:0:
338,64,133647,2,0,P|337:108|349:139,1,62.9999980773926,8|0,0:0|0:0,0:0:0:0:
428,226,134082,6,0,P|441:269|421:336,2,94.499997116089,2|2|0,0:0|0:0|0:0,0:0:0:0:
347,275,134951,2,0,L|245:281,1,94.499997116089,2|2,0:0|0:0,0:0:0:0:
233,294,135386,2,0,P|234:241|225:218,1,62.9999980773926,8|0,0:0|0:0,0:0:0:0:
157,119,135821,6,0,L|50:130,2,94.499997116089,2|2|0,0:0|0:0|0:0,0:0:0:0:
226,54,136690,2,0,L|325:61,1,94.499997116089,2|2,0:0|0:0,0:0:0:0:
339,51,137125,2,0,L|335:115,1,62.9999980773926,8|0,0:0|0:0,0:0:0:0:
267,220,137560,6,0,P|318:205|388:239,1,125.999996154785,2|8,0:0|0:0,0:0:0:0:
425,317,138212,1,0,0:0:0:0:
346,368,138429,2,0,P|305:369|273:353,1,62.9999980773926,0|8,0:0|0:0,0:0:0:0:
213,299,138864,2,0,P|172:298|140:314,1,62.9999980773926,8|0,0:0|0:0,0:0:0:0:
55,384,139299,6,0,L|43:266,2,94.499997116089,2|2|0,0:0|0:0|0:0,0:0:0:0:
152,305,140168,2,0,L|140:187,1,94.499997116089,2|2,0:0|0:0,0:0:0:0:
140,188,140603,2,0,P|177:194|209:190,1,62.9999980773926,8|0,0:0|0:0,0:0:0:0:
341,137,141038,6,0,P|389:131|442:163,2,94.499997116089,2|2|0,0:0|0:0|0:0,0:0:0:0:
374,225,141908,2,0,L|379:322,1,94.499997116089,2|2,0:0|0:0,0:0:0:0:
380,342,142342,2,0,P|339:333|302:334,1,62.9999980773926,8|0,0:0|0:0,0:0:0:0:
177,363,142777,6,0,P|129:356|104:305,2,94.499997116089,2|2|0,0:0|0:0|0:0,0:0:0:0:
251,304,143647,2,0,L|245:201,1,94.499997116089,2|2,0:0|0:0,0:0:0:0:
255,189,144082,2,0,L|258:123,1,62.9999980773926,8|0,0:0|0:0,0:0:0:0:
263,31,144516,5,14,0:0:0:0:
263,31,146038,1,2,0:0:0:0:
354,7,146255,6,0,P|390:4|443:49,2,94.499997116089,2|2|0,0:0|0:0|0:0,0:0:0:0:
263,31,147125,2,0,L|162:17,1,94.499997116089,2|2,0:0|0:0,0:0:0:0:
146,12,147560,2,0,P|147:56|135:87,1,62.9999980773926,8|0,0:0|0:0,0:0:0:0:
57,187,147995,6,0,P|44:230|64:297,2,94.499997116089,2|2|0,0:0|0:0|0:0,0:0:0:0:
138,236,148864,2,0,L|240:242,1,94.499997116089,2|2,0:0|0:0,0:0:0:0:
252,255,149299,2,0,P|251:202|260:179,1,62.9999980773926,8|0,0:0|0:0,0:0:0:0:
328,80,149734,6,0,L|435:91,2,94.499997116089,2|2|0,0:0|0:0|0:0,0:0:0:0:
259,15,150603,2,0,L|160:22,1,94.499997116089,2|2,0:0|0:0,0:0:0:0:
146,12,151038,2,0,L|150:76,1,62.9999980773926,8|0,0:0|0:0,0:0:0:0:
218,181,151473,6,0,P|167:166|97:200,1,125.999996154785,2|8,0:0|0:0,0:0:0:0:
60,278,152125,1,0,0:0:0:0:
118,351,152342,2,0,L|191:336,1,62.9999980773926,0|8,0:0|0:0,0:0:0:0:
251,282,152777,2,0,L|324:297,1,62.9999980773926,8|0,0:0|0:0,0:0:0:0:
424,384,153212,6,0,L|436:266,2,94.499997116089,2|2|0,0:0|0:0|0:0,0:0:0:0:
312,294,154082,2,0,L|324:176,1,94.499997116089,2|2,0:0|0:0,0:0:0:0:
324,177,154516,2,0,P|287:183|255:179,1,62.9999980773926,8|0,0:0|0:0,0:0:0:0:
144,98,154951,6,0,P|96:92|43:124,2,94.499997116089,2|2|0,0:0|0:0|0:0,0:0:0:0:
111,186,155821,2,0,L|106:283,1,94.499997116089,2|2,0:0|0:0,0:0:0:0:
105,303,156255,2,0,P|146:294|183:295,1,62.9999980773926,8|0,0:0|0:0,0:0:0:0:
308,324,156690,6,0,P|356:317|381:266,2,94.499997116089,2|2|0,0:0|0:0|0:0,0:0:0:0:
234,265,157560,2,0,L|240:162,1,94.499997116089,2|2,0:0|0:0,0:0:0:0:
230,150,157995,2,0,L|227:84,1,62.9999980773926,8|0,0:0|0:0,0:0:0:0:
256,192,158429,12,0,159734,0:0:0:0:
224,157,160168,6,0,P|173:169|88:121,1,140,14|0,0:0|0:0,0:0:0:0:
121,29,160821,2,0,P|172:17|257:65,1,140,10|2,0:0|0:0,0:0:0:0:
352,87,161473,1,10,0:0:0:0:
352,87,161690,1,0,0:0:0:0:
248,193,161908,6,0,P|246:141|248:40,1,140,10|0,0:0|0:0,0:0:0:0:
352,87,162560,2,0,P|354:139|352:240,1,140,10|2,0:0|0:0,0:0:0:0:
308,324,163212,1,10,0:0:0:0:
308,324,163429,1,0,0:0:0:0:
248,193,163647,6,0,P|184:167|117:186,1,140,10|0,0:0|0:0,0:0:0:0:
48,266,164299,2,0,P|111:291|178:272,1,140,10|2,0:0|0:0,0:0:0:0:
248,193,164951,1,10,0:0:0:0:
248,193,165168,1,0,0:0:0:0:
339,291,165386,6,0,L|332:364,1,70,10|2,0:0|0:0,0:0:0:0:
435,311,165821,2,0,L|428:242,1,70,2|10,0:0|0:0,0:0:0:0:
376,149,166255,2,0,P|440:159|502:109,1,140,2|10,0:0|0:0,0:0:0:0:
415,51,166908,1,0,0:0:0:0:
295,98,167125,6,0,L|302:239,1,140,14|0,0:0|0:0,0:0:0:0:
199,275,167777,2,0,L|192:136,1,140,10|2,0:0|0:0,0:0:0:0:
166,37,168429,1,10,0:0:0:0:
166,37,168647,1,0,0:0:0:0:
32,111,168864,6,0,P|14:158|30:254,1,140,10|0,0:0|0:0,0:0:0:0:
130,255,169516,2,0,P|148:208|132:112,1,140,10|2,0:0|0:0,0:0:0:0:
80,37,170168,1,10,0:0:0:0:
80,37,170386,1,0,0:0:0:0:
218,4,170603,6,0,L|377:11,1,140,10|0,0:0|0:0,0:0:0:0:
390,110,171255,2,0,L|250:104,1,140,10|2,0:0|0:0,0:0:0:0:
173,176,171908,1,10,0:0:0:0:
173,176,172125,1,0,0:0:0:0:
254,272,172342,6,0,P|267:240|264:205,1,70,10|2,0:0|0:0,0:0:0:0:
172,175,172777,2,0,P|159:207|163:242,1,70,2|10,0:0|0:0,0:0:0:0:
175,346,173212,2,0,L|55:333,2,105,2|2|2,0:0|0:0|0:0,0:0:0:0:
266,224,174082,6,0,P|272:162|230:77,1,140,14|0,0:0|0:0,0:0:0:0:
139,109,174734,2,0,P|133:171|175:256,1,140,10|2,0:0|0:0,0:0:0:0:
221,334,175386,1,10,0:0:0:0:
221,334,175603,1,0,0:0:0:0:
300,225,175821,6,0,P|230:226|161:240,1,140,10|2,0:0|0:0,0:0:0:0:
221,334,176473,2,0,P|290:332|359:318,1,140,8|2,0:0|0:0,0:0:0:0:
446,257,177125,1,10,0:0:0:0:
446,257,177342,1,0,0:0:0:0:
300,225,177560,6,0,P|283:185|298:87,1,140,10|2,0:0|0:0,0:0:0:0:
385,37,178212,2,0,P|402:77|387:175,1,140,8|2,0:0|0:0,0:0:0:0:
300,225,178864,2,0,L|230:217,1,70,10|0,0:0|0:0,0:0:0:0:
151,155,179299,5,10,0:0:0:0:
151,155,179516,1,2,0:0:0:0:
93,243,179734,2,0,P|97:286|113:316,1,70,2|10,0:0|0:0,0:0:0:0:
194,369,180168,2,0,L|311:358,1,105,2|0,0:0|0:0,0:0:0:0:
333,325,180603,2,0,L|342:276,3,38.5000011749268,8|8|8|8,0:0|0:0|0:0|0:0,0:0:0:0:
306,252,181038,6,0,P|295:193|307:157,1,83.9999974365235,14|0,0:0|0:0,0:0:0:0:
399,124,181473,2,0,P|404:82|392:42,1,83.9999974365235,10|0,0:0|0:0,0:0:0:0:
294,5,181908,1,10,0:0:0:0:
294,5,182125,1,2,0:0:0:0:
200,61,182342,2,0,L|211:144,1,83.9999974365235,10|0,0:0|0:0,0:0:0:0:
297,212,182777,6,0,L|285:295,1,83.9999974365235,10|0,0:0|0:0,0:0:0:0:
200,365,183212,2,0,P|151:366|109:338,1,83.9999974365235,10|0,0:0|0:0,0:0:0:0:
47,275,183647,1,10,0:0:0:0:
47,275,183864,1,2,0:0:0:0:
136,212,184082,2,0,P|134:170|126:128,1,83.9999974365235,10|0,0:0|0:0,0:0:0:0:
96,24,184516,6,0,L|185:12,1,83.9999974365235,10|0,0:0|0:0,0:0:0:0:
254,91,184951,2,0,L|343:103,1,83.9999974365235,10|0,0:0|0:0,0:0:0:0:
415,25,185386,1,10,0:0:0:0:
415,25,185603,1,2,0:0:0:0:
492,102,185821,2,0,P|505:156|493:194,1,83.9999974365235,10|2,0:0|0:0,0:0:0:0:
446,279,186255,5,10,0:0:0:0:
446,279,186473,1,2,0:0:0:0:
344,239,186690,1,10,0:0:0:0:
344,239,186908,1,2,0:0:0:0:
299,339,187125,2,0,P|254:356|208:348,1,83.9999974365235,10|0,0:0|0:0,0:0:0:0:
157,262,187560,2,0,P|112:245|66:253,1,83.9999974365235,10|0,0:0|0:0,0:0:0:0:
26,152,187995,6,0,L|35:59,1,83.9999974365235,14|2,0:0|0:0,0:0:0:0:
126,10,188429,2,0,L|134:94,1,83.9999974365235,8|2,0:0|0:0,0:0:0:0:
228,150,188864,2,0,L|237:57,1,83.9999974365235,8|2,0:0|0:0,0:0:0:0:
328,8,189299,1,10,0:0:0:0:
328,8,189516,1,0,0:0:0:0:
423,63,189734,5,10,0:0:0:0:
423,63,189951,1,2,0:0:0:0:
369,159,190168,2,0,P|364:218|385:255,1,83.9999974365235,10|0,0:0|0:0,0:0:0:0:
465,299,190603,2,0,P|470:358|459:385,1,83.9999974365235,8|2,0:0|0:0,0:0:0:0:
364,334,191038,1,10,0:0:0:0:
364,334,191255,1,2,0:0:0:0:
270,380,191473,5,10,0:0:0:0:
270,380,191690,1,2,0:0:0:0:
175,325,191908,2,0,L|184:235,1,83.9999974365235,10|0,0:0|0:0,0:0:0:0:
156,136,192342,2,0,L|246:145,1,83.9999974365235,8|2,0:0|0:0,0:0:0:0:
318,69,192777,2,0,P|343:110|347:147,1,83.9999974365235,10|0,0:0|0:0,0:0:0:0:
293,235,193212,5,10,0:0:0:0:
293,235,193429,1,2,0:0:0:0:
405,241,193647,1,10,0:0:0:0:
405,241,193864,1,2,0:0:0:0:
340,330,194082,2,0,P|293:343|245:331,1,83.9999974365235,10|0,0:0|0:0,0:0:0:0:
166,281,194516,2,0,P|119:268|71:280,1,83.9999974365235,8|0,0:0|0:0,0:0:0:0:
3,162,194951,6,0,P|50:175|98:163,1,83.9999974365235,14|0,0:0|0:0,0:0:0:0:
100,2,195386,2,0,P|65:37|51:84,1,83.9999974365235,8|0,0:0|0:0,0:0:0:0:
160,93,195821,1,10,0:0:0:0:
160,93,196038,1,2,0:0:0:0:
289,13,196255,2,0,L|202:-1,1,83.9999974365235,10|0,0:0|0:0,0:0:0:0:
352,91,196690,6,0,L|439:77,1,83.9999974365235,14|0,0:0|0:0,0:0:0:0:
329,187,197125,2,0,P|284:166|262:130,1,83.9999974365235,8|0,0:0|0:0,0:0:0:0:
289,13,197560,1,10,0:0:0:0:
289,13,197777,1,2,0:0:0:0:
434,78,197995,2,0,L|425:165,1,83.9999974365235,10|0,0:0|0:0,0:0:0:0:
410,293,198429,5,14,0:0:0:0:
410,293,198647,1,0,0:0:0:0:
281,274,198864,1,10,0:0:0:0:
281,274,199082,1,0,0:0:0:0:
303,147,199299,6,0,L|297:99,3,41.9999987182618,10|0|0|0,2:2|3:2|2:2|3:2,0:0:0:0:
265,71,199734,2,0,L|269:18,3,41.9999987182618,10|0|0|0,2:2|3:2|2:2|3:2,0:0:0:0:
227,2,200168,6,0,P|194:-2|154:12,1,56,2|2,0:0|0:0,0:0:0:0:
102,56,200603,2,0,P|98:89|112:129,1,56,2|2,0:0|0:0,0:0:0:0:
160,178,201038,2,0,P|171:218|162:273,1,84,2|2,0:0|0:0,0:0:0:0:
