osu file format v14

[General]
AudioFilename: audio.ogg
AudioLeadIn: 0
PreviewTime: 60705
Countdown: 0
SampleSet: Soft
StackLeniency: 0.7
Mode: 3
LetterboxInBreaks: 0
SpecialStyle: 0
WidescreenStoryboard: 1

[Editor]
Bookmarks: 244,2090,16859,31628,46397,61167,75936,90705,105474,120244,135013,149782,164551,179320,194090,208859
DistanceSpacing: 0.7
BeatDivisor: 8
GridSize: 8
TimelineZoom: 2.050003

[Metadata]
Title:SELOS
TitleUnicode:SELOS
Artist:Shaira
ArtistUnicode:Shaira
Creator:chocomilku-
Version:Normal
Source:
Tags:AHS Productions Dj Charles AG Alvin Lenka Trouble Is A Friend Original Bangsamoro Music pinoy OPM OBM electronic dance music edm ang puso ko'y koy nagdurugo female vocalist vocals NOR HA NA norhana shairaa moro singer Sto. santo NiƱo nino Mix Club filipino pop cover remix tiktok tik tok
BeatmapID:4534658
BeatmapSetID:2150631

[Difficulty]
HPDrainRate:7
CircleSize:4
OverallDifficulty:7
ApproachRate:5
SliderMultiplier:1.4
SliderTickRate:1

[Events]
//Background and Video events
0,0,"bg.jpg",0,0
Video,0,"MV.mp4"
//Break Periods
//Storyboard Layer 0 (Background)
//Storyboard Layer 1 (Fail)
//Storyboard Layer 2 (Pass)
//Storyboard Layer 3 (Foreground)
//Storyboard Layer 4 (Overlay)
//Storyboard Sound Samples

[TimingPoints]
244,461.538461538462,4,2,1,75,1,0
61167,-100,4,2,1,75,0,1
74090,-100,4,2,1,75,0,0
75936,-100,4,2,1,75,0,1
88859,-100,4,2,1,75,0,0
149782,-100,4,2,1,75,0,1
162705,-100,4,2,1,75,0,0
164551,-100,4,2,1,75,0,1
177474,-100,4,2,1,75,0,0

[HitObjects]
448,192,244,128,0,1167:0:0:0:0:
64,192,244,1,0,0:0:0:0:
192,192,1167,1,0,0:0:0:0:
64,192,1167,1,0,0:0:0:0:
320,192,1397,1,0,0:0:0:0:
448,192,1397,1,0,0:0:0:0:
64,192,1628,1,0,0:0:0:0:
192,192,1628,1,0,0:0:0:0:
320,192,1744,1,0,0:0:0:0:
448,192,1859,1,0,0:0:0:0:
64,192,2090,128,0,2551:0:0:0:0:
448,192,2090,1,0,0:0:0:0:
320,192,2320,1,0,0:0:0:0:
192,192,2551,1,0,0:0:0:0:
448,192,2551,1,0,0:0:0:0:
320,192,2782,1,0,0:0:0:0:
192,192,3013,128,0,3474:0:0:0:0:
64,192,3244,1,0,0:0:0:0:
320,192,3474,1,0,0:0:0:0:
448,192,3474,1,0,0:0:0:0:
64,192,3705,1,0,0:0:0:0:
320,192,3936,128,0,4397:0:0:0:0:
448,192,4167,1,0,0:0:0:0:
192,192,4397,1,0,0:0:0:0:
64,192,4397,1,0,0:0:0:0:
320,192,4628,1,0,0:0:0:0:
448,192,4859,128,0,5320:0:0:0:0:
192,192,5090,1,0,0:0:0:0:
320,192,5320,1,0,0:0:0:0:
64,192,5320,1,0,0:0:0:0:
192,192,5551,128,0,5782:0:0:0:0:
448,192,5782,128,0,6013:0:0:0:0:
320,192,6013,1,0,0:0:0:0:
192,192,6244,128,0,6474:0:0:0:0:
64,192,6244,1,0,0:0:0:0:
448,192,6474,128,0,6705:0:0:0:0:
64,192,6705,128,0,6936:0:0:0:0:
320,192,6936,1,0,0:0:0:0:
64,192,7167,128,0,7397:0:0:0:0:
192,192,7167,1,0,0:0:0:0:
320,192,7397,1,0,0:0:0:0:
448,192,7628,128,0,7859:0:0:0:0:
320,192,7859,128,0,8090:0:0:0:0:
64,192,8090,128,0,8320:0:0:0:0:
448,192,8090,1,0,0:0:0:0:
192,192,8320,128,0,8551:0:0:0:0:
448,192,8551,128,0,9013:0:0:0:0:
64,192,8782,1,0,0:0:0:0:
192,192,9013,1,0,0:0:0:0:
320,192,9013,1,0,0:0:0:0:
64,192,9244,1,0,0:0:0:0:
448,192,9474,128,0,9705:0:0:0:0:
320,192,9705,128,0,9936:0:0:0:0:
192,192,9936,128,0,10167:0:0:0:0:
448,192,9936,1,0,0:0:0:0:
64,192,10167,128,0,10397:0:0:0:0:
448,192,10397,128,0,10628:0:0:0:0:
320,192,10628,1,0,0:0:0:0:
192,192,10859,128,0,11090:0:0:0:0:
64,192,10859,1,0,0:0:0:0:
320,192,11090,128,0,11320:0:0:0:0:
64,192,11320,128,0,11551:0:0:0:0:
192,192,11551,128,0,11782:0:0:0:0:
320,192,11782,128,0,12013:0:0:0:0:
64,192,11782,1,0,0:0:0:0:
448,192,12013,128,0,12244:0:0:0:0:
64,192,12244,128,0,12474:0:0:0:0:
192,192,12474,1,0,0:0:0:0:
320,192,12705,128,0,12936:0:0:0:0:
448,192,12705,1,0,0:0:0:0:
192,192,12936,1,0,0:0:0:0:
448,192,13167,128,0,14090:0:0:0:0:
320,192,13397,1,0,0:0:0:0:
192,192,13628,1,0,0:0:0:0:
64,192,13628,1,0,0:0:0:0:
320,192,13859,1,0,0:0:0:0:
64,192,14090,1,0,0:0:0:0:
448,192,14320,128,0,14551:0:0:0:0:
320,192,14551,1,0,0:0:0:0:
192,192,14551,1,0,0:0:0:0:
64,192,14782,1,0,0:0:0:0:
320,192,15013,1,0,0:0:0:0:
448,192,15013,128,0,15244:0:0:0:0:
64,192,15244,1,0,0:0:0:0:
192,192,15474,1,0,0:0:0:0:
320,192,15474,1,0,0:0:0:0:
448,192,15705,128,0,15936:0:0:0:0:
64,192,15936,1,0,0:0:0:0:
320,192,15936,1,0,0:0:0:0:
64,192,16167,1,0,0:0:0:0:
448,192,16397,1,0,0:0:0:0:
320,192,16397,1,0,0:0:0:0:
192,192,16513,1,0,0:0:0:0:
64,192,16628,1,0,0:0:0:0:
448,192,16859,128,0,17320:0:0:0:0:
320,192,16859,1,0,0:0:0:0:
192,192,17090,1,0,0:0:0:0:
320,192,17320,1,0,0:0:0:0:
64,192,17320,1,0,0:0:0:0:
192,192,17551,1,0,0:0:0:0:
320,192,17782,128,0,18244:0:0:0:0:
448,192,18013,1,0,0:0:0:0:
192,192,18244,1,0,0:0:0:0:
64,192,18244,1,0,0:0:0:0:
448,192,18474,1,0,0:0:0:0:
192,192,18705,128,0,19167:0:0:0:0:
64,192,18936,1,0,0:0:0:0:
320,192,19167,1,0,0:0:0:0:
448,192,19167,1,0,0:0:0:0:
192,192,19397,1,0,0:0:0:0:
64,192,19628,128,0,20090:0:0:0:0:
320,192,19859,1,0,0:0:0:0:
192,192,20090,1,0,0:0:0:0:
448,192,20090,1,0,0:0:0:0:
320,192,20320,128,0,20551:0:0:0:0:
64,192,20551,128,0,20782:0:0:0:0:
192,192,20782,1,0,0:0:0:0:
448,192,21013,128,0,21244:0:0:0:0:
320,192,21013,1,0,0:0:0:0:
64,192,21244,128,0,21474:0:0:0:0:
448,192,21474,128,0,21705:0:0:0:0:
192,192,21705,1,0,0:0:0:0:
448,192,21936,128,0,22167:0:0:0:0:
320,192,21936,1,0,0:0:0:0:
192,192,22167,1,0,0:0:0:0:
64,192,22397,128,0,22628:0:0:0:0:
192,192,22628,128,0,22859:0:0:0:0:
448,192,22859,128,0,23090:0:0:0:0:
64,192,22859,1,0,0:0:0:0:
320,192,23090,128,0,23320:0:0:0:0:
64,192,23320,128,0,23782:0:0:0:0:
448,192,23551,1,0,0:0:0:0:
320,192,23782,1,0,0:0:0:0:
192,192,23782,1,0,0:0:0:0:
448,192,24013,1,0,0:0:0:0:
64,192,24244,128,0,24474:0:0:0:0:
192,192,24474,128,0,24705:0:0:0:0:
320,192,24705,128,0,24936:0:0:0:0:
64,192,24705,1,0,0:0:0:0:
448,192,24936,128,0,25167:0:0:0:0:
64,192,25167,128,0,25397:0:0:0:0:
192,192,25397,1,0,0:0:0:0:
320,192,25628,128,0,25859:0:0:0:0:
448,192,25628,1,0,0:0:0:0:
192,192,25859,128,0,26090:0:0:0:0:
448,192,26090,128,0,26320:0:0:0:0:
320,192,26320,128,0,26551:0:0:0:0:
192,192,26551,128,0,26782:0:0:0:0:
448,192,26551,1,0,0:0:0:0:
64,192,26782,128,0,27013:0:0:0:0:
448,192,27013,128,0,27244:0:0:0:0:
320,192,27244,1,0,0:0:0:0:
192,192,27474,128,0,27705:0:0:0:0:
64,192,27474,1,0,0:0:0:0:
320,192,27705,1,0,0:0:0:0:
64,192,27936,1,0,0:0:0:0:
192,192,28051,1,0,0:0:0:0:
320,192,28167,1,0,0:0:0:0:
448,192,28397,1,0,0:0:0:0:
64,192,28397,1,0,0:0:0:0:
320,192,28513,1,0,0:0:0:0:
192,192,28628,1,0,0:0:0:0:
448,192,28859,1,0,0:0:0:0:
64,192,28974,1,0,0:0:0:0:
448,192,29090,1,0,0:0:0:0:
192,192,29320,1,0,0:0:0:0:
64,192,29320,1,0,0:0:0:0:
320,192,29436,1,0,0:0:0:0:
192,192,29551,1,0,0:0:0:0:
448,192,29782,1,0,0:0:0:0:
64,192,29782,128,0,30244:0:0:0:0:
448,192,30244,128,0,30705:0:0:0:0:
320,192,30705,1,0,0:0:0:0:
64,192,30705,1,0,0:0:0:0:
320,192,30936,1,0,0:0:0:0:
64,192,31167,1,0,0:0:0:0:
448,192,31167,1,0,0:0:0:0:
192,192,31282,1,0,0:0:0:0:
320,192,31397,1,0,0:0:0:0:
64,192,31628,1,0,0:0:0:0:
448,192,31628,128,0,31859:0:0:0:0:
192,192,31859,128,0,32090:0:0:0:0:
320,192,32090,128,0,32320:0:0:0:0:
64,192,32320,128,0,32551:0:0:0:0:
192,192,32551,128,0,33013:0:0:0:0:
448,192,32782,1,0,0:0:0:0:
320,192,33013,128,0,33474:0:0:0:0:
64,192,33244,1,0,0:0:0:0:
64,192,33474,128,0,33705:0:0:0:0:
320,192,33705,128,0,33936:0:0:0:0:
192,192,33936,128,0,34167:0:0:0:0:
448,192,34167,128,0,34397:0:0:0:0:
320,192,34397,128,0,34859:0:0:0:0:
64,192,34628,1,0,0:0:0:0:
192,192,34859,128,0,35320:0:0:0:0:
448,192,35090,1,0,0:0:0:0:
448,192,35320,128,0,35782:0:0:0:0:
320,192,35551,1,0,0:0:0:0:
192,192,35782,1,0,0:0:0:0:
320,192,36013,1,0,0:0:0:0:
192,192,36244,1,0,0:0:0:0:
448,192,36474,1,0,0:0:0:0:
64,192,36705,1,0,0:0:0:0:
320,192,36936,1,0,0:0:0:0:
192,192,37167,1,0,0:0:0:0:
448,192,37397,1,0,0:0:0:0:
64,192,37628,1,0,0:0:0:0:
320,192,37859,1,0,0:0:0:0:
192,192,38090,1,0,0:0:0:0:
320,192,38320,1,0,0:0:0:0:
64,192,38551,1,0,0:0:0:0:
64,192,38782,1,0,0:0:0:0:
64,192,39013,128,0,39244:0:0:0:0:
320,192,39244,128,0,39474:0:0:0:0:
192,192,39474,128,0,39705:0:0:0:0:
64,192,39474,1,0,0:0:0:0:
448,192,39705,128,0,39936:0:0:0:0:
320,192,39936,128,0,40397:0:0:0:0:
192,192,40167,1,0,0:0:0:0:
448,192,40397,128,0,40628:0:0:0:0:
64,192,40397,1,0,0:0:0:0:
192,192,40628,128,0,40859:0:0:0:0:
320,192,40859,128,0,41090:0:0:0:0:
64,192,41090,128,0,41320:0:0:0:0:
192,192,41320,128,0,41782:0:0:0:0:
320,192,41320,1,0,0:0:0:0:
448,192,41551,1,0,0:0:0:0:
320,192,41782,128,0,42244:0:0:0:0:
448,192,42013,1,0,0:0:0:0:
64,192,42244,128,0,42705:0:0:0:0:
192,192,42244,1,0,0:0:0:0:
320,192,42474,1,0,0:0:0:0:
448,192,42705,128,0,43167:0:0:0:0:
192,192,42936,1,0,0:0:0:0:
320,192,43167,1,0,0:0:0:0:
64,192,43167,1,0,0:0:0:0:
192,192,43397,1,0,0:0:0:0:
320,192,43628,1,0,0:0:0:0:
64,192,43859,1,0,0:0:0:0:
448,192,44090,1,0,0:0:0:0:
320,192,44090,1,0,0:0:0:0:
192,192,44320,1,0,0:0:0:0:
320,192,44551,1,0,0:0:0:0:
64,192,44782,1,0,0:0:0:0:
320,192,45013,1,0,0:0:0:0:
448,192,45013,1,0,0:0:0:0:
192,192,45244,1,0,0:0:0:0:
64,192,45474,1,0,0:0:0:0:
448,192,45474,1,0,0:0:0:0:
448,192,45705,1,0,0:0:0:0:
320,192,45936,1,0,0:0:0:0:
192,192,46051,1,0,0:0:0:0:
64,192,46167,1,0,0:0:0:0:
448,192,46397,128,0,46859:0:0:0:0:
320,192,46397,1,0,0:0:0:0:
192,192,46628,1,0,0:0:0:0:
320,192,46859,1,0,0:0:0:0:
64,192,46859,1,0,0:0:0:0:
192,192,47090,1,0,0:0:0:0:
320,192,47320,128,0,47782:0:0:0:0:
448,192,47551,1,0,0:0:0:0:
64,192,47782,1,0,0:0:0:0:
192,192,47782,1,0,0:0:0:0:
448,192,48013,1,0,0:0:0:0:
192,192,48244,128,0,48705:0:0:0:0:
64,192,48474,1,0,0:0:0:0:
320,192,48705,1,0,0:0:0:0:
448,192,48705,1,0,0:0:0:0:
192,192,48936,1,0,0:0:0:0:
64,192,49167,128,0,49628:0:0:0:0:
320,192,49397,1,0,0:0:0:0:
448,192,49628,128,0,50090:0:0:0:0:
192,192,49628,1,0,0:0:0:0:
320,192,49859,1,0,0:0:0:0:
64,192,50090,128,0,50551:0:0:0:0:
192,192,50320,1,0,0:0:0:0:
320,192,50551,1,0,0:0:0:0:
448,192,50551,1,0,0:0:0:0:
192,192,50782,1,0,0:0:0:0:
64,192,51013,1,0,0:0:0:0:
448,192,51244,1,0,0:0:0:0:
320,192,51474,1,0,0:0:0:0:
192,192,51474,1,0,0:0:0:0:
448,192,51705,1,0,0:0:0:0:
64,192,51936,1,0,0:0:0:0:
320,192,52167,1,0,0:0:0:0:
192,192,52397,1,0,0:0:0:0:
64,192,52397,1,0,0:0:0:0:
320,192,52628,1,0,0:0:0:0:
448,192,52859,1,0,0:0:0:0:
64,192,53090,1,0,0:0:0:0:
192,192,53320,1,0,0:0:0:0:
320,192,53320,1,0,0:0:0:0:
448,192,53551,1,0,0:0:0:0:
64,192,53782,128,0,54013:0:0:0:0:
320,192,54013,1,0,0:0:0:0:
448,192,54244,1,0,0:0:0:0:
192,192,54244,1,0,0:0:0:0:
320,192,54474,1,0,0:0:0:0:
192,192,54705,128,0,55167:0:0:0:0:
64,192,54936,1,0,0:0:0:0:
320,192,55167,1,0,0:0:0:0:
448,192,55167,1,0,0:0:0:0:
64,192,55397,1,0,0:0:0:0:
320,192,55628,128,0,56090:0:0:0:0:
448,192,55859,1,0,0:0:0:0:
64,192,56090,1,0,0:0:0:0:
192,192,56090,1,0,0:0:0:0:
320,192,56320,1,0,0:0:0:0:
448,192,56551,128,0,57013:0:0:0:0:
192,192,56782,1,0,0:0:0:0:
320,192,57013,1,0,0:0:0:0:
64,192,57013,128,0,57474:0:0:0:0:
192,192,57244,1,0,0:0:0:0:
448,192,57474,128,0,57936:0:0:0:0:
320,192,57705,1,0,0:0:0:0:
64,192,57936,1,0,0:0:0:0:
192,192,57936,1,0,0:0:0:0:
320,192,58167,1,0,0:0:0:0:
448,192,58397,1,0,0:0:0:0:
64,192,58628,1,0,0:0:0:0:
320,192,58859,1,0,0:0:0:0:
192,192,58859,1,0,0:0:0:0:
64,192,59090,1,0,0:0:0:0:
448,192,59320,128,0,59551:0:0:0:0:
192,192,59320,1,0,0:0:0:0:
320,192,59551,1,0,0:0:0:0:
192,192,59667,1,0,0:0:0:0:
64,192,59782,128,0,60013:0:0:0:0:
448,192,60013,128,0,60244:0:0:0:0:
64,192,60244,1,0,0:0:0:0:
192,192,60359,1,0,0:0:0:0:
448,192,60590,1,0,0:0:0:0:
320,192,60705,1,0,0:0:0:0:
192,192,60820,1,0,0:0:0:0:
64,192,60936,1,0,0:0:0:0:
320,192,61167,1,0,0:0:0:0:
448,192,61167,128,0,61628:0:0:0:0:
192,192,61397,1,0,0:0:0:0:
64,192,61628,1,0,0:0:0:0:
320,192,61628,1,0,0:0:0:0:
192,192,61859,128,0,62090:0:0:0:0:
448,192,62090,128,0,62551:0:0:0:0:
64,192,62320,1,0,0:0:0:0:
192,192,62551,1,0,0:0:0:0:
320,192,62551,1,0,0:0:0:0:
64,192,62782,128,0,63013:0:0:0:0:
320,192,63013,128,0,63474:0:0:0:0:
448,192,63244,1,0,0:0:0:0:
192,192,63474,1,0,0:0:0:0:
64,192,63474,1,0,0:0:0:0:
448,192,63705,128,0,63936:0:0:0:0:
64,192,63936,128,0,64397:0:0:0:0:
192,192,64167,1,0,0:0:0:0:
320,192,64397,1,0,0:0:0:0:
448,192,64397,1,0,0:0:0:0:
192,192,64628,128,0,64859:0:0:0:0:
448,192,64859,128,0,65320:0:0:0:0:
192,192,65090,1,0,0:0:0:0:
320,192,65320,1,0,0:0:0:0:
64,192,65320,128,0,65551:0:0:0:0:
448,192,65551,128,0,65782:0:0:0:0:
64,192,65782,128,0,66013:0:0:0:0:
320,192,66013,1,0,0:0:0:0:
192,192,66244,128,0,66474:0:0:0:0:
448,192,66244,1,0,0:0:0:0:
64,192,66474,1,0,0:0:0:0:
320,192,66705,128,0,66936:0:0:0:0:
192,192,66936,128,0,67167:0:0:0:0:
448,192,67167,128,0,67397:0:0:0:0:
320,192,67167,1,0,0:0:0:0:
64,192,67397,128,0,67628:0:0:0:0:
320,192,67628,128,0,68090:0:0:0:0:
192,192,67859,1,0,0:0:0:0:
64,192,68090,1,0,0:0:0:0:
448,192,68090,1,0,0:0:0:0:
192,192,68320,128,0,68551:0:0:0:0:
320,192,68551,128,0,68782:0:0:0:0:
64,192,68782,128,0,69013:0:0:0:0:
192,192,69013,128,0,69244:0:0:0:0:
448,192,69013,1,0,0:0:0:0:
320,192,69244,128,0,69474:0:0:0:0:
448,192,69474,128,0,69705:0:0:0:0:
64,192,69705,1,0,0:0:0:0:
320,192,69936,1,0,0:0:0:0:
448,192,69936,128,0,70167:0:0:0:0:
192,192,70167,1,0,0:0:0:0:
320,192,70397,128,0,70628:0:0:0:0:
192,192,70628,128,0,70859:0:0:0:0:
448,192,70859,128,0,71090:0:0:0:0:
64,192,70859,1,0,0:0:0:0:
320,192,71090,128,0,71320:0:0:0:0:
192,192,71320,128,0,71551:0:0:0:0:
448,192,71551,1,0,0:0:0:0:
320,192,71782,1,0,0:0:0:0:
64,192,71782,128,0,72013:0:0:0:0:
192,192,72013,1,0,0:0:0:0:
448,192,72244,128,0,72705:0:0:0:0:
64,192,72474,1,0,0:0:0:0:
320,192,72705,1,0,0:0:0:0:
64,192,72705,1,0,0:0:0:0:
192,192,72936,1,0,0:0:0:0:
192,192,73167,1,0,0:0:0:0:
320,192,73397,1,0,0:0:0:0:
448,192,73628,1,0,0:0:0:0:
64,192,73628,1,0,0:0:0:0:
192,192,73859,1,0,0:0:0:0:
448,192,74090,128,0,74320:0:0:0:0:
320,192,74090,1,0,0:0:0:0:
192,192,74320,1,0,0:0:0:0:
320,192,74551,1,0,0:0:0:0:
64,192,74551,1,0,0:0:0:0:
448,192,74782,128,0,75013:0:0:0:0:
64,192,75013,1,0,0:0:0:0:
192,192,75128,1,0,0:0:0:0:
320,192,75244,1,0,0:0:0:0:
192,192,75474,1,0,0:0:0:0:
320,192,75590,1,0,0:0:0:0:
448,192,75705,1,0,0:0:0:0:
64,192,75936,128,0,76397:0:0:0:0:
192,192,75936,1,0,0:0:0:0:
320,192,76167,1,0,0:0:0:0:
192,192,76397,1,0,0:0:0:0:
448,192,76397,1,0,0:0:0:0:
320,192,76628,128,0,76859:0:0:0:0:
64,192,76859,128,0,77320:0:0:0:0:
448,192,77090,1,0,0:0:0:0:
192,192,77320,1,0,0:0:0:0:
320,192,77320,1,0,0:0:0:0:
448,192,77551,128,0,77782:0:0:0:0:
192,192,77782,128,0,78244:0:0:0:0:
64,192,78013,1,0,0:0:0:0:
448,192,78244,1,0,0:0:0:0:
320,192,78244,1,0,0:0:0:0:
64,192,78474,128,0,78705:0:0:0:0:
448,192,78705,128,0,79167:0:0:0:0:
320,192,78936,1,0,0:0:0:0:
64,192,79167,1,0,0:0:0:0:
192,192,79167,1,0,0:0:0:0:
320,192,79397,128,0,79628:0:0:0:0:
64,192,79628,128,0,80090:0:0:0:0:
320,192,79859,1,0,0:0:0:0:
448,192,80090,128,0,80320:0:0:0:0:
192,192,80090,1,0,0:0:0:0:
64,192,80320,128,0,80551:0:0:0:0:
448,192,80551,128,0,80782:0:0:0:0:
192,192,80782,1,0,0:0:0:0:
64,192,81013,1,0,0:0:0:0:
320,192,81013,128,0,81244:0:0:0:0:
448,192,81244,128,0,81474:0:0:0:0:
192,192,81474,128,0,81705:0:0:0:0:
320,192,81705,128,0,81936:0:0:0:0:
192,192,81936,1,0,0:0:0:0:
64,192,81936,128,0,82167:0:0:0:0:
448,192,82167,128,0,82397:0:0:0:0:
192,192,82397,128,0,82859:0:0:0:0:
320,192,82628,1,0,0:0:0:0:
64,192,82859,1,0,0:0:0:0:
448,192,82859,1,0,0:0:0:0:
192,192,83090,1,0,0:0:0:0:
320,192,83320,128,0,83551:0:0:0:0:
192,192,83551,128,0,83782:0:0:0:0:
64,192,83782,1,0,0:0:0:0:
448,192,83782,128,0,84013:0:0:0:0:
320,192,84013,128,0,84244:0:0:0:0:
192,192,84244,128,0,84474:0:0:0:0:
448,192,84474,1,0,0:0:0:0:
64,192,84705,128,0,84936:0:0:0:0:
192,192,84705,1,0,0:0:0:0:
320,192,84936,1,0,0:0:0:0:
192,192,85167,128,0,85397:0:0:0:0:
320,192,85397,128,0,85628:0:0:0:0:
448,192,85628,1,0,0:0:0:0:
64,192,85628,128,0,85859:0:0:0:0:
192,192,85859,128,0,86090:0:0:0:0:
320,192,86090,128,0,86320:0:0:0:0:
64,192,86320,1,0,0:0:0:0:
448,192,86551,128,0,86782:0:0:0:0:
192,192,86551,1,0,0:0:0:0:
320,192,86782,1,0,0:0:0:0:
64,192,87013,1,0,0:0:0:0:
192,192,87128,1,0,0:0:0:0:
320,192,87244,1,0,0:0:0:0:
448,192,87474,1,0,0:0:0:0:
64,192,87474,1,0,0:0:0:0:
320,192,87590,1,0,0:0:0:0:
192,192,87705,1,0,0:0:0:0:
448,192,87936,1,0,0:0:0:0:
64,192,88051,1,0,0:0:0:0:
448,192,88167,1,0,0:0:0:0:
192,192,88397,1,0,0:0:0:0:
64,192,88397,1,0,0:0:0:0:
320,192,88513,1,0,0:0:0:0:
192,192,88628,1,0,0:0:0:0:
64,192,88859,1,0,0:0:0:0:
448,192,88859,1,0,0:0:0:0:
320,192,89782,1,0,0:0:0:0:
448,192,89782,1,0,0:0:0:0:
192,192,90013,1,0,0:0:0:0:
64,192,90013,1,0,0:0:0:0:
448,192,90244,1,0,0:0:0:0:
320,192,90244,1,0,0:0:0:0:
192,192,90359,1,0,0:0:0:0:
64,192,90474,1,0,0:0:0:0:
448,192,90705,128,0,91167:0:0:0:0:
64,192,90705,1,0,0:0:0:0:
192,192,90936,1,0,0:0:0:0:
320,192,91167,1,0,0:0:0:0:
64,192,91167,1,0,0:0:0:0:
192,192,91397,1,0,0:0:0:0:
320,192,91628,128,0,92090:0:0:0:0:
448,192,91859,1,0,0:0:0:0:
192,192,92090,1,0,0:0:0:0:
64,192,92090,1,0,0:0:0:0:
448,192,92320,1,0,0:0:0:0:
192,192,92551,128,0,93013:0:0:0:0:
64,192,92782,1,0,0:0:0:0:
320,192,93013,1,0,0:0:0:0:
448,192,93013,1,0,0:0:0:0:
192,192,93244,1,0,0:0:0:0:
64,192,93474,128,0,93936:0:0:0:0:
320,192,93705,1,0,0:0:0:0:
192,192,93936,1,0,0:0:0:0:
448,192,93936,1,0,0:0:0:0:
320,192,94167,128,0,94397:0:0:0:0:
64,192,94397,128,0,94628:0:0:0:0:
192,192,94628,1,0,0:0:0:0:
320,192,94859,128,0,95090:0:0:0:0:
448,192,94859,1,0,0:0:0:0:
64,192,95090,128,0,95320:0:0:0:0:
448,192,95320,128,0,95551:0:0:0:0:
192,192,95551,1,0,0:0:0:0:
448,192,95782,128,0,96013:0:0:0:0:
320,192,95782,1,0,0:0:0:0:
192,192,96013,1,0,0:0:0:0:
64,192,96244,128,0,96474:0:0:0:0:
192,192,96474,128,0,96705:0:0:0:0:
448,192,96705,128,0,96936:0:0:0:0:
64,192,96705,1,0,0:0:0:0:
320,192,96936,128,0,97167:0:0:0:0:
64,192,97167,128,0,97628:0:0:0:0:
448,192,97397,1,0,0:0:0:0:
320,192,97628,1,0,0:0:0:0:
192,192,97628,1,0,0:0:0:0:
448,192,97859,1,0,0:0:0:0:
64,192,98090,128,0,98320:0:0:0:0:
192,192,98320,128,0,98551:0:0:0:0:
320,192,98551,128,0,98782:0:0:0:0:
64,192,98551,1,0,0:0:0:0:
448,192,98782,128,0,99013:0:0:0:0:
64,192,99013,128,0,99244:0:0:0:0:
192,192,99244,1,0,0:0:0:0:
320,192,99474,128,0,99705:0:0:0:0:
448,192,99474,1,0,0:0:0:0:
192,192,99705,128,0,99936:0:0:0:0:
448,192,99936,128,0,100167:0:0:0:0:
320,192,100167,128,0,100397:0:0:0:0:
192,192,100397,128,0,100628:0:0:0:0:
448,192,100397,1,0,0:0:0:0:
64,192,100628,128,0,100859:0:0:0:0:
448,192,100859,128,0,101090:0:0:0:0:
320,192,101090,1,0,0:0:0:0:
192,192,101320,128,0,101551:0:0:0:0:
64,192,101320,1,0,0:0:0:0:
320,192,101551,1,0,0:0:0:0:
64,192,101782,128,0,102705:0:0:0:0:
192,192,102013,1,0,0:0:0:0:
448,192,102244,1,0,0:0:0:0:
320,192,102244,1,0,0:0:0:0:
192,192,102474,1,0,0:0:0:0:
448,192,102705,1,0,0:0:0:0:
64,192,102936,128,0,103167:0:0:0:0:
192,192,103167,1,0,0:0:0:0:
320,192,103167,1,0,0:0:0:0:
448,192,103397,1,0,0:0:0:0:
192,192,103628,1,0,0:0:0:0:
64,192,103628,128,0,103859:0:0:0:0:
448,192,103859,128,0,104090:0:0:0:0:
192,192,104090,1,0,0:0:0:0:
320,192,104090,1,0,0:0:0:0:
64,192,104320,1,0,0:0:0:0:
448,192,104436,1,0,0:0:0:0:
64,192,104551,1,0,0:0:0:0:
448,192,104782,128,0,105013:0:0:0:0:
320,192,105013,128,0,105244:0:0:0:0:
64,192,105013,1,0,0:0:0:0:
192,192,105244,128,0,105474:0:0:0:0:
64,192,105474,128,0,105936:0:0:0:0:
448,192,105474,1,0,0:0:0:0:
320,192,105705,1,0,0:0:0:0:
192,192,105936,1,0,0:0:0:0:
448,192,105936,1,0,0:0:0:0:
320,192,106167,1,0,0:0:0:0:
192,192,106397,128,0,106859:0:0:0:0:
64,192,106628,1,0,0:0:0:0:
320,192,106859,1,0,0:0:0:0:
448,192,106859,1,0,0:0:0:0:
64,192,107090,1,0,0:0:0:0:
320,192,107320,128,0,107782:0:0:0:0:
448,192,107551,1,0,0:0:0:0:
192,192,107782,1,0,0:0:0:0:
64,192,107782,1,0,0:0:0:0:
320,192,108013,1,0,0:0:0:0:
448,192,108244,128,0,108705:0:0:0:0:
192,192,108474,1,0,0:0:0:0:
320,192,108705,1,0,0:0:0:0:
64,192,108705,1,0,0:0:0:0:
192,192,108936,128,0,109167:0:0:0:0:
448,192,109167,128,0,109397:0:0:0:0:
320,192,109397,1,0,0:0:0:0:
64,192,109628,128,0,109859:0:0:0:0:
192,192,109628,1,0,0:0:0:0:
448,192,109859,128,0,110090:0:0:0:0:
64,192,110090,128,0,110320:0:0:0:0:
320,192,110320,1,0,0:0:0:0:
64,192,110551,128,0,110782:0:0:0:0:
192,192,110551,1,0,0:0:0:0:
320,192,110782,1,0,0:0:0:0:
448,192,111013,128,0,111244:0:0:0:0:
320,192,111244,128,0,111474:0:0:0:0:
64,192,111474,128,0,111705:0:0:0:0:
448,192,111474,1,0,0:0:0:0:
192,192,111705,128,0,111936:0:0:0:0:
448,192,111936,128,0,112397:0:0:0:0:
64,192,112167,1,0,0:0:0:0:
192,192,112397,1,0,0:0:0:0:
320,192,112397,1,0,0:0:0:0:
64,192,112628,1,0,0:0:0:0:
448,192,112859,128,0,113090:0:0:0:0:
320,192,113090,128,0,113320:0:0:0:0:
192,192,113320,128,0,113551:0:0:0:0:
448,192,113320,1,0,0:0:0:0:
64,192,113551,128,0,113782:0:0:0:0:
448,192,113782,128,0,114013:0:0:0:0:
320,192,114013,1,0,0:0:0:0:
192,192,114244,128,0,114474:0:0:0:0:
64,192,114244,1,0,0:0:0:0:
320,192,114474,128,0,114705:0:0:0:0:
64,192,114705,128,0,114936:0:0:0:0:
192,192,114936,128,0,115167:0:0:0:0:
320,192,115167,128,0,115397:0:0:0:0:
64,192,115167,1,0,0:0:0:0:
448,192,115397,128,0,115628:0:0:0:0:
64,192,115628,128,0,115859:0:0:0:0:
192,192,115859,1,0,0:0:0:0:
320,192,116090,128,0,116320:0:0:0:0:
448,192,116090,1,0,0:0:0:0:
192,192,116320,1,0,0:0:0:0:
448,192,116551,1,0,0:0:0:0:
320,192,116667,1,0,0:0:0:0:
192,192,116782,1,0,0:0:0:0:
64,192,117013,1,0,0:0:0:0:
448,192,117013,1,0,0:0:0:0:
192,192,117128,1,0,0:0:0:0:
320,192,117244,1,0,0:0:0:0:
64,192,117474,1,0,0:0:0:0:
448,192,117590,1,0,0:0:0:0:
64,192,117705,1,0,0:0:0:0:
320,192,117936,1,0,0:0:0:0:
448,192,117936,1,0,0:0:0:0:
192,192,118051,1,0,0:0:0:0:
320,192,118167,1,0,0:0:0:0:
64,192,118397,1,0,0:0:0:0:
448,192,118397,128,0,118859:0:0:0:0:
64,192,118859,128,0,119320:0:0:0:0:
192,192,119320,1,0,0:0:0:0:
448,192,119320,1,0,0:0:0:0:
192,192,119551,1,0,0:0:0:0:
448,192,119782,1,0,0:0:0:0:
64,192,119782,1,0,0:0:0:0:
320,192,119897,1,0,0:0:0:0:
192,192,120013,1,0,0:0:0:0:
448,192,120244,1,0,0:0:0:0:
64,192,120244,128,0,120474:0:0:0:0:
320,192,120474,128,0,120705:0:0:0:0:
192,192,120705,128,0,120936:0:0:0:0:
448,192,120936,128,0,121167:0:0:0:0:
320,192,121167,128,0,121628:0:0:0:0:
192,192,121397,1,0,0:0:0:0:
64,192,121628,128,0,121859:0:0:0:0:
192,192,121859,128,0,122090:0:0:0:0:
448,192,122090,128,0,122320:0:0:0:0:
192,192,122320,128,0,122551:0:0:0:0:
320,192,122551,128,0,122782:0:0:0:0:
64,192,122782,128,0,123013:0:0:0:0:
192,192,123013,128,0,123474:0:0:0:0:
448,192,123244,1,0,0:0:0:0:
320,192,123474,128,0,123936:0:0:0:0:
64,192,123705,1,0,0:0:0:0:
64,192,123936,128,0,124397:0:0:0:0:
192,192,124167,1,0,0:0:0:0:
320,192,124397,1,0,0:0:0:0:
192,192,124628,1,0,0:0:0:0:
320,192,124859,1,0,0:0:0:0:
64,192,125090,1,0,0:0:0:0:
448,192,125320,1,0,0:0:0:0:
192,192,125551,1,0,0:0:0:0:
320,192,125782,1,0,0:0:0:0:
64,192,126013,1,0,0:0:0:0:
448,192,126244,1,0,0:0:0:0:
192,192,126474,1,0,0:0:0:0:
320,192,126705,1,0,0:0:0:0:
192,192,126936,1,0,0:0:0:0:
448,192,127167,1,0,0:0:0:0:
448,192,127397,1,0,0:0:0:0:
448,192,127628,128,0,127859:0:0:0:0:
192,192,127859,128,0,128090:0:0:0:0:
320,192,128090,128,0,128320:0:0:0:0:
448,192,128090,1,0,0:0:0:0:
64,192,128320,128,0,128551:0:0:0:0:
192,192,128551,128,0,129013:0:0:0:0:
320,192,128782,1,0,0:0:0:0:
64,192,129013,128,0,129244:0:0:0:0:
448,192,129013,1,0,0:0:0:0:
320,192,129244,128,0,129474:0:0:0:0:
192,192,129474,128,0,129705:0:0:0:0:
448,192,129705,128,0,129936:0:0:0:0:
320,192,129936,128,0,130397:0:0:0:0:
192,192,129936,1,0,0:0:0:0:
64,192,130167,1,0,0:0:0:0:
192,192,130397,128,0,130859:0:0:0:0:
64,192,130628,1,0,0:0:0:0:
448,192,130859,128,0,131320:0:0:0:0:
320,192,130859,1,0,0:0:0:0:
192,192,131090,1,0,0:0:0:0:
64,192,131320,128,0,131782:0:0:0:0:
320,192,131551,1,0,0:0:0:0:
192,192,131782,1,0,0:0:0:0:
448,192,131782,1,0,0:0:0:0:
320,192,132013,1,0,0:0:0:0:
192,192,132244,1,0,0:0:0:0:
448,192,132474,1,0,0:0:0:0:
64,192,132705,1,0,0:0:0:0:
192,192,132705,1,0,0:0:0:0:
320,192,132936,1,0,0:0:0:0:
192,192,133167,1,0,0:0:0:0:
448,192,133397,1,0,0:0:0:0:
192,192,133628,1,0,0:0:0:0:
64,192,133628,1,0,0:0:0:0:
320,192,133859,1,0,0:0:0:0:
448,192,134090,1,0,0:0:0:0:
64,192,134090,1,0,0:0:0:0:
64,192,134320,1,0,0:0:0:0:
192,192,134551,1,0,0:0:0:0:
320,192,134667,1,0,0:0:0:0:
448,192,134782,1,0,0:0:0:0:
64,192,135013,128,0,135474:0:0:0:0:
192,192,135013,1,0,0:0:0:0:
320,192,135244,1,0,0:0:0:0:
192,192,135474,1,0,0:0:0:0:
448,192,135474,1,0,0:0:0:0:
320,192,135705,1,0,0:0:0:0:
192,192,135936,128,0,136397:0:0:0:0:
64,192,136167,1,0,0:0:0:0:
448,192,136397,1,0,0:0:0:0:
320,192,136397,1,0,0:0:0:0:
64,192,136628,1,0,0:0:0:0:
320,192,136859,128,0,137320:0:0:0:0:
448,192,137090,1,0,0:0:0:0:
192,192,137320,1,0,0:0:0:0:
64,192,137320,1,0,0:0:0:0:
320,192,137551,1,0,0:0:0:0:
448,192,137782,128,0,138244:0:0:0:0:
192,192,138013,1,0,0:0:0:0:
64,192,138244,128,0,138705:0:0:0:0:
320,192,138244,1,0,0:0:0:0:
192,192,138474,1,0,0:0:0:0:
448,192,138705,128,0,139167:0:0:0:0:
320,192,138936,1,0,0:0:0:0:
192,192,139167,1,0,0:0:0:0:
64,192,139167,1,0,0:0:0:0:
320,192,139397,1,0,0:0:0:0:
448,192,139628,1,0,0:0:0:0:
64,192,139859,1,0,0:0:0:0:
192,192,140090,1,0,0:0:0:0:
320,192,140090,1,0,0:0:0:0:
64,192,140320,1,0,0:0:0:0:
448,192,140551,1,0,0:0:0:0:
192,192,140782,1,0,0:0:0:0:
320,192,141013,1,0,0:0:0:0:
448,192,141013,1,0,0:0:0:0:
192,192,141244,1,0,0:0:0:0:
64,192,141474,1,0,0:0:0:0:
448,192,141705,1,0,0:0:0:0:
320,192,141936,1,0,0:0:0:0:
192,192,141936,1,0,0:0:0:0:
64,192,142167,1,0,0:0:0:0:
448,192,142397,128,0,142628:0:0:0:0:
192,192,142628,1,0,0:0:0:0:
64,192,142859,1,0,0:0:0:0:
320,192,142859,1,0,0:0:0:0:
192,192,143090,1,0,0:0:0:0:
320,192,143320,128,0,143782:0:0:0:0:
448,192,143551,1,0,0:0:0:0:
192,192,143782,1,0,0:0:0:0:
64,192,143782,1,0,0:0:0:0:
448,192,144013,1,0,0:0:0:0:
192,192,144244,128,0,144705:0:0:0:0:
64,192,144474,1,0,0:0:0:0:
448,192,144705,1,0,0:0:0:0:
320,192,144705,1,0,0:0:0:0:
192,192,144936,1,0,0:0:0:0:
64,192,145167,128,0,145628:0:0:0:0:
320,192,145397,1,0,0:0:0:0:
192,192,145628,1,0,0:0:0:0:
448,192,145628,128,0,146090:0:0:0:0:
320,192,145859,1,0,0:0:0:0:
64,192,146090,128,0,146551:0:0:0:0:
192,192,146320,1,0,0:0:0:0:
448,192,146551,1,0,0:0:0:0:
320,192,146551,1,0,0:0:0:0:
192,192,146782,1,0,0:0:0:0:
64,192,147013,1,0,0:0:0:0:
448,192,147244,1,0,0:0:0:0:
192,192,147474,1,0,0:0:0:0:
320,192,147474,1,0,0:0:0:0:
448,192,147705,1,0,0:0:0:0:
64,192,147936,128,0,148167:0:0:0:0:
320,192,147936,1,0,0:0:0:0:
192,192,148167,1,0,0:0:0:0:
320,192,148282,1,0,0:0:0:0:
448,192,148397,128,0,148628:0:0:0:0:
64,192,148628,128,0,148859:0:0:0:0:
448,192,148859,1,0,0:0:0:0:
320,192,148974,1,0,0:0:0:0:
64,192,149205,1,0,0:0:0:0:
192,192,149320,1,0,0:0:0:0:
320,192,149436,1,0,0:0:0:0:
448,192,149551,1,0,0:0:0:0:
192,192,149782,1,0,0:0:0:0:
64,192,149782,128,0,150244:0:0:0:0:
320,192,150013,1,0,0:0:0:0:
448,192,150244,1,0,0:0:0:0:
192,192,150244,1,0,0:0:0:0:
320,192,150474,128,0,150705:0:0:0:0:
64,192,150705,128,0,151167:0:0:0:0:
448,192,150936,1,0,0:0:0:0:
320,192,151167,1,0,0:0:0:0:
192,192,151167,1,0,0:0:0:0:
448,192,151397,128,0,151628:0:0:0:0:
192,192,151628,128,0,152090:0:0:0:0:
64,192,151859,1,0,0:0:0:0:
320,192,152090,1,0,0:0:0:0:
448,192,152090,1,0,0:0:0:0:
64,192,152320,128,0,152551:0:0:0:0:
448,192,152551,128,0,153013:0:0:0:0:
320,192,152782,1,0,0:0:0:0:
192,192,153013,1,0,0:0:0:0:
64,192,153013,1,0,0:0:0:0:
320,192,153244,128,0,153474:0:0:0:0:
64,192,153474,128,0,153936:0:0:0:0:
320,192,153705,1,0,0:0:0:0:
192,192,153936,1,0,0:0:0:0:
448,192,153936,128,0,154167:0:0:0:0:
64,192,154167,128,0,154397:0:0:0:0:
448,192,154397,128,0,154628:0:0:0:0:
192,192,154628,1,0,0:0:0:0:
320,192,154859,128,0,155090:0:0:0:0:
64,192,154859,1,0,0:0:0:0:
448,192,155090,1,0,0:0:0:0:
192,192,155320,128,0,155551:0:0:0:0:
320,192,155551,128,0,155782:0:0:0:0:
64,192,155782,128,0,156013:0:0:0:0:
192,192,155782,1,0,0:0:0:0:
448,192,156013,128,0,156244:0:0:0:0:
192,192,156244,128,0,156705:0:0:0:0:
320,192,156474,1,0,0:0:0:0:
448,192,156705,1,0,0:0:0:0:
64,192,156705,1,0,0:0:0:0:
320,192,156936,128,0,157167:0:0:0:0:
192,192,157167,128,0,157397:0:0:0:0:
448,192,157397,128,0,157628:0:0:0:0:
320,192,157628,128,0,157859:0:0:0:0:
64,192,157628,1,0,0:0:0:0:
192,192,157859,128,0,158090:0:0:0:0:
64,192,158090,128,0,158320:0:0:0:0:
448,192,158320,1,0,0:0:0:0:
192,192,158551,1,0,0:0:0:0:
64,192,158551,128,0,158782:0:0:0:0:
320,192,158782,1,0,0:0:0:0:
192,192,159013,128,0,159244:0:0:0:0:
320,192,159244,128,0,159474:0:0:0:0:
64,192,159474,128,0,159705:0:0:0:0:
448,192,159474,1,0,0:0:0:0:
192,192,159705,128,0,159936:0:0:0:0:
320,192,159936,128,0,160167:0:0:0:0:
64,192,160167,1,0,0:0:0:0:
192,192,160397,1,0,0:0:0:0:
448,192,160397,128,0,160628:0:0:0:0:
320,192,160628,1,0,0:0:0:0:
64,192,160859,128,0,161320:0:0:0:0:
448,192,161090,1,0,0:0:0:0:
192,192,161320,1,0,0:0:0:0:
448,192,161320,1,0,0:0:0:0:
320,192,161551,1,0,0:0:0:0:
320,192,161782,1,0,0:0:0:0:
192,192,162013,1,0,0:0:0:0:
64,192,162244,1,0,0:0:0:0:
448,192,162244,1,0,0:0:0:0:
320,192,162474,1,0,0:0:0:0:
64,192,162705,128,0,162936:0:0:0:0:
192,192,162705,1,0,0:0:0:0:
320,192,162936,1,0,0:0:0:0:
192,192,163167,1,0,0:0:0:0:
448,192,163167,1,0,0:0:0:0:
64,192,163397,128,0,163628:0:0:0:0:
448,192,163628,1,0,0:0:0:0:
192,192,163628,1,0,0:0:0:0:
448,192,163859,1,0,0:0:0:0:
320,192,164090,1,0,0:0:0:0:
192,192,164205,1,0,0:0:0:0:
64,192,164320,1,0,0:0:0:0:
448,192,164551,128,0,165013:0:0:0:0:
320,192,164551,1,0,0:0:0:0:
192,192,164782,1,0,0:0:0:0:
320,192,165013,1,0,0:0:0:0:
64,192,165013,1,0,0:0:0:0:
192,192,165244,128,0,165474:0:0:0:0:
448,192,165474,128,0,165936:0:0:0:0:
64,192,165705,1,0,0:0:0:0:
320,192,165936,1,0,0:0:0:0:
192,192,165936,1,0,0:0:0:0:
64,192,166167,128,0,166397:0:0:0:0:
320,192,166397,128,0,166859:0:0:0:0:
448,192,166628,1,0,0:0:0:0:
64,192,166859,1,0,0:0:0:0:
192,192,166859,1,0,0:0:0:0:
448,192,167090,128,0,167320:0:0:0:0:
64,192,167320,128,0,167782:0:0:0:0:
192,192,167551,1,0,0:0:0:0:
448,192,167782,1,0,0:0:0:0:
320,192,167782,1,0,0:0:0:0:
192,192,168013,128,0,168244:0:0:0:0:
448,192,168244,128,0,168705:0:0:0:0:
192,192,168474,1,0,0:0:0:0:
64,192,168705,128,0,168936:0:0:0:0:
320,192,168705,1,0,0:0:0:0:
448,192,168936,128,0,169167:0:0:0:0:
64,192,169167,128,0,169397:0:0:0:0:
320,192,169397,1,0,0:0:0:0:
448,192,169628,1,0,0:0:0:0:
192,192,169628,128,0,169859:0:0:0:0:
64,192,169859,128,0,170090:0:0:0:0:
320,192,170090,128,0,170320:0:0:0:0:
192,192,170320,128,0,170551:0:0:0:0:
320,192,170551,1,0,0:0:0:0:
448,192,170551,128,0,170782:0:0:0:0:
64,192,170782,128,0,171013:0:0:0:0:
320,192,171013,128,0,171474:0:0:0:0:
192,192,171244,1,0,0:0:0:0:
448,192,171474,1,0,0:0:0:0:
64,192,171474,1,0,0:0:0:0:
320,192,171705,1,0,0:0:0:0:
192,192,171936,128,0,172167:0:0:0:0:
320,192,172167,128,0,172397:0:0:0:0:
448,192,172397,1,0,0:0:0:0:
64,192,172397,128,0,172628:0:0:0:0:
192,192,172628,128,0,172859:0:0:0:0:
320,192,172859,128,0,173090:0:0:0:0:
64,192,173090,1,0,0:0:0:0:
448,192,173320,128,0,173551:0:0:0:0:
320,192,173320,1,0,0:0:0:0:
192,192,173551,1,0,0:0:0:0:
320,192,173782,128,0,174013:0:0:0:0:
192,192,174013,128,0,174244:0:0:0:0:
64,192,174244,1,0,0:0:0:0:
448,192,174244,128,0,174474:0:0:0:0:
320,192,174474,128,0,174705:0:0:0:0:
192,192,174705,128,0,174936:0:0:0:0:
448,192,174936,1,0,0:0:0:0:
64,192,175167,128,0,175397:0:0:0:0:
320,192,175167,1,0,0:0:0:0:
192,192,175397,1,0,0:0:0:0:
448,192,175628,1,0,0:0:0:0:
320,192,175744,1,0,0:0:0:0:
192,192,175859,1,0,0:0:0:0:
64,192,176090,1,0,0:0:0:0:
448,192,176090,1,0,0:0:0:0:
192,192,176205,1,0,0:0:0:0:
320,192,176320,1,0,0:0:0:0:
64,192,176551,1,0,0:0:0:0:
448,192,176667,1,0,0:0:0:0:
64,192,176782,1,0,0:0:0:0:
320,192,177013,1,0,0:0:0:0:
448,192,177013,1,0,0:0:0:0:
192,192,177128,1,0,0:0:0:0:
320,192,177244,1,0,0:0:0:0:
64,192,177474,1,0,0:0:0:0:
448,192,177474,128,0,178397:0:0:0:0:
64,192,178397,1,0,0:0:0:0:
192,192,178397,1,0,0:0:0:0:
448,192,178628,1,0,0:0:0:0:
320,192,178628,1,0,0:0:0:0:
192,192,178859,1,0,0:0:0:0:
64,192,178859,1,0,0:0:0:0:
320,192,178974,1,0,0:0:0:0:
448,192,179090,1,0,0:0:0:0:
448,192,179320,1,0,0:0:0:0:
64,192,179320,128,0,179782:0:0:0:0:
320,192,179551,1,0,0:0:0:0:
448,192,179782,1,0,0:0:0:0:
192,192,179782,1,0,0:0:0:0:
320,192,180013,1,0,0:0:0:0:
192,192,180244,128,0,180705:0:0:0:0:
64,192,180474,1,0,0:0:0:0:
448,192,180705,1,0,0:0:0:0:
320,192,180705,1,0,0:0:0:0:
64,192,180936,1,0,0:0:0:0:
320,192,181167,128,0,181628:0:0:0:0:
448,192,181397,1,0,0:0:0:0:
64,192,181628,1,0,0:0:0:0:
192,192,181628,1,0,0:0:0:0:
320,192,181859,1,0,0:0:0:0:
448,192,182090,128,0,182551:0:0:0:0:
192,192,182320,1,0,0:0:0:0:
64,192,182551,1,0,0:0:0:0:
320,192,182551,1,0,0:0:0:0:
192,192,182782,128,0,183013:0:0:0:0:
448,192,183013,128,0,183244:0:0:0:0:
320,192,183244,1,0,0:0:0:0:
64,192,183474,1,0,0:0:0:0:
192,192,183474,128,0,183705:0:0:0:0:
448,192,183705,128,0,183936:0:0:0:0:
64,192,183936,128,0,184167:0:0:0:0:
320,192,184167,1,0,0:0:0:0:
192,192,184397,1,0,0:0:0:0:
64,192,184397,128,0,184628:0:0:0:0:
320,192,184628,1,0,0:0:0:0:
448,192,184859,128,0,185090:0:0:0:0:
320,192,185090,128,0,185320:0:0:0:0:
448,192,185320,1,0,0:0:0:0:
64,192,185320,128,0,185551:0:0:0:0:
192,192,185551,128,0,185782:0:0:0:0:
448,192,185782,128,0,186244:0:0:0:0:
64,192,186013,1,0,0:0:0:0:
320,192,186244,1,0,0:0:0:0:
192,192,186244,1,0,0:0:0:0:
64,192,186474,1,0,0:0:0:0:
448,192,186705,128,0,186936:0:0:0:0:
320,192,186936,128,0,187167:0:0:0:0:
448,192,187167,1,0,0:0:0:0:
192,192,187167,128,0,187397:0:0:0:0:
64,192,187397,128,0,187628:0:0:0:0:
448,192,187628,128,0,187859:0:0:0:0:
320,192,187859,1,0,0:0:0:0:
64,192,188090,1,0,0:0:0:0:
192,192,188090,128,0,188320:0:0:0:0:
320,192,188320,128,0,188551:0:0:0:0:
64,192,188551,128,0,188782:0:0:0:0:
192,192,188782,128,0,189013:0:0:0:0:
64,192,189013,1,0,0:0:0:0:
320,192,189013,128,0,189244:0:0:0:0:
448,192,189244,128,0,189474:0:0:0:0:
64,192,189474,128,0,189705:0:0:0:0:
192,192,189705,1,0,0:0:0:0:
320,192,189936,128,0,190167:0:0:0:0:
448,192,189936,1,0,0:0:0:0:
192,192,190167,1,0,0:0:0:0:
448,192,190397,128,0,191320:0:0:0:0:
320,192,190628,1,0,0:0:0:0:
192,192,190859,1,0,0:0:0:0:
64,192,190859,1,0,0:0:0:0:
320,192,191090,1,0,0:0:0:0:
64,192,191320,1,0,0:0:0:0:
448,192,191551,128,0,191782:0:0:0:0:
320,192,191782,1,0,0:0:0:0:
192,192,191782,1,0,0:0:0:0:
64,192,192013,1,0,0:0:0:0:
320,192,192244,1,0,0:0:0:0:
448,192,192244,128,0,192474:0:0:0:0:
64,192,192474,1,0,0:0:0:0:
192,192,192705,1,0,0:0:0:0:
320,192,192705,1,0,0:0:0:0:
448,192,192936,128,0,193167:0:0:0:0:
64,192,193167,1,0,0:0:0:0:
320,192,193167,1,0,0:0:0:0:
64,192,193397,1,0,0:0:0:0:
448,192,193628,1,0,0:0:0:0:
320,192,193628,1,0,0:0:0:0:
192,192,193744,1,0,0:0:0:0:
64,192,193859,1,0,0:0:0:0:
320,192,194090,1,0,0:0:0:0:
448,192,194090,128,0,194551:0:0:0:0:
192,192,194320,1,0,0:0:0:0:
64,192,194551,1,0,0:0:0:0:
320,192,194551,1,0,0:0:0:0:
192,192,194782,1,0,0:0:0:0:
320,192,195013,128,0,195474:0:0:0:0:
448,192,195244,1,0,0:0:0:0:
64,192,195474,1,0,0:0:0:0:
192,192,195474,1,0,0:0:0:0:
448,192,195705,1,0,0:0:0:0:
192,192,195936,128,0,196397:0:0:0:0:
64,192,196167,1,0,0:0:0:0:
448,192,196397,1,0,0:0:0:0:
320,192,196397,1,0,0:0:0:0:
192,192,196628,1,0,0:0:0:0:
64,192,196859,128,0,197320:0:0:0:0:
320,192,197090,1,0,0:0:0:0:
448,192,197320,1,0,0:0:0:0:
192,192,197320,1,0,0:0:0:0:
320,192,197551,128,0,197782:0:0:0:0:
64,192,197782,128,0,198013:0:0:0:0:
192,192,198013,1,0,0:0:0:0:
320,192,198244,1,0,0:0:0:0:
448,192,198244,128,0,198474:0:0:0:0:
64,192,198474,128,0,198705:0:0:0:0:
448,192,198705,128,0,198936:0:0:0:0:
192,192,198936,1,0,0:0:0:0:
320,192,199167,1,0,0:0:0:0:
448,192,199167,128,0,199397:0:0:0:0:
192,192,199397,1,0,0:0:0:0:
64,192,199628,128,0,199859:0:0:0:0:
192,192,199859,128,0,200090:0:0:0:0:
64,192,200090,1,0,0:0:0:0:
448,192,200090,128,0,200320:0:0:0:0:
320,192,200320,128,0,200551:0:0:0:0:
64,192,200551,128,0,201013:0:0:0:0:
448,192,200782,1,0,0:0:0:0:
192,192,201013,1,0,0:0:0:0:
320,192,201013,1,0,0:0:0:0:
448,192,201244,1,0,0:0:0:0:
64,192,201474,128,0,201705:0:0:0:0:
192,192,201705,128,0,201936:0:0:0:0:
64,192,201936,1,0,0:0:0:0:
320,192,201936,128,0,202167:0:0:0:0:
448,192,202167,128,0,202397:0:0:0:0:
64,192,202397,128,0,202628:0:0:0:0:
192,192,202628,1,0,0:0:0:0:
448,192,202859,1,0,0:0:0:0:
320,192,202859,128,0,203090:0:0:0:0:
192,192,203090,128,0,203320:0:0:0:0:
448,192,203320,128,0,203551:0:0:0:0:
320,192,203551,128,0,203782:0:0:0:0:
448,192,203782,1,0,0:0:0:0:
192,192,203782,128,0,204013:0:0:0:0:
64,192,204013,128,0,204244:0:0:0:0:
448,192,204244,128,0,204474:0:0:0:0:
320,192,204474,1,0,0:0:0:0:
192,192,204705,128,0,204936:0:0:0:0:
64,192,204705,1,0,0:0:0:0:
320,192,204936,1,0,0:0:0:0:
64,192,205167,1,0,0:0:0:0:
192,192,205282,1,0,0:0:0:0:
320,192,205397,1,0,0:0:0:0:
64,192,205628,1,0,0:0:0:0:
448,192,205628,1,0,0:0:0:0:
320,192,205744,1,0,0:0:0:0:
192,192,205859,1,0,0:0:0:0:
448,192,206090,1,0,0:0:0:0:
64,192,206205,1,0,0:0:0:0:
448,192,206320,1,0,0:0:0:0:
192,192,206551,1,0,0:0:0:0:
64,192,206551,1,0,0:0:0:0:
320,192,206667,1,0,0:0:0:0:
192,192,206782,1,0,0:0:0:0:
64,192,207013,128,0,207244:0:0:0:0:
448,192,207013,1,0,0:0:0:0:
320,192,207244,128,0,207705:0:0:0:0:
64,192,207705,1,0,0:0:0:0:
448,192,207820,1,0,0:0:0:0:
64,192,207936,128,0,208397:0:0:0:0:
320,192,208397,128,0,208859:0:0:0:0:
64,192,208859,1,0,0:0:0:0:
448,192,208859,1,0,0:0:0:0:
