osu file format v14

[General]
AudioFilename: audio.ogg
AudioLeadIn: 0
PreviewTime: 60705
Countdown: 0
SampleSet: Soft
StackLeniency: 0.7
Mode: 3
LetterboxInBreaks: 0
SpecialStyle: 0
WidescreenStoryboard: 1

[Editor]
Bookmarks: 244,2090,16859,31628,46397,61167,75936,90705,105474,120244,135013,149782,164551,179320,194090,208859
DistanceSpacing: 0.7
BeatDivisor: 4
GridSize: 8
TimelineZoom: 2.650002

[Metadata]
Title:SELOS
TitleUnicode:SELOS
Artist:Shaira
ArtistUnicode:Shaira
Creator:chocomilku-
Version:Easy
Source:
Tags:AHS Productions Dj Charles AG Alvin Lenka Trouble Is A Friend Original Bangsamoro Music pinoy OPM OBM electronic dance music edm ang puso ko'y koy nagdurugo female vocalist vocals NOR HA NA norhana shairaa moro singer Sto. santo NiƱo nino Mix Club filipino pop cover remix tiktok tik tok
BeatmapID:4534657
BeatmapSetID:2150631

[Difficulty]
HPDrainRate:6.5
CircleSize:4
OverallDifficulty:6.5
ApproachRate:5
SliderMultiplier:1.4
SliderTickRate:1

[Events]
//Background and Video events
0,0,"bg.jpg",0,0
Video,0,"MV.mp4"
//Break Periods
//Storyboard Layer 0 (Background)
//Storyboard Layer 1 (Fail)
//Storyboard Layer 2 (Pass)
//Storyboard Layer 3 (Foreground)
//Storyboard Layer 4 (Overlay)
//Storyboard Sound Samples

[TimingPoints]
244,461.538461538462,4,2,1,75,1,0
61167,-100,4,2,1,75,0,1
74090,-100,4,2,1,75,0,0
75936,-100,4,2,1,75,0,1
88859,-100,4,2,1,75,0,0
149782,-100,4,2,1,75,0,1
162705,-100,4,2,1,75,0,0
164551,-100,4,2,1,75,0,1
177474,-100,4,2,1,75,0,0

[HitObjects]
448,192,244,128,0,1167:0:0:0:0:
320,192,244,1,0,0:0:0:0:
64,192,1167,1,0,0:0:0:0:
192,192,1397,1,0,0:0:0:0:
320,192,1628,1,0,0:0:0:0:
320,192,1859,1,0,0:0:0:0:
448,192,2090,1,0,0:0:0:0:
64,192,2090,128,0,2551:0:0:0:0:
448,192,2551,1,0,0:0:0:0:
320,192,2551,1,0,0:0:0:0:
192,192,2782,1,0,0:0:0:0:
448,192,3013,128,0,3474:0:0:0:0:
320,192,3474,1,0,0:0:0:0:
64,192,3474,1,0,0:0:0:0:
192,192,3705,1,0,0:0:0:0:
320,192,3936,128,0,4397:0:0:0:0:
64,192,4397,1,0,0:0:0:0:
192,192,4397,1,0,0:0:0:0:
448,192,4628,1,0,0:0:0:0:
192,192,4859,128,0,5320:0:0:0:0:
64,192,5320,1,0,0:0:0:0:
448,192,5320,1,0,0:0:0:0:
320,192,5551,1,0,0:0:0:0:
64,192,5782,128,0,6244:0:0:0:0:
448,192,6244,1,0,0:0:0:0:
320,192,6244,1,0,0:0:0:0:
192,192,6474,1,0,0:0:0:0:
448,192,6705,1,0,0:0:0:0:
320,192,7167,1,0,0:0:0:0:
64,192,7167,1,0,0:0:0:0:
320,192,7628,1,0,0:0:0:0:
448,192,7859,1,0,0:0:0:0:
64,192,8090,1,0,0:0:0:0:
192,192,8090,1,0,0:0:0:0:
320,192,8320,1,0,0:0:0:0:
64,192,8551,128,0,9013:0:0:0:0:
192,192,9013,1,0,0:0:0:0:
448,192,9013,1,0,0:0:0:0:
192,192,9474,1,0,0:0:0:0:
64,192,9705,1,0,0:0:0:0:
320,192,9936,1,0,0:0:0:0:
448,192,9936,1,0,0:0:0:0:
192,192,10167,1,0,0:0:0:0:
448,192,10397,128,0,10859:0:0:0:0:
64,192,10859,1,0,0:0:0:0:
320,192,10859,1,0,0:0:0:0:
192,192,11090,1,0,0:0:0:0:
320,192,11320,1,0,0:0:0:0:
448,192,11551,1,0,0:0:0:0:
192,192,11782,1,0,0:0:0:0:
64,192,11782,1,0,0:0:0:0:
320,192,12013,1,0,0:0:0:0:
64,192,12244,128,0,12705:0:0:0:0:
192,192,12705,1,0,0:0:0:0:
448,192,12705,128,0,13167:0:0:0:0:
192,192,13167,128,0,14090:0:0:0:0:
448,192,13628,1,0,0:0:0:0:
320,192,14320,128,0,14551:0:0:0:0:
64,192,14551,1,0,0:0:0:0:
64,192,15013,1,0,0:0:0:0:
448,192,15013,128,0,15244:0:0:0:0:
192,192,15474,1,0,0:0:0:0:
448,192,15705,128,0,15936:0:0:0:0:
64,192,15936,1,0,0:0:0:0:
192,192,16167,1,0,0:0:0:0:
320,192,16397,1,0,0:0:0:0:
320,192,16628,1,0,0:0:0:0:
448,192,16859,128,0,17320:0:0:0:0:
64,192,16859,1,0,0:0:0:0:
192,192,17320,1,0,0:0:0:0:
64,192,17320,1,0,0:0:0:0:
320,192,17551,1,0,0:0:0:0:
64,192,17782,128,0,18244:0:0:0:0:
448,192,18244,1,0,0:0:0:0:
192,192,18244,1,0,0:0:0:0:
320,192,18474,1,0,0:0:0:0:
192,192,18705,128,0,19167:0:0:0:0:
320,192,19167,1,0,0:0:0:0:
448,192,19167,1,0,0:0:0:0:
64,192,19397,1,0,0:0:0:0:
320,192,19628,128,0,20090:0:0:0:0:
64,192,20090,1,0,0:0:0:0:
448,192,20090,1,0,0:0:0:0:
192,192,20320,1,0,0:0:0:0:
448,192,20551,128,0,21013:0:0:0:0:
192,192,21013,1,0,0:0:0:0:
64,192,21013,1,0,0:0:0:0:
320,192,21244,1,0,0:0:0:0:
64,192,21474,1,0,0:0:0:0:
448,192,21936,1,0,0:0:0:0:
192,192,21936,1,0,0:0:0:0:
192,192,22397,1,0,0:0:0:0:
64,192,22628,1,0,0:0:0:0:
320,192,22859,1,0,0:0:0:0:
448,192,22859,1,0,0:0:0:0:
192,192,23090,1,0,0:0:0:0:
448,192,23320,128,0,23782:0:0:0:0:
64,192,23782,1,0,0:0:0:0:
320,192,23782,1,0,0:0:0:0:
320,192,24244,1,0,0:0:0:0:
448,192,24474,1,0,0:0:0:0:
64,192,24705,1,0,0:0:0:0:
192,192,24705,1,0,0:0:0:0:
320,192,24936,1,0,0:0:0:0:
64,192,25167,128,0,25628:0:0:0:0:
192,192,25628,1,0,0:0:0:0:
448,192,25628,1,0,0:0:0:0:
320,192,25859,1,0,0:0:0:0:
192,192,26090,1,0,0:0:0:0:
64,192,26320,1,0,0:0:0:0:
448,192,26551,1,0,0:0:0:0:
320,192,26551,1,0,0:0:0:0:
192,192,26782,1,0,0:0:0:0:
448,192,27013,128,0,27474:0:0:0:0:
64,192,27474,128,0,27936:0:0:0:0:
320,192,27474,1,0,0:0:0:0:
320,192,27936,128,0,28859:0:0:0:0:
64,192,28397,1,0,0:0:0:0:
192,192,29090,128,0,29320:0:0:0:0:
448,192,29320,1,0,0:0:0:0:
64,192,29551,128,0,29782:0:0:0:0:
448,192,29782,1,0,0:0:0:0:
320,192,29782,1,0,0:0:0:0:
320,192,30244,1,0,0:0:0:0:
448,192,30705,1,0,0:0:0:0:
320,192,30936,1,0,0:0:0:0:
192,192,31167,1,0,0:0:0:0:
64,192,31628,1,0,0:0:0:0:
448,192,31628,1,0,0:0:0:0:
192,192,31859,1,0,0:0:0:0:
320,192,32090,1,0,0:0:0:0:
192,192,32320,1,0,0:0:0:0:
320,192,32551,1,0,0:0:0:0:
448,192,33013,128,0,33474:0:0:0:0:
64,192,33474,1,0,0:0:0:0:
320,192,33705,1,0,0:0:0:0:
64,192,33936,1,0,0:0:0:0:
320,192,34167,1,0,0:0:0:0:
64,192,34397,1,0,0:0:0:0:
320,192,34859,128,0,35320:0:0:0:0:
192,192,35320,128,0,36244:0:0:0:0:
448,192,35782,1,0,0:0:0:0:
64,192,36244,1,0,0:0:0:0:
448,192,36705,1,0,0:0:0:0:
64,192,37167,1,0,0:0:0:0:
448,192,37628,1,0,0:0:0:0:
64,192,38090,1,0,0:0:0:0:
320,192,38551,1,0,0:0:0:0:
192,192,38782,1,0,0:0:0:0:
320,192,39013,1,0,0:0:0:0:
192,192,39474,1,0,0:0:0:0:
64,192,39474,1,0,0:0:0:0:
448,192,39936,1,0,0:0:0:0:
320,192,40397,1,0,0:0:0:0:
64,192,40397,1,0,0:0:0:0:
192,192,40859,1,0,0:0:0:0:
320,192,41320,1,0,0:0:0:0:
448,192,41320,1,0,0:0:0:0:
64,192,41782,128,0,42244:0:0:0:0:
320,192,42244,128,0,42705:0:0:0:0:
448,192,42244,1,0,0:0:0:0:
192,192,42705,128,0,43628:0:0:0:0:
448,192,43167,1,0,0:0:0:0:
320,192,43628,1,0,0:0:0:0:
192,192,44090,1,0,0:0:0:0:
64,192,44090,1,0,0:0:0:0:
448,192,44551,1,0,0:0:0:0:
320,192,45013,1,0,0:0:0:0:
64,192,45013,1,0,0:0:0:0:
192,192,45474,1,0,0:0:0:0:
192,192,45705,1,0,0:0:0:0:
320,192,45936,1,0,0:0:0:0:
64,192,46167,1,0,0:0:0:0:
320,192,46397,1,0,0:0:0:0:
448,192,46397,128,0,46859:0:0:0:0:
64,192,46859,1,0,0:0:0:0:
192,192,46859,1,0,0:0:0:0:
320,192,47090,1,0,0:0:0:0:
192,192,47320,128,0,47782:0:0:0:0:
448,192,47782,1,0,0:0:0:0:
320,192,47782,1,0,0:0:0:0:
64,192,48013,1,0,0:0:0:0:
320,192,48244,128,0,48705:0:0:0:0:
64,192,48705,1,0,0:0:0:0:
448,192,48705,1,0,0:0:0:0:
192,192,48936,1,0,0:0:0:0:
448,192,49167,128,0,49628:0:0:0:0:
64,192,49628,128,0,50090:0:0:0:0:
192,192,49628,1,0,0:0:0:0:
448,192,50090,128,0,50551:0:0:0:0:
320,192,50551,1,0,0:0:0:0:
64,192,50551,1,0,0:0:0:0:
192,192,51013,1,0,0:0:0:0:
320,192,51474,1,0,0:0:0:0:
448,192,51474,1,0,0:0:0:0:
64,192,51936,1,0,0:0:0:0:
192,192,52397,1,0,0:0:0:0:
448,192,52397,1,0,0:0:0:0:
320,192,52859,1,0,0:0:0:0:
192,192,53320,1,0,0:0:0:0:
64,192,53320,1,0,0:0:0:0:
448,192,53551,1,0,0:0:0:0:
64,192,53782,1,0,0:0:0:0:
320,192,54244,1,0,0:0:0:0:
448,192,54244,1,0,0:0:0:0:
192,192,54474,1,0,0:0:0:0:
320,192,54705,128,0,55167:0:0:0:0:
192,192,55167,1,0,0:0:0:0:
64,192,55167,1,0,0:0:0:0:
448,192,55397,1,0,0:0:0:0:
192,192,55628,128,0,56090:0:0:0:0:
64,192,56090,1,0,0:0:0:0:
448,192,56090,1,0,0:0:0:0:
320,192,56320,1,0,0:0:0:0:
64,192,56551,128,0,57013:0:0:0:0:
320,192,57013,1,0,0:0:0:0:
448,192,57013,128,0,57474:0:0:0:0:
64,192,57474,128,0,57936:0:0:0:0:
448,192,57936,1,0,0:0:0:0:
192,192,57936,1,0,0:0:0:0:
320,192,58397,128,0,58859:0:0:0:0:
64,192,58859,1,0,0:0:0:0:
192,192,58859,1,0,0:0:0:0:
448,192,59320,1,0,0:0:0:0:
64,192,59320,1,0,0:0:0:0:
320,192,60244,1,0,0:0:0:0:
64,192,60705,1,0,0:0:0:0:
192,192,60936,1,0,0:0:0:0:
320,192,61167,1,0,0:0:0:0:
448,192,61167,128,0,61628:0:0:0:0:
64,192,61628,1,0,0:0:0:0:
192,192,61628,1,0,0:0:0:0:
448,192,61859,1,0,0:0:0:0:
64,192,62090,128,0,62551:0:0:0:0:
320,192,62551,1,0,0:0:0:0:
448,192,62551,1,0,0:0:0:0:
192,192,62782,1,0,0:0:0:0:
320,192,63013,128,0,63474:0:0:0:0:
192,192,63474,1,0,0:0:0:0:
64,192,63474,1,0,0:0:0:0:
448,192,63705,1,0,0:0:0:0:
192,192,63936,128,0,64397:0:0:0:0:
64,192,64397,1,0,0:0:0:0:
448,192,64397,1,0,0:0:0:0:
320,192,64628,1,0,0:0:0:0:
64,192,64859,128,0,65320:0:0:0:0:
448,192,65320,1,0,0:0:0:0:
320,192,65320,1,0,0:0:0:0:
192,192,65551,1,0,0:0:0:0:
320,192,65782,128,0,66244:0:0:0:0:
192,192,66244,128,0,66705:0:0:0:0:
64,192,66244,1,0,0:0:0:0:
448,192,66705,1,0,0:0:0:0:
320,192,66936,1,0,0:0:0:0:
64,192,67167,1,0,0:0:0:0:
448,192,67167,1,0,0:0:0:0:
192,192,67397,1,0,0:0:0:0:
448,192,67628,128,0,68090:0:0:0:0:
192,192,68090,1,0,0:0:0:0:
64,192,68090,1,0,0:0:0:0:
320,192,68551,1,0,0:0:0:0:
192,192,68782,1,0,0:0:0:0:
320,192,69013,1,0,0:0:0:0:
448,192,69013,1,0,0:0:0:0:
64,192,69244,1,0,0:0:0:0:
192,192,69474,1,0,0:0:0:0:
448,192,69936,128,0,70397:0:0:0:0:
320,192,69936,1,0,0:0:0:0:
192,192,70397,1,0,0:0:0:0:
320,192,70628,1,0,0:0:0:0:
192,192,70859,1,0,0:0:0:0:
64,192,70859,1,0,0:0:0:0:
448,192,71090,1,0,0:0:0:0:
320,192,71320,1,0,0:0:0:0:
192,192,71782,128,0,72244:0:0:0:0:
64,192,71782,1,0,0:0:0:0:
448,192,72244,128,0,73628:0:0:0:0:
192,192,72705,1,0,0:0:0:0:
192,192,73628,1,0,0:0:0:0:
320,192,74090,128,0,74551:0:0:0:0:
64,192,74551,1,0,0:0:0:0:
448,192,74782,128,0,75244:0:0:0:0:
320,192,75474,128,0,75936:0:0:0:0:
64,192,75936,128,0,76397:0:0:0:0:
320,192,76397,1,0,0:0:0:0:
448,192,76397,1,0,0:0:0:0:
64,192,76628,1,0,0:0:0:0:
448,192,76859,128,0,77320:0:0:0:0:
64,192,77320,1,0,0:0:0:0:
192,192,77320,1,0,0:0:0:0:
320,192,77551,1,0,0:0:0:0:
192,192,77782,128,0,78244:0:0:0:0:
448,192,78244,1,0,0:0:0:0:
320,192,78244,1,0,0:0:0:0:
64,192,78474,1,0,0:0:0:0:
320,192,78705,128,0,79167:0:0:0:0:
64,192,79167,1,0,0:0:0:0:
448,192,79167,1,0,0:0:0:0:
192,192,79397,1,0,0:0:0:0:
448,192,79628,128,0,80090:0:0:0:0:
192,192,80090,1,0,0:0:0:0:
64,192,80090,1,0,0:0:0:0:
320,192,80320,1,0,0:0:0:0:
192,192,80551,128,0,81013:0:0:0:0:
448,192,81013,1,0,0:0:0:0:
64,192,81013,1,0,0:0:0:0:
320,192,81244,1,0,0:0:0:0:
64,192,81474,1,0,0:0:0:0:
192,192,81705,1,0,0:0:0:0:
448,192,81936,1,0,0:0:0:0:
64,192,81936,1,0,0:0:0:0:
320,192,82167,1,0,0:0:0:0:
64,192,82397,128,0,82859:0:0:0:0:
448,192,82859,1,0,0:0:0:0:
320,192,82859,1,0,0:0:0:0:
192,192,83320,1,0,0:0:0:0:
320,192,83551,1,0,0:0:0:0:
64,192,83782,1,0,0:0:0:0:
192,192,83782,1,0,0:0:0:0:
448,192,84013,1,0,0:0:0:0:
320,192,84244,1,0,0:0:0:0:
192,192,84705,1,0,0:0:0:0:
64,192,84705,128,0,85167:0:0:0:0:
320,192,85167,1,0,0:0:0:0:
192,192,85397,1,0,0:0:0:0:
448,192,85628,1,0,0:0:0:0:
320,192,85628,1,0,0:0:0:0:
64,192,85859,1,0,0:0:0:0:
192,192,86090,1,0,0:0:0:0:
448,192,86551,1,0,0:0:0:0:
320,192,86551,128,0,87013:0:0:0:0:
64,192,87013,128,0,88397:0:0:0:0:
320,192,87474,1,0,0:0:0:0:
320,192,88397,1,0,0:0:0:0:
192,192,88859,128,0,89782:0:0:0:0:
448,192,88859,1,0,0:0:0:0:
448,192,89782,1,0,0:0:0:0:
320,192,90013,1,0,0:0:0:0:
192,192,90244,1,0,0:0:0:0:
192,192,90474,1,0,0:0:0:0:
448,192,90705,128,0,91167:0:0:0:0:
64,192,90705,1,0,0:0:0:0:
192,192,91167,1,0,0:0:0:0:
64,192,91167,1,0,0:0:0:0:
320,192,91397,1,0,0:0:0:0:
64,192,91628,128,0,92090:0:0:0:0:
448,192,92090,1,0,0:0:0:0:
192,192,92090,1,0,0:0:0:0:
320,192,92320,1,0,0:0:0:0:
192,192,92551,128,0,93013:0:0:0:0:
320,192,93013,1,0,0:0:0:0:
448,192,93013,1,0,0:0:0:0:
64,192,93244,1,0,0:0:0:0:
320,192,93474,128,0,93936:0:0:0:0:
64,192,93936,1,0,0:0:0:0:
448,192,93936,1,0,0:0:0:0:
192,192,94167,1,0,0:0:0:0:
448,192,94397,128,0,94859:0:0:0:0:
192,192,94859,1,0,0:0:0:0:
64,192,94859,1,0,0:0:0:0:
320,192,95090,1,0,0:0:0:0:
64,192,95320,1,0,0:0:0:0:
448,192,95782,1,0,0:0:0:0:
192,192,95782,1,0,0:0:0:0:
192,192,96244,1,0,0:0:0:0:
64,192,96474,1,0,0:0:0:0:
320,192,96705,1,0,0:0:0:0:
448,192,96705,1,0,0:0:0:0:
192,192,96936,1,0,0:0:0:0:
448,192,97167,128,0,97628:0:0:0:0:
64,192,97628,1,0,0:0:0:0:
320,192,97628,1,0,0:0:0:0:
320,192,98090,1,0,0:0:0:0:
448,192,98320,1,0,0:0:0:0:
64,192,98551,1,0,0:0:0:0:
192,192,98551,1,0,0:0:0:0:
320,192,98782,1,0,0:0:0:0:
64,192,99013,128,0,99474:0:0:0:0:
192,192,99474,1,0,0:0:0:0:
448,192,99474,1,0,0:0:0:0:
320,192,99705,1,0,0:0:0:0:
192,192,99936,1,0,0:0:0:0:
64,192,100167,1,0,0:0:0:0:
448,192,100397,1,0,0:0:0:0:
320,192,100397,1,0,0:0:0:0:
192,192,100628,1,0,0:0:0:0:
448,192,100859,128,0,101320:0:0:0:0:
64,192,101320,128,0,101782:0:0:0:0:
320,192,101320,1,0,0:0:0:0:
320,192,101782,128,0,102705:0:0:0:0:
64,192,102244,1,0,0:0:0:0:
192,192,102936,128,0,103167:0:0:0:0:
448,192,103167,1,0,0:0:0:0:
448,192,103628,1,0,0:0:0:0:
64,192,103628,128,0,103859:0:0:0:0:
320,192,104090,1,0,0:0:0:0:
64,192,104320,128,0,104551:0:0:0:0:
448,192,104782,1,0,0:0:0:0:
320,192,105013,1,0,0:0:0:0:
192,192,105244,1,0,0:0:0:0:
448,192,105474,1,0,0:0:0:0:
64,192,105474,128,0,105936:0:0:0:0:
448,192,105936,1,0,0:0:0:0:
320,192,105936,1,0,0:0:0:0:
192,192,106167,1,0,0:0:0:0:
448,192,106397,128,0,106859:0:0:0:0:
320,192,106859,1,0,0:0:0:0:
64,192,106859,1,0,0:0:0:0:
192,192,107090,1,0,0:0:0:0:
320,192,107320,128,0,107782:0:0:0:0:
64,192,107782,1,0,0:0:0:0:
192,192,107782,1,0,0:0:0:0:
448,192,108013,1,0,0:0:0:0:
192,192,108244,128,0,108705:0:0:0:0:
64,192,108705,1,0,0:0:0:0:
448,192,108705,1,0,0:0:0:0:
320,192,108936,1,0,0:0:0:0:
64,192,109167,128,0,109628:0:0:0:0:
448,192,109628,1,0,0:0:0:0:
320,192,109628,1,0,0:0:0:0:
192,192,109859,1,0,0:0:0:0:
448,192,110090,1,0,0:0:0:0:
320,192,110551,1,0,0:0:0:0:
64,192,110551,1,0,0:0:0:0:
320,192,111013,1,0,0:0:0:0:
448,192,111244,1,0,0:0:0:0:
64,192,111474,1,0,0:0:0:0:
192,192,111474,1,0,0:0:0:0:
320,192,111705,1,0,0:0:0:0:
64,192,111936,128,0,112397:0:0:0:0:
192,192,112397,1,0,0:0:0:0:
448,192,112397,1,0,0:0:0:0:
192,192,112859,1,0,0:0:0:0:
64,192,113090,1,0,0:0:0:0:
320,192,113320,1,0,0:0:0:0:
448,192,113320,1,0,0:0:0:0:
192,192,113551,1,0,0:0:0:0:
448,192,113782,128,0,114244:0:0:0:0:
64,192,114244,1,0,0:0:0:0:
320,192,114244,1,0,0:0:0:0:
192,192,114474,1,0,0:0:0:0:
320,192,114705,1,0,0:0:0:0:
448,192,114936,1,0,0:0:0:0:
192,192,115167,1,0,0:0:0:0:
64,192,115167,1,0,0:0:0:0:
320,192,115397,1,0,0:0:0:0:
64,192,115628,128,0,116090:0:0:0:0:
192,192,116090,1,0,0:0:0:0:
448,192,116090,128,0,116551:0:0:0:0:
192,192,116551,128,0,117474:0:0:0:0:
448,192,117013,1,0,0:0:0:0:
320,192,117705,128,0,117936:0:0:0:0:
64,192,117936,1,0,0:0:0:0:
448,192,118167,128,0,118397:0:0:0:0:
192,192,118397,1,0,0:0:0:0:
64,192,118397,1,0,0:0:0:0:
192,192,118859,1,0,0:0:0:0:
64,192,119320,1,0,0:0:0:0:
192,192,119551,1,0,0:0:0:0:
320,192,119782,1,0,0:0:0:0:
64,192,120244,1,0,0:0:0:0:
448,192,120244,1,0,0:0:0:0:
320,192,120474,1,0,0:0:0:0:
192,192,120705,1,0,0:0:0:0:
320,192,120936,1,0,0:0:0:0:
192,192,121167,1,0,0:0:0:0:
320,192,121628,1,0,0:0:0:0:
64,192,121859,1,0,0:0:0:0:
448,192,122090,1,0,0:0:0:0:
192,192,122320,1,0,0:0:0:0:
448,192,122551,1,0,0:0:0:0:
192,192,122782,1,0,0:0:0:0:
448,192,123013,128,0,123474:0:0:0:0:
192,192,123474,128,0,123936:0:0:0:0:
320,192,123936,128,0,124859:0:0:0:0:
64,192,124397,1,0,0:0:0:0:
448,192,124859,1,0,0:0:0:0:
64,192,125320,1,0,0:0:0:0:
448,192,125782,1,0,0:0:0:0:
64,192,126244,1,0,0:0:0:0:
448,192,126705,1,0,0:0:0:0:
192,192,127167,1,0,0:0:0:0:
320,192,127397,1,0,0:0:0:0:
192,192,127628,1,0,0:0:0:0:
448,192,128090,1,0,0:0:0:0:
320,192,128090,1,0,0:0:0:0:
64,192,128551,1,0,0:0:0:0:
448,192,129013,1,0,0:0:0:0:
192,192,129013,1,0,0:0:0:0:
320,192,129474,1,0,0:0:0:0:
64,192,129936,1,0,0:0:0:0:
192,192,129936,1,0,0:0:0:0:
448,192,130397,1,0,0:0:0:0:
64,192,130859,1,0,0:0:0:0:
192,192,130859,128,0,131320:0:0:0:0:
320,192,131320,128,0,132244:0:0:0:0:
64,192,131782,1,0,0:0:0:0:
192,192,132244,1,0,0:0:0:0:
448,192,132705,1,0,0:0:0:0:
320,192,132705,1,0,0:0:0:0:
64,192,133167,1,0,0:0:0:0:
448,192,133628,1,0,0:0:0:0:
192,192,133628,1,0,0:0:0:0:
320,192,134090,1,0,0:0:0:0:
320,192,134320,1,0,0:0:0:0:
192,192,134551,1,0,0:0:0:0:
448,192,134782,1,0,0:0:0:0:
64,192,135013,128,0,135474:0:0:0:0:
192,192,135013,1,0,0:0:0:0:
320,192,135474,1,0,0:0:0:0:
448,192,135474,1,0,0:0:0:0:
192,192,135705,1,0,0:0:0:0:
320,192,135936,128,0,136397:0:0:0:0:
192,192,136397,1,0,0:0:0:0:
64,192,136397,1,0,0:0:0:0:
448,192,136628,1,0,0:0:0:0:
192,192,136859,128,0,137320:0:0:0:0:
64,192,137320,1,0,0:0:0:0:
448,192,137320,1,0,0:0:0:0:
320,192,137551,1,0,0:0:0:0:
64,192,137782,128,0,138244:0:0:0:0:
320,192,138244,1,0,0:0:0:0:
448,192,138244,128,0,138705:0:0:0:0:
64,192,138705,128,0,139167:0:0:0:0:
448,192,139167,1,0,0:0:0:0:
192,192,139167,1,0,0:0:0:0:
320,192,139628,1,0,0:0:0:0:
64,192,140090,1,0,0:0:0:0:
192,192,140090,1,0,0:0:0:0:
448,192,140551,1,0,0:0:0:0:
64,192,141013,1,0,0:0:0:0:
320,192,141013,1,0,0:0:0:0:
192,192,141474,1,0,0:0:0:0:
448,192,141936,1,0,0:0:0:0:
320,192,141936,1,0,0:0:0:0:
64,192,142167,1,0,0:0:0:0:
448,192,142397,1,0,0:0:0:0:
64,192,142859,1,0,0:0:0:0:
192,192,142859,1,0,0:0:0:0:
320,192,143090,1,0,0:0:0:0:
192,192,143320,128,0,143782:0:0:0:0:
448,192,143782,1,0,0:0:0:0:
320,192,143782,1,0,0:0:0:0:
64,192,144013,1,0,0:0:0:0:
320,192,144244,128,0,144705:0:0:0:0:
64,192,144705,1,0,0:0:0:0:
448,192,144705,1,0,0:0:0:0:
192,192,144936,1,0,0:0:0:0:
448,192,145167,128,0,145628:0:0:0:0:
64,192,145628,128,0,146090:0:0:0:0:
192,192,145628,1,0,0:0:0:0:
448,192,146090,128,0,146551:0:0:0:0:
320,192,146551,1,0,0:0:0:0:
64,192,146551,1,0,0:0:0:0:
192,192,147013,128,0,147474:0:0:0:0:
320,192,147474,1,0,0:0:0:0:
448,192,147474,1,0,0:0:0:0:
448,192,147936,1,0,0:0:0:0:
64,192,147936,1,0,0:0:0:0:
192,192,148859,1,0,0:0:0:0:
448,192,149320,1,0,0:0:0:0:
320,192,149551,1,0,0:0:0:0:
64,192,149782,128,0,150244:0:0:0:0:
192,192,149782,1,0,0:0:0:0:
320,192,150244,1,0,0:0:0:0:
448,192,150244,1,0,0:0:0:0:
64,192,150474,1,0,0:0:0:0:
448,192,150705,128,0,151167:0:0:0:0:
64,192,151167,1,0,0:0:0:0:
192,192,151167,1,0,0:0:0:0:
320,192,151397,1,0,0:0:0:0:
192,192,151628,128,0,152090:0:0:0:0:
448,192,152090,1,0,0:0:0:0:
320,192,152090,1,0,0:0:0:0:
64,192,152320,1,0,0:0:0:0:
320,192,152551,128,0,153013:0:0:0:0:
64,192,153013,1,0,0:0:0:0:
448,192,153013,1,0,0:0:0:0:
192,192,153244,1,0,0:0:0:0:
448,192,153474,128,0,153936:0:0:0:0:
192,192,153936,1,0,0:0:0:0:
64,192,153936,1,0,0:0:0:0:
320,192,154167,1,0,0:0:0:0:
192,192,154397,128,0,154859:0:0:0:0:
448,192,154859,1,0,0:0:0:0:
320,192,154859,128,0,155320:0:0:0:0:
64,192,155320,1,0,0:0:0:0:
192,192,155551,1,0,0:0:0:0:
448,192,155782,1,0,0:0:0:0:
64,192,155782,1,0,0:0:0:0:
320,192,156013,1,0,0:0:0:0:
64,192,156244,128,0,156705:0:0:0:0:
448,192,156705,1,0,0:0:0:0:
320,192,156705,1,0,0:0:0:0:
192,192,157167,1,0,0:0:0:0:
320,192,157397,1,0,0:0:0:0:
64,192,157628,1,0,0:0:0:0:
192,192,157628,1,0,0:0:0:0:
448,192,157859,1,0,0:0:0:0:
320,192,158090,1,0,0:0:0:0:
192,192,158551,1,0,0:0:0:0:
64,192,158551,128,0,159013:0:0:0:0:
320,192,159013,1,0,0:0:0:0:
192,192,159244,1,0,0:0:0:0:
448,192,159474,1,0,0:0:0:0:
320,192,159474,1,0,0:0:0:0:
64,192,159705,1,0,0:0:0:0:
192,192,159936,1,0,0:0:0:0:
448,192,160397,1,0,0:0:0:0:
320,192,160397,128,0,160859:0:0:0:0:
64,192,160859,128,0,162244:0:0:0:0:
320,192,161320,1,0,0:0:0:0:
320,192,162244,1,0,0:0:0:0:
192,192,162705,128,0,163167:0:0:0:0:
448,192,163167,1,0,0:0:0:0:
64,192,163397,128,0,163859:0:0:0:0:
192,192,164090,128,0,164551:0:0:0:0:
448,192,164551,128,0,165013:0:0:0:0:
64,192,165013,1,0,0:0:0:0:
192,192,165013,1,0,0:0:0:0:
448,192,165244,1,0,0:0:0:0:
64,192,165474,128,0,165936:0:0:0:0:
320,192,165936,1,0,0:0:0:0:
448,192,165936,1,0,0:0:0:0:
192,192,166167,1,0,0:0:0:0:
320,192,166397,128,0,166859:0:0:0:0:
192,192,166859,1,0,0:0:0:0:
64,192,166859,1,0,0:0:0:0:
448,192,167090,1,0,0:0:0:0:
192,192,167320,128,0,167782:0:0:0:0:
64,192,167782,1,0,0:0:0:0:
448,192,167782,1,0,0:0:0:0:
320,192,168013,1,0,0:0:0:0:
64,192,168244,128,0,168705:0:0:0:0:
448,192,168705,1,0,0:0:0:0:
320,192,168705,1,0,0:0:0:0:
192,192,168936,1,0,0:0:0:0:
320,192,169167,128,0,169628:0:0:0:0:
448,192,169628,1,0,0:0:0:0:
64,192,169628,1,0,0:0:0:0:
192,192,169859,1,0,0:0:0:0:
448,192,170090,1,0,0:0:0:0:
320,192,170320,1,0,0:0:0:0:
64,192,170551,1,0,0:0:0:0:
448,192,170551,1,0,0:0:0:0:
192,192,170782,1,0,0:0:0:0:
448,192,171013,128,0,171474:0:0:0:0:
192,192,171474,1,0,0:0:0:0:
64,192,171474,1,0,0:0:0:0:
320,192,171936,1,0,0:0:0:0:
192,192,172167,1,0,0:0:0:0:
320,192,172397,1,0,0:0:0:0:
448,192,172397,1,0,0:0:0:0:
64,192,172628,1,0,0:0:0:0:
192,192,172859,1,0,0:0:0:0:
448,192,173320,128,0,173782:0:0:0:0:
320,192,173320,1,0,0:0:0:0:
192,192,173782,1,0,0:0:0:0:
320,192,174013,1,0,0:0:0:0:
192,192,174244,1,0,0:0:0:0:
64,192,174244,1,0,0:0:0:0:
448,192,174474,1,0,0:0:0:0:
320,192,174705,1,0,0:0:0:0:
192,192,175167,128,0,175628:0:0:0:0:
64,192,175167,1,0,0:0:0:0:
448,192,175628,128,0,177013:0:0:0:0:
192,192,176090,1,0,0:0:0:0:
192,192,177013,1,0,0:0:0:0:
64,192,177474,1,0,0:0:0:0:
320,192,177474,128,0,178397:0:0:0:0:
64,192,178397,1,0,0:0:0:0:
192,192,178628,1,0,0:0:0:0:
320,192,178859,1,0,0:0:0:0:
320,192,179090,1,0,0:0:0:0:
64,192,179320,128,0,179782:0:0:0:0:
448,192,179320,1,0,0:0:0:0:
320,192,179782,1,0,0:0:0:0:
448,192,179782,1,0,0:0:0:0:
192,192,180013,1,0,0:0:0:0:
448,192,180244,128,0,180705:0:0:0:0:
64,192,180705,1,0,0:0:0:0:
320,192,180705,1,0,0:0:0:0:
192,192,180936,1,0,0:0:0:0:
320,192,181167,128,0,181628:0:0:0:0:
192,192,181628,1,0,0:0:0:0:
64,192,181628,1,0,0:0:0:0:
448,192,181859,1,0,0:0:0:0:
192,192,182090,128,0,182551:0:0:0:0:
448,192,182551,1,0,0:0:0:0:
64,192,182551,1,0,0:0:0:0:
320,192,182782,1,0,0:0:0:0:
64,192,183013,128,0,183474:0:0:0:0:
320,192,183474,1,0,0:0:0:0:
448,192,183474,1,0,0:0:0:0:
192,192,183705,1,0,0:0:0:0:
448,192,183936,1,0,0:0:0:0:
64,192,184397,1,0,0:0:0:0:
320,192,184397,1,0,0:0:0:0:
320,192,184859,1,0,0:0:0:0:
448,192,185090,1,0,0:0:0:0:
192,192,185320,1,0,0:0:0:0:
64,192,185320,1,0,0:0:0:0:
320,192,185551,1,0,0:0:0:0:
64,192,185782,128,0,186244:0:0:0:0:
448,192,186244,1,0,0:0:0:0:
192,192,186244,1,0,0:0:0:0:
192,192,186705,1,0,0:0:0:0:
64,192,186936,1,0,0:0:0:0:
448,192,187167,1,0,0:0:0:0:
320,192,187167,1,0,0:0:0:0:
192,192,187397,1,0,0:0:0:0:
448,192,187628,128,0,188090:0:0:0:0:
320,192,188090,1,0,0:0:0:0:
64,192,188090,1,0,0:0:0:0:
192,192,188320,1,0,0:0:0:0:
320,192,188551,1,0,0:0:0:0:
448,192,188782,1,0,0:0:0:0:
64,192,189013,1,0,0:0:0:0:
192,192,189013,1,0,0:0:0:0:
320,192,189244,1,0,0:0:0:0:
64,192,189474,128,0,189936:0:0:0:0:
448,192,189936,128,0,190397:0:0:0:0:
192,192,189936,1,0,0:0:0:0:
192,192,190397,128,0,191320:0:0:0:0:
448,192,190859,1,0,0:0:0:0:
320,192,191551,128,0,191782:0:0:0:0:
64,192,191782,1,0,0:0:0:0:
448,192,192244,128,0,192474:0:0:0:0:
64,192,192244,1,0,0:0:0:0:
192,192,192705,1,0,0:0:0:0:
448,192,192936,128,0,193167:0:0:0:0:
64,192,193167,1,0,0:0:0:0:
192,192,193397,1,0,0:0:0:0:
320,192,193628,1,0,0:0:0:0:
320,192,193859,1,0,0:0:0:0:
64,192,194090,1,0,0:0:0:0:
448,192,194090,128,0,194551:0:0:0:0:
64,192,194551,1,0,0:0:0:0:
192,192,194551,1,0,0:0:0:0:
320,192,194782,1,0,0:0:0:0:
64,192,195013,128,0,195474:0:0:0:0:
192,192,195474,1,0,0:0:0:0:
448,192,195474,1,0,0:0:0:0:
320,192,195705,1,0,0:0:0:0:
192,192,195936,128,0,196397:0:0:0:0:
448,192,196397,1,0,0:0:0:0:
320,192,196397,1,0,0:0:0:0:
64,192,196628,1,0,0:0:0:0:
320,192,196859,128,0,197320:0:0:0:0:
448,192,197320,1,0,0:0:0:0:
64,192,197320,1,0,0:0:0:0:
192,192,197551,1,0,0:0:0:0:
448,192,197782,128,0,198244:0:0:0:0:
64,192,198244,1,0,0:0:0:0:
192,192,198244,1,0,0:0:0:0:
320,192,198474,1,0,0:0:0:0:
64,192,198705,1,0,0:0:0:0:
192,192,199167,1,0,0:0:0:0:
448,192,199167,1,0,0:0:0:0:
192,192,199628,1,0,0:0:0:0:
64,192,199859,1,0,0:0:0:0:
448,192,200090,1,0,0:0:0:0:
320,192,200090,1,0,0:0:0:0:
192,192,200320,1,0,0:0:0:0:
448,192,200551,128,0,201013:0:0:0:0:
320,192,201013,1,0,0:0:0:0:
64,192,201013,1,0,0:0:0:0:
320,192,201474,1,0,0:0:0:0:
448,192,201705,1,0,0:0:0:0:
192,192,201936,1,0,0:0:0:0:
64,192,201936,1,0,0:0:0:0:
320,192,202167,1,0,0:0:0:0:
64,192,202397,128,0,202859:0:0:0:0:
448,192,202859,1,0,0:0:0:0:
192,192,202859,1,0,0:0:0:0:
320,192,203090,1,0,0:0:0:0:
192,192,203320,1,0,0:0:0:0:
64,192,203551,1,0,0:0:0:0:
320,192,203782,1,0,0:0:0:0:
448,192,203782,1,0,0:0:0:0:
192,192,204013,1,0,0:0:0:0:
448,192,204244,128,0,204705:0:0:0:0:
320,192,204705,1,0,0:0:0:0:
64,192,204705,128,0,205167:0:0:0:0:
320,192,205167,128,0,206090:0:0:0:0:
64,192,205628,1,0,0:0:0:0:
192,192,206320,128,0,206551:0:0:0:0:
448,192,206551,1,0,0:0:0:0:
64,192,206782,128,0,207013:0:0:0:0:
320,192,207013,1,0,0:0:0:0:
448,192,207013,1,0,0:0:0:0:
320,192,207474,1,0,0:0:0:0:
192,192,207936,1,0,0:0:0:0:
448,192,208859,1,0,0:0:0:0:
64,192,208859,1,0,0:0:0:0:
