osu file format v14

[General]
AudioFilename: audio.ogg
AudioLeadIn: 0
PreviewTime: 45697
Countdown: 0
SampleSet: Soft
StackLeniency: 0.7
Mode: 3
LetterboxInBreaks: 0
SpecialStyle: 0
WidescreenStoryboard: 1

[Editor]
Bookmarks: 18488,20581,26162,31743,42906,49185,60347,71510,82673
DistanceSpacing: 0.95
BeatDivisor: 4
GridSize: 32
TimelineZoom: 1.6

[Metadata]
Title:Armored Hero Mechamato (TV Size)
TitleUnicode:Armored Hero Mechamato (TV Size)
Artist:Shah Modescape
ArtistUnicode:Shah Modescape
Creator:keksikosu
Version:Mudah
Source:Mechamato The Animated Series
Tags:monsta lagu tema siri animasi theme song rock malay malaysia malaysian english cartoon op opening Flade Angki
BeatmapID:4472556
BeatmapSetID:2127552

[Difficulty]
HPDrainRate:6.5
CircleSize:4
OverallDifficulty:6.5
ApproachRate:5
SliderMultiplier:1.4
SliderTickRate:1

[Events]
//Background and Video events
0,0,"bg.jpg",0,0
Video,0,"imahero.avi"
//Break Periods
//Storyboard Layer 0 (Background)
//Storyboard Layer 1 (Fail)
//Storyboard Layer 2 (Pass)
//Storyboard Layer 3 (Foreground)
//Storyboard Layer 4 (Overlay)
//Storyboard Sound Samples
Sample,48487,0,"tom3.wav",50
Sample,84766,0,"tom3.wav",50

[TimingPoints]
18488,348.837209302326,4,2,1,40,1,0
20581,348.837209302326,4,2,1,40,1,0
26162,-100,4,2,1,40,0,1
31743,-100,4,2,1,40,0,0
49185,348.837209302326,4,2,1,40,1,0
71510,-100,4,2,1,40,0,1
82673,-100,4,2,1,40,0,0

[HitObjects]
64,192,18488,128,0,18836:0:0:0:0:
320,192,18836,1,0,0:0:0:0:
192,192,19011,128,0,19360:0:0:0:0:
448,192,19360,128,0,19883:0:0:0:0:
64,192,19883,1,0,0:0:0:0:
320,192,20057,1,2,0:0:0:0:
192,192,20232,1,8,0:0:0:0:
448,192,20406,1,0,0:0:0:50:tom3.wav
64,192,20581,1,2,0:0:0:0:
320,192,20581,1,4,0:0:0:0:
64,192,20929,1,8,0:0:0:0:
448,192,21278,1,2,0:0:0:0:
320,192,21453,1,2,0:0:0:0:
192,192,21627,1,8,0:0:0:0:
448,192,21801,1,2,0:0:0:0:
64,192,22150,1,2,0:0:0:0:
320,192,22325,1,8,0:0:0:0:
192,192,22674,1,2,0:0:0:0:
448,192,22848,1,2,0:0:0:0:
64,192,23022,1,8,0:0:0:0:
320,192,23371,1,2,0:0:0:0:
320,192,23720,1,8,0:0:0:0:
64,192,24069,1,2,0:0:0:0:
192,192,24243,1,2,0:0:0:0:
448,192,24418,1,8,0:0:0:0:
64,192,24592,1,2,0:0:0:0:
320,192,24941,1,2,0:0:0:0:
192,192,25115,1,8,0:0:0:0:
448,192,25464,1,2,0:0:0:0:
320,192,25639,1,2,0:0:0:0:
64,192,25813,1,8,0:0:0:0:
192,192,25987,1,8,0:0:0:0:
320,192,26162,1,2,0:0:0:0:
448,192,26162,1,4,0:0:0:0:
64,192,26336,1,0,0:0:0:0:
448,192,26511,1,8,0:0:0:0:
320,192,26860,1,2,0:0:0:0:
192,192,27034,1,2,0:0:0:0:
64,192,27208,1,8,0:0:0:0:
192,192,27557,128,4,27906:0:0:0:0:
320,192,27557,1,0,0:0:0:0:
448,192,27906,128,8,28255:0:0:0:0:
64,192,28255,1,2,0:0:0:0:
192,192,28429,1,2,0:0:0:0:
320,192,28604,1,8,0:0:0:0:
192,192,28953,1,2,0:0:0:0:
448,192,28953,1,4,0:0:0:0:
64,192,29127,1,0,0:0:0:0:
320,192,29301,1,8,0:0:0:0:
192,192,29650,1,2,0:0:0:0:
320,192,29825,1,2,0:0:0:0:
448,192,29999,1,8,0:0:0:0:
192,192,30348,1,0,0:0:0:0:
64,192,30522,1,2,0:0:0:0:
320,192,30697,1,8,0:0:0:0:
192,192,31046,128,0,31394:0:0:0:50:tom1.wav
448,192,31394,1,8,0:0:0:0:
320,192,31569,1,8,0:0:0:0:
64,192,31743,128,4,32092:0:0:0:0:
192,192,31743,1,2,0:0:0:0:
448,192,32092,128,8,32441:0:0:0:0:
192,192,32441,128,2,32790:0:0:0:0:
64,192,32790,1,8,0:0:0:0:
320,192,32964,128,2,33313:0:0:0:0:
64,192,33313,128,2,33662:0:0:0:0:
448,192,33662,128,0,34185:0:0:0:0:
192,192,34185,1,8,0:0:0:0:
64,192,34360,1,0,0:0:0:0:
320,192,34534,128,2,34883:0:0:0:0:
192,192,34883,128,8,35232:0:0:0:0:
448,192,35232,1,2,0:0:0:0:
64,192,35406,128,2,35755:0:0:0:0:
320,192,35755,128,2,36104:0:0:0:0:
448,192,36104,128,2,36453:0:0:0:0:
192,192,36453,128,0,36976:0:0:0:0:
64,192,36976,1,8,0:0:0:0:
320,192,37150,1,8,0:0:0:0:
64,192,37325,128,4,37674:0:0:0:0:
448,192,37325,1,2,0:0:0:0:
320,192,37674,128,8,38022:0:0:0:0:
192,192,38022,128,2,38371:0:0:0:0:
64,192,38371,1,8,0:0:0:0:
448,192,38546,128,2,38894:0:0:0:0:
192,192,38894,128,2,39243:0:0:0:0:
320,192,39243,128,0,39767:0:0:0:0:
448,192,39767,1,8,0:0:0:0:
192,192,39941,1,0,0:0:0:0:
64,192,40115,128,2,40464:0:0:0:0:
448,192,40464,128,8,40813:0:0:0:0:
192,192,40813,128,2,41162:0:0:0:0:
64,192,41162,1,8,0:0:0:0:
320,192,41336,128,2,41685:0:0:0:0:
64,192,41685,128,2,42034:0:0:0:0:
448,192,42034,128,0,42557:0:0:0:0:
64,192,42557,1,8,0:0:0:0:
192,192,42732,1,8,0:0:0:0:
448,192,42906,1,0,0:0:0:0:
320,192,43255,1,0,0:0:0:0:
192,192,43604,1,0,0:0:0:0:
64,192,43953,1,0,0:0:0:0:
320,192,44301,1,0,0:0:0:0:
192,192,44650,1,0,0:0:0:0:
320,192,44999,1,0,0:0:0:0:
192,192,45348,1,0,0:0:0:0:
64,192,45697,128,0,46046:0:0:0:0:
192,192,46046,128,0,46394:0:0:0:0:
320,192,46394,128,0,46743:0:0:0:0:
448,192,46743,128,0,47092:0:0:0:0:
64,192,47092,1,2,0:0:0:0:
192,192,47092,1,0,0:0:0:50:LR3_BassDropSSG.wav
320,192,47267,1,0,0:0:0:0:
448,192,47441,1,0,0:0:0:0:
64,192,47790,128,0,48487:0:0:0:0:
448,192,48487,1,8,0:0:0:0:
192,192,48662,1,2,0:0:0:0:
320,192,48836,1,8,0:0:0:0:
64,192,49011,1,8,0:0:0:0:
192,192,49185,1,2,0:0:0:0:
448,192,49185,128,4,49533:0:0:0:0:
320,192,49533,1,8,0:0:0:0:
64,192,49708,128,0,50057:0:0:0:0:
448,192,50057,1,2,0:0:0:0:
192,192,50231,128,8,50580:0:0:0:0:
64,192,50580,1,0,0:0:0:0:
448,192,50754,1,2,0:0:0:0:
192,192,50929,1,8,0:0:0:0:
320,192,51278,1,2,0:0:0:0:
64,192,51452,1,2,0:0:0:0:
448,192,51626,1,8,0:0:0:0:
320,192,51975,128,2,52324:0:0:0:0:
64,192,52324,1,8,0:0:0:0:
192,192,52498,128,0,53022:0:0:0:0:
448,192,53022,128,8,53371:0:0:0:0:
64,192,53371,1,0,0:0:0:0:
320,192,53545,1,2,0:0:0:0:
192,192,53719,1,8,0:0:0:0:
448,192,54068,1,2,0:0:0:0:
192,192,54243,1,2,0:0:0:0:
320,192,54417,1,8,0:0:0:0:
64,192,54591,1,8,0:0:0:0:
192,192,54766,128,2,55115:0:0:0:0:
448,192,54766,1,2,0:1:0:0:
64,192,55115,1,8,0:0:0:0:
320,192,55289,128,0,55812:0:0:0:0:
64,192,55812,128,8,56161:0:0:0:0:
448,192,56161,128,0,56510:0:0:0:0:
320,192,56510,1,8,0:0:0:0:
192,192,56685,128,0,57208:0:0:0:0:
64,192,57208,128,8,57557:0:0:0:0:
320,192,57557,128,2,58254:0:0:0:0:
192,192,57905,1,8,0:0:0:0:
64,192,58254,1,2,0:0:0:0:
448,192,58429,1,2,0:0:0:0:
192,192,58603,1,8,0:0:0:0:
320,192,58778,1,2,0:0:0:0:
64,192,58952,1,0,0:0:0:0:
192,192,59126,1,2,0:0:0:0:
448,192,59301,1,8,0:0:0:0:
320,192,59650,1,0,0:0:0:50:tom1.wav
192,192,59824,1,0,0:0:0:50:tom3.wav
448,192,59998,1,8,0:0:0:0:
320,192,60173,1,8,0:0:0:0:
64,192,60347,1,2,0:0:0:0:
192,192,60347,1,4,0:0:0:0:
448,192,60696,1,0,0:0:0:0:
448,192,60871,1,2,0:0:0:0:
192,192,61219,1,0,0:0:0:0:
192,192,61394,1,0,0:0:0:0:
320,192,61743,1,2,0:0:0:0:
64,192,62091,1,0,0:0:0:0:
64,192,62266,1,2,0:0:0:0:
320,192,62615,1,2,0:0:0:0:
320,192,62789,1,0,0:0:0:0:
192,192,63138,1,2,0:0:0:0:
448,192,63487,1,0,0:0:0:0:
448,192,63661,1,2,0:0:0:0:
64,192,64010,1,0,0:0:0:0:
64,192,64185,1,0,0:0:0:0:
448,192,64533,1,2,0:0:0:0:
192,192,64882,1,0,0:0:0:0:
192,192,65057,1,2,0:0:0:0:
320,192,65405,1,0,0:0:0:0:
320,192,65580,1,8,0:0:0:0:
64,192,65754,1,8,0:0:0:0:
192,192,65929,1,2,0:0:0:0:
448,192,65929,128,4,66452:0:0:0:0:
64,192,66452,128,2,66975:0:0:0:0:
320,192,66975,128,0,67324:0:0:0:0:
192,192,67324,128,2,68022:0:0:0:0:
64,192,68022,1,8,0:0:0:0:
448,192,68196,1,2,0:0:0:0:
448,192,68371,1,0,0:0:0:0:
64,192,68719,128,2,69068:0:0:0:0:
320,192,69068,1,0,0:0:0:0:
448,192,69243,128,2,69591:0:0:0:0:
192,192,69591,128,0,69940:0:0:0:0:
448,192,70115,1,2,0:0:0:0:
192,192,70289,1,0,0:0:0:0:
320,192,70464,1,2,0:0:0:0:
64,192,70812,1,8,0:0:0:0:
192,192,70987,1,8,0:0:0:0:
448,192,71161,1,0,0:0:0:50:tom1.wav
320,192,71336,1,0,0:0:0:50:Tom2.wav
64,192,71510,1,2,0:0:0:0:
192,192,71510,1,4,0:0:0:0:
448,192,71685,1,0,0:0:0:0:
64,192,71859,1,8,0:0:0:0:
192,192,72208,1,2,0:0:0:0:
320,192,72382,1,2,0:0:0:0:
448,192,72557,1,8,0:0:0:0:
64,192,72905,1,4,0:0:0:0:
192,192,72905,128,0,73254:0:0:0:0:
320,192,73254,128,8,73603:0:0:0:0:
448,192,73603,1,0,0:0:0:0:
192,192,73778,1,2,0:0:0:0:
64,192,73952,1,8,0:0:0:0:
320,192,74301,1,2,0:0:0:0:
448,192,74301,1,4,0:0:0:0:
192,192,74475,1,2,0:0:0:0:
448,192,74650,1,8,0:0:0:0:
64,192,74998,1,2,0:0:0:0:
192,192,75173,1,2,0:0:0:0:
320,192,75347,1,8,0:0:0:0:
64,192,75696,1,0,0:0:0:0:
448,192,75871,1,2,0:0:0:0:
192,192,76045,1,8,0:0:0:0:
320,192,76394,128,0,76743:0:0:0:50:tom1.wav
448,192,76743,1,0,0:0:0:50:tom3.wav
192,192,76917,1,8,0:0:0:0:
64,192,77091,1,6,0:0:0:0:
320,192,77266,1,0,0:0:0:0:
448,192,77440,1,8,0:0:0:0:
192,192,77789,1,2,0:0:0:0:
320,192,77964,1,2,0:0:0:0:
64,192,78138,1,8,0:0:0:0:
192,192,78487,1,4,0:0:0:0:
448,192,78487,128,0,78836:0:0:0:0:
64,192,78836,128,8,79185:0:0:0:0:
320,192,79185,1,0,0:0:0:0:
192,192,79359,1,2,0:0:0:0:
448,192,79533,1,8,0:0:0:0:
64,192,79882,1,2,0:0:0:0:
192,192,79882,128,4,80231:0:0:0:0:
448,192,80231,1,8,0:0:0:0:
320,192,80405,128,2,80754:0:0:0:0:
64,192,80754,128,2,81278:0:0:0:0:
448,192,81278,1,0,0:0:0:0:
320,192,81452,1,2,0:0:0:0:
192,192,81626,1,8,0:0:0:0:
448,192,81975,128,0,82324:0:0:0:0:
64,192,82324,1,0,0:0:0:50:tom3.wav
192,192,82498,1,8,0:0:0:0:
320,192,82673,1,2,0:0:0:0:
448,192,82673,1,4,0:0:0:0:
320,192,83022,1,8,0:0:0:0:
64,192,83371,1,2,0:0:0:0:
192,192,83545,1,2,0:0:0:0:
448,192,83719,1,8,0:0:0:0:
64,192,83894,1,2,0:0:0:0:
320,192,84243,1,2,0:0:0:0:
192,192,84417,1,12,0:0:0:0:
448,192,84766,1,8,0:0:0:0:
320,192,84940,1,2,0:0:0:0:
64,192,85115,1,8,0:0:0:0:
192,192,85289,1,8,0:0:0:0:
320,192,85464,1,2,0:0:0:0:
448,192,85464,1,4,0:0:0:0:
