osu file format v14

[General]
AudioFilename: audio.ogg
AudioLeadIn: 0
PreviewTime: 93585
Countdown: 0
SampleSet: Soft
StackLeniency: 0.7
Mode: 3
LetterboxInBreaks: 0
SpecialStyle: 0
WidescreenStoryboard: 1

[Editor]
Bookmarks: 102366,155166
DistanceSpacing: 2
BeatDivisor: 4
GridSize: 16
TimelineZoom: 1.3

[Metadata]
Title:Fighting Spirit
TitleUnicode:Fighting Spirit
Artist:Shady Cicada
ArtistUnicode:Shady Cicada
Creator:HimitsuHiketsu
Version:Normal
Source:
Tags:Project LUCA orchestral electronic rock metal instrumental jrpg japanese rpg boss battle theme SixteenInMono
BeatmapID:4099141
BeatmapSetID:1975096

[Difficulty]
HPDrainRate:7
CircleSize:4
OverallDifficulty:7
ApproachRate:5
SliderMultiplier:1.4
SliderTickRate:1

[Events]
//Background and Video events
0,0,"shady cicad.png",0,0
//Break Periods
//Storyboard Layer 0 (Background)
//Storyboard Layer 1 (Fail)
//Storyboard Layer 2 (Pass)
//Storyboard Layer 3 (Foreground)
//Storyboard Layer 4 (Overlay)
//Storyboard Sound Samples
Sample,55185,0,"hi tom.wav",70
Sample,57135,0,"mid tom.wav",70
Sample,57585,0,"hi tom.wav",70
Sample,62385,0,"kick.wav",40
Sample,67185,0,"kick.wav",40
Sample,76185,0,"snare.wav",40
Sample,76485,0,"snare.wav",40
Sample,77685,0,"snare.wav",40
Sample,77985,0,"kick.wav",40
Sample,102585,0,"mid tom.wav",70
Sample,102735,0,"floor tom.wav",70
Sample,127485,0,"lo tom.wav",70
Sample,128085,0,"floor tom.wav",70
Sample,129285,0,"mid tom.wav",70
Sample,129585,0,"floor tom.wav",70
Sample,129885,0,"floor tom.wav",70
Sample,130485,0,"floor tom.wav",70
Sample,132285,0,"lo tom.wav",70
Sample,132885,0,"floor tom.wav",70
Sample,134085,0,"mid tom.wav",70
Sample,134385,0,"floor tom.wav",70
Sample,134685,0,"floor tom.wav",70

[TimingPoints]
1185,300.0,4,2,1,50,1,0
93585,-100.0,4,2,1,50,0,1
112785,-100.0,4,2,1,50,0,0
155985,-100.0,4,2,1,50,0,1
175185,-100.0,4,2,1,50,0,0

[HitObjects]
320,192,1185,1,0,0:0:0:50:crash.wav
448,192,1185,1,0,0:0:0:40:kick.wav
320,192,1635,1,0,0:0:0:50:crash.wav
448,192,1635,1,0,0:0:0:40:kick.wav
320,192,2085,1,0,0:0:0:50:crash.wav
448,192,2085,1,0,0:0:0:40:kick.wav
320,192,2535,1,0,0:0:0:50:crash.wav
448,192,2535,1,0,0:0:0:40:kick.wav
64,192,2985,1,0,0:0:0:50:crash.wav
192,192,2985,1,0,0:0:0:40:kick.wav
320,192,3285,1,0,0:0:0:50:crash.wav
448,192,3285,1,0,0:0:0:40:snare.wav
64,192,3435,1,0,0:0:0:40:snare.wav
192,192,3435,1,0,0:0:0:0:
320,192,3585,1,0,0:0:0:50:crash.wav
448,192,3585,1,0,0:0:0:40:kick.wav
320,192,4035,1,0,0:0:0:50:crash.wav
448,192,4035,1,0,0:0:0:40:kick.wav
64,192,4185,1,0,0:0:0:40:snare.wav
320,192,4485,1,0,0:0:0:50:crash.wav
448,192,4485,1,0,0:0:0:40:kick.wav
320,192,4935,1,0,0:0:0:50:crash.wav
448,192,4935,1,0,0:0:0:40:snare.wav
320,192,5385,1,0,0:0:0:50:crash.wav
448,192,5385,1,0,0:0:0:40:snare.wav
64,192,5535,1,0,0:0:0:40:snare.wav
320,192,5685,1,0,0:0:0:50:crash.wav
448,192,5685,1,0,0:0:0:40:snare.wav
192,192,5835,1,0,0:0:0:40:snare.wav
64,192,5985,1,0,0:0:0:40:snare.wav
448,192,5985,1,0,0:0:0:0:
320,192,6060,1,0,0:0:0:40:snare.wav
192,192,6135,1,0,0:0:0:40:kick.wav
448,192,6435,1,0,0:0:0:40:snare.wav
320,192,6510,1,0,0:0:0:40:snare.wav
192,192,6585,1,0,0:0:0:40:kick.wav
64,192,6885,1,0,0:0:0:40:snare.wav
192,192,6960,1,0,0:0:0:40:snare.wav
320,192,7035,1,0,0:0:0:40:kick.wav
64,192,7335,1,0,0:0:0:40:snare.wav
192,192,7410,1,0,0:0:0:40:snare.wav
320,192,7485,1,0,0:0:0:40:kick.wav
192,192,7785,1,0,0:0:0:50:crash.wav
448,192,7785,1,0,0:0:0:40:snare.wav
64,192,8085,1,0,0:0:0:50:crash.wav
320,192,8085,1,0,0:0:0:40:snare.wav
192,192,8385,1,0,0:0:0:50:crash.wav
448,192,8385,1,0,0:0:0:40:snare.wav
64,192,8535,1,0,0:0:0:40:kick.wav
192,192,8685,1,0,0:0:0:40:kick.wav
320,192,8835,1,0,0:0:0:50:crash.wav
448,192,8835,1,0,0:0:0:40:snare.wav
192,192,9135,1,0,0:0:0:40:kick.wav
64,192,9285,1,0,0:0:0:50:crash.wav
320,192,9285,1,0,0:0:0:40:snare.wav
448,192,9435,1,0,0:0:0:40:kick.wav
320,192,9585,1,0,0:0:0:40:kick.wav
64,192,9735,1,0,0:0:0:50:crash.wav
192,192,9735,1,0,0:0:0:40:snare.wav
448,192,10035,1,0,0:0:0:40:kick.wav
192,192,10185,1,0,0:0:0:40:kick.wav
320,192,10185,1,0,0:0:0:0:
64,192,10485,1,0,0:0:0:40:snare.wav
192,192,10560,1,0,0:0:0:40:snare.wav
320,192,10635,1,0,0:0:0:40:snare.wav
448,192,10710,1,0,0:0:0:40:snare.wav
64,192,10785,1,0,0:0:0:70:mid tom.wav
64,192,11685,1,0,0:0:0:40:snare.wav
192,192,11760,1,0,0:0:0:40:snare.wav
320,192,11835,1,0,0:0:0:40:kick.wav
64,192,11985,128,0,12285:0:0:0:50:crash.wav
448,192,11985,1,0,0:0:0:40:kick.wav
320,192,12285,1,0,0:0:0:40:snare.wav
448,192,12285,1,0,0:0:0:0:
192,192,12435,128,0,12735:0:0:0:40:kick.wav
64,192,12735,1,0,0:0:0:40:kick.wav
192,192,12885,1,0,0:0:0:40:snare.wav
320,192,12885,1,0,0:0:0:0:
448,192,13035,128,0,13335:0:0:0:40:kick.wav
320,192,13335,1,0,0:0:0:0:
64,192,13485,1,0,0:0:0:40:snare.wav
192,192,13485,1,0,0:0:0:0:
448,192,13635,1,0,0:0:0:40:kick.wav
64,192,13785,1,0,0:0:0:0:
320,192,13935,1,0,0:0:0:40:kick.wav
192,192,14085,1,0,0:0:0:40:snare.wav
448,192,14085,1,0,0:0:0:0:
64,192,14235,1,0,0:0:0:40:kick.wav
320,192,14385,128,0,14685:0:0:0:40:kick.wav
64,192,14685,1,0,0:0:0:40:snare.wav
448,192,14685,1,0,0:0:0:0:
192,192,14835,128,0,15135:0:0:0:40:kick.wav
320,192,15135,1,0,0:0:0:40:kick.wav
64,192,15285,1,0,0:0:0:40:snare.wav
192,192,15285,1,0,0:0:0:0:
448,192,15435,128,0,15735:0:0:0:40:kick.wav
192,192,15735,1,0,0:0:0:0:
64,192,15885,1,0,0:0:0:40:snare.wav
320,192,15885,1,0,0:0:0:0:
192,192,16035,128,0,16335:0:0:0:40:kick.wav
448,192,16335,1,0,0:0:0:40:kick.wav
64,192,16485,1,0,0:0:0:40:snare.wav
192,192,16485,1,0,0:0:0:0:
320,192,16635,1,0,0:0:0:40:snare.wav
448,192,16635,1,0,0:0:0:0:
64,192,16785,128,0,17085:0:0:0:50:crash.wav
192,192,16785,1,0,0:0:0:40:kick.wav
320,192,17085,1,0,0:0:0:40:snare.wav
448,192,17085,1,0,0:0:0:0:
192,192,17235,128,0,17535:0:0:0:40:kick.wav
320,192,17535,1,0,0:0:0:40:kick.wav
64,192,17685,1,0,0:0:0:40:snare.wav
192,192,17685,1,0,0:0:0:0:
448,192,17835,128,0,18135:0:0:0:40:kick.wav
192,192,18135,1,0,0:0:0:0:
64,192,18285,1,0,0:0:0:40:snare.wav
320,192,18285,1,0,0:0:0:0:
448,192,18435,1,0,0:0:0:40:kick.wav
192,192,18585,1,0,0:0:0:0:
320,192,18735,1,0,0:0:0:40:kick.wav
64,192,18885,1,0,0:0:0:40:snare.wav
448,192,18885,1,0,0:0:0:0:
192,192,19035,1,0,0:0:0:40:kick.wav
448,192,19185,128,0,19485:0:0:0:40:kick.wav
64,192,19485,1,0,0:0:0:40:snare.wav
192,192,19485,1,0,0:0:0:0:
320,192,19635,128,0,19935:0:0:0:40:kick.wav
448,192,19935,1,0,0:0:0:40:kick.wav
192,192,20085,1,0,0:0:0:40:snare.wav
320,192,20085,1,0,0:0:0:0:
64,192,20235,128,0,20985:0:0:0:40:kick.wav
448,192,20385,1,0,0:0:0:40:kick.wav
320,192,20685,1,0,0:0:0:40:snare.wav
448,192,20685,1,0,0:0:0:0:
192,192,20985,1,0,0:0:0:0:
448,192,21135,1,0,0:0:0:40:kick.wav
192,192,21285,1,0,0:0:0:40:snare.wav
64,192,21360,1,0,0:0:0:40:snare.wav
320,192,21435,1,0,0:0:0:40:snare.wav
448,192,21510,1,0,0:0:0:40:snare.wav
64,192,21585,1,0,0:0:0:50:crash.wav
192,192,21585,1,0,0:0:0:40:kick.wav
320,192,21735,1,0,0:0:0:0:
64,192,21885,1,0,0:0:0:40:snare.wav
448,192,21885,1,0,0:0:0:0:
192,192,22035,1,0,0:0:0:40:kick.wav
448,192,22185,1,0,0:0:0:0:
64,192,22485,1,0,0:0:0:40:snare.wav
192,192,22485,1,0,0:0:0:0:
320,192,22635,1,0,0:0:0:40:kick.wav
192,192,22935,1,0,0:0:0:0:
320,192,23085,1,0,0:0:0:40:snare.wav
448,192,23085,1,0,0:0:0:0:
64,192,23385,1,0,0:0:0:0:
320,192,23535,1,0,0:0:0:40:kick.wav
64,192,23685,1,0,0:0:0:40:snare.wav
192,192,23685,1,0,0:0:0:0:
448,192,23835,1,0,0:0:0:40:kick.wav
192,192,23985,1,0,0:0:0:40:kick.wav
320,192,24135,1,0,0:0:0:0:
64,192,24285,1,0,0:0:0:40:snare.wav
448,192,24285,1,0,0:0:0:0:
192,192,24435,1,0,0:0:0:40:kick.wav
448,192,24585,1,0,0:0:0:0:
64,192,24885,1,0,0:0:0:40:snare.wav
192,192,24885,1,0,0:0:0:0:
320,192,25035,1,0,0:0:0:40:kick.wav
64,192,25185,1,0,0:0:0:40:kick.wav
192,192,25335,1,0,0:0:0:40:kick.wav
320,192,25485,1,0,0:0:0:40:snare.wav
448,192,25485,1,0,0:0:0:0:
192,192,25635,1,0,0:0:0:40:kick.wav
448,192,25785,1,0,0:0:0:40:snare.wav
320,192,25935,1,0,0:0:0:40:kick.wav
64,192,26085,1,0,0:0:0:40:snare.wav
192,192,26085,1,0,0:0:0:0:
320,192,26235,1,0,0:0:0:40:snare.wav
448,192,26235,1,0,0:0:0:0:
64,192,26385,1,0,0:0:0:50:crash.wav
192,192,26385,1,0,0:0:0:40:kick.wav
320,192,26535,1,0,0:0:0:0:
64,192,26685,1,0,0:0:0:40:snare.wav
448,192,26685,1,0,0:0:0:0:
192,192,26835,1,0,0:0:0:40:kick.wav
448,192,26985,1,0,0:0:0:0:
64,192,27285,1,0,0:0:0:40:snare.wav
192,192,27285,1,0,0:0:0:0:
320,192,27435,1,0,0:0:0:40:kick.wav
192,192,27735,1,0,0:0:0:0:
320,192,27885,1,0,0:0:0:40:snare.wav
448,192,27885,1,0,0:0:0:0:
64,192,28185,1,0,0:0:0:0:
320,192,28335,1,0,0:0:0:40:kick.wav
64,192,28485,1,0,0:0:0:40:snare.wav
192,192,28485,1,0,0:0:0:0:
448,192,28635,1,0,0:0:0:40:kick.wav
192,192,28785,1,0,0:0:0:40:kick.wav
320,192,28935,1,0,0:0:0:0:
64,192,29085,1,0,0:0:0:40:snare.wav
448,192,29085,1,0,0:0:0:0:
192,192,29235,1,0,0:0:0:40:kick.wav
448,192,29385,1,0,0:0:0:0:
64,192,29685,1,0,0:0:0:40:snare.wav
192,192,29685,1,0,0:0:0:0:
320,192,29835,1,0,0:0:0:40:kick.wav
64,192,29985,1,0,0:0:0:40:kick.wav
192,192,30135,1,0,0:0:0:40:kick.wav
320,192,30285,1,0,0:0:0:40:snare.wav
448,192,30285,1,0,0:0:0:0:
192,192,30435,1,0,0:0:0:40:kick.wav
448,192,30585,1,0,0:0:0:40:snare.wav
320,192,30660,1,0,0:0:0:40:snare.wav
192,192,30735,1,0,0:0:0:40:kick.wav
64,192,30885,1,0,0:0:0:40:snare.wav
192,192,30960,1,0,0:0:0:40:snare.wav
320,192,31035,1,0,0:0:0:40:kick.wav
64,192,31185,128,0,31485:0:0:0:50:crash.wav
448,192,31185,1,0,0:0:0:40:kick.wav
320,192,31485,1,0,0:0:0:40:snare.wav
448,192,31485,1,0,0:0:0:0:
192,192,31635,128,0,31935:0:0:0:40:kick.wav
64,192,31935,1,0,0:0:0:40:kick.wav
192,192,32085,1,0,0:0:0:40:snare.wav
320,192,32085,1,0,0:0:0:0:
448,192,32235,128,0,32535:0:0:0:40:kick.wav
320,192,32535,1,0,0:0:0:0:
64,192,32685,1,0,0:0:0:40:snare.wav
192,192,32685,1,0,0:0:0:0:
448,192,32835,1,0,0:0:0:40:kick.wav
64,192,32985,1,0,0:0:0:0:
320,192,33135,1,0,0:0:0:40:kick.wav
192,192,33285,1,0,0:0:0:40:snare.wav
448,192,33285,1,0,0:0:0:0:
64,192,33435,1,0,0:0:0:40:kick.wav
320,192,33585,128,0,33885:0:0:0:40:kick.wav
64,192,33885,1,0,0:0:0:40:snare.wav
448,192,33885,1,0,0:0:0:0:
192,192,34035,128,0,34335:0:0:0:40:kick.wav
320,192,34335,1,0,0:0:0:40:kick.wav
64,192,34485,1,0,0:0:0:40:snare.wav
192,192,34485,1,0,0:0:0:0:
448,192,34635,128,0,34935:0:0:0:40:kick.wav
192,192,34935,1,0,0:0:0:0:
64,192,35085,1,0,0:0:0:40:snare.wav
320,192,35085,1,0,0:0:0:0:
192,192,35235,128,0,35535:0:0:0:40:kick.wav
448,192,35535,1,0,0:0:0:40:kick.wav
64,192,35685,1,0,0:0:0:40:snare.wav
192,192,35685,1,0,0:0:0:0:
320,192,35835,1,0,0:0:0:40:snare.wav
448,192,35835,1,0,0:0:0:0:
64,192,35985,128,0,36285:0:0:0:50:crash.wav
192,192,35985,1,0,0:0:0:40:kick.wav
320,192,36285,1,0,0:0:0:40:snare.wav
448,192,36285,1,0,0:0:0:0:
192,192,36435,128,0,36735:0:0:0:40:kick.wav
320,192,36735,1,0,0:0:0:40:kick.wav
64,192,36885,1,0,0:0:0:40:snare.wav
192,192,36885,1,0,0:0:0:0:
448,192,37035,128,0,37335:0:0:0:40:kick.wav
192,192,37335,1,0,0:0:0:0:
64,192,37485,1,0,0:0:0:40:snare.wav
320,192,37485,1,0,0:0:0:0:
448,192,37635,1,0,0:0:0:40:kick.wav
192,192,37785,1,0,0:0:0:0:
320,192,37935,1,0,0:0:0:40:kick.wav
64,192,38085,1,0,0:0:0:40:snare.wav
448,192,38085,1,0,0:0:0:0:
192,192,38235,1,0,0:0:0:40:kick.wav
448,192,38385,128,0,38685:0:0:0:40:kick.wav
64,192,38685,1,0,0:0:0:40:snare.wav
192,192,38685,1,0,0:0:0:0:
320,192,38835,128,0,39135:0:0:0:40:kick.wav
448,192,39135,1,0,0:0:0:40:kick.wav
192,192,39285,1,0,0:0:0:40:snare.wav
320,192,39285,1,0,0:0:0:0:
64,192,39435,128,0,40185:0:0:0:40:kick.wav
448,192,39585,1,0,0:0:0:40:kick.wav
320,192,39885,1,0,0:0:0:40:snare.wav
448,192,39885,1,0,0:0:0:0:
192,192,40185,1,0,0:0:0:0:
448,192,40335,1,0,0:0:0:40:kick.wav
64,192,40485,1,0,0:0:0:40:snare.wav
192,192,40560,1,0,0:0:0:40:snare.wav
448,192,40635,1,0,0:0:0:40:snare.wav
320,192,40710,1,0,0:0:0:40:snare.wav
64,192,40785,128,0,41385:0:0:0:50:crash.wav
192,192,40785,1,0,0:0:0:40:kick.wav
448,192,40935,1,0,0:0:0:40:kick.wav
448,192,41235,1,0,0:0:0:40:kick.wav
192,192,41385,1,0,0:0:0:40:snare.wav
320,192,41385,128,0,41985:0:0:0:0:
64,192,41535,1,0,0:0:0:40:kick.wav
64,192,41835,1,0,0:0:0:40:kick.wav
192,192,41985,128,0,42585:0:0:0:40:kick.wav
320,192,42135,1,0,0:0:0:40:kick.wav
320,192,42435,1,0,0:0:0:40:kick.wav
64,192,42585,1,0,0:0:0:40:snare.wav
448,192,42585,128,0,43185:0:0:0:0:
64,192,43035,1,0,0:0:0:40:kick.wav
192,192,43185,128,0,43785:0:0:0:40:kick.wav
448,192,43335,1,0,0:0:0:40:kick.wav
448,192,43635,1,0,0:0:0:40:kick.wav
64,192,43785,1,0,0:0:0:40:snare.wav
320,192,43785,128,0,44385:0:0:0:0:
192,192,43935,1,0,0:0:0:40:kick.wav
192,192,44235,1,0,0:0:0:40:kick.wav
64,192,44385,128,0,44985:0:0:0:40:kick.wav
320,192,44535,1,0,0:0:0:40:kick.wav
320,192,44835,1,0,0:0:0:40:kick.wav
192,192,44985,1,0,0:0:0:40:snare.wav
448,192,44985,1,0,0:0:0:0:
320,192,45135,1,0,0:0:0:40:kick.wav
64,192,45285,1,0,0:0:0:40:kick.wav
192,192,45435,1,0,0:0:0:40:kick.wav
64,192,45585,1,0,0:0:0:50:crash.wav
448,192,45585,128,0,46185:0:0:0:40:kick.wav
320,192,45735,1,0,0:0:0:40:kick.wav
320,192,46035,1,0,0:0:0:40:kick.wav
64,192,46185,1,0,0:0:0:40:snare.wav
192,192,46185,128,0,46785:0:0:0:0:
448,192,46335,1,0,0:0:0:40:kick.wav
448,192,46635,1,0,0:0:0:40:kick.wav
320,192,46785,128,0,47385:0:0:0:40:kick.wav
192,192,46935,1,0,0:0:0:40:kick.wav
192,192,47235,1,0,0:0:0:40:kick.wav
64,192,47385,128,0,47985:0:0:0:40:snare.wav
448,192,47385,1,0,0:0:0:0:
448,192,47835,1,0,0:0:0:40:kick.wav
320,192,47985,128,0,48585:0:0:0:40:kick.wav
64,192,48135,1,0,0:0:0:40:kick.wav
64,192,48435,1,0,0:0:0:40:kick.wav
192,192,48585,128,0,49185:0:0:0:40:snare.wav
448,192,48585,1,0,0:0:0:0:
320,192,48735,1,0,0:0:0:40:kick.wav
320,192,49035,1,0,0:0:0:40:kick.wav
448,192,49185,128,0,49785:0:0:0:40:kick.wav
64,192,49335,1,0,0:0:0:40:kick.wav
64,192,49635,1,0,0:0:0:40:kick.wav
192,192,49785,1,0,0:0:0:40:snare.wav
320,192,49785,1,0,0:0:0:0:
64,192,49935,1,0,0:0:0:40:snare.wav
192,192,50010,1,0,0:0:0:40:snare.wav
448,192,50085,1,0,0:0:0:40:snare.wav
320,192,50235,1,0,0:0:0:40:snare.wav
64,192,50385,1,0,0:0:0:50:crash.wav
192,192,50385,1,0,0:0:0:40:kick.wav
64,192,50685,1,0,0:0:0:40:kick.wav
192,192,50685,1,0,0:0:0:0:
320,192,50835,1,0,0:0:0:40:snare.wav
448,192,50835,1,0,0:0:0:0:
64,192,50985,1,0,0:0:0:40:kick.wav
320,192,51135,1,0,0:0:0:0:
64,192,51285,1,0,0:0:0:40:snare.wav
192,192,51285,1,0,0:0:0:0:
448,192,51435,128,0,51735:0:0:0:40:kick.wav
320,192,51735,128,0,52035:0:0:0:40:kick.wav
64,192,52035,1,0,0:0:0:40:snare.wav
192,192,52035,128,0,52335:0:0:0:0:
320,192,52335,1,0,0:0:0:40:kick.wav
64,192,52485,1,0,0:0:0:40:snare.wav
448,192,52485,1,0,0:0:0:0:
192,192,52635,1,0,0:0:0:40:kick.wav
320,192,52785,1,0,0:0:0:50:crash.wav
448,192,52785,1,0,0:0:0:40:snare.wav
320,192,53085,1,0,0:0:0:40:kick.wav
448,192,53085,1,0,0:0:0:0:
64,192,53235,1,0,0:0:0:40:snare.wav
192,192,53235,1,0,0:0:0:0:
448,192,53385,1,0,0:0:0:40:kick.wav
320,192,53535,1,0,0:0:0:40:kick.wav
64,192,53685,1,0,0:0:0:40:snare.wav
192,192,53685,1,0,0:0:0:0:
448,192,53835,1,0,0:0:0:40:kick.wav
192,192,53985,1,0,0:0:0:40:snare.wav
320,192,53985,1,0,0:0:0:0:
64,192,54135,128,0,54435:0:0:0:40:kick.wav
320,192,54435,1,0,0:0:0:40:snare.wav
448,192,54435,128,0,54735:0:0:0:0:
64,192,54735,1,0,0:0:0:40:kick.wav
192,192,54885,1,0,0:0:0:40:snare.wav
320,192,54960,1,0,0:0:0:40:snare.wav
448,192,55035,1,0,0:0:0:40:kick.wav
192,192,55185,1,0,0:0:0:50:crash.wav
320,192,55185,1,0,0:0:0:40:kick.wav
192,192,55485,1,0,0:0:0:40:kick.wav
320,192,55485,1,0,0:0:0:0:
64,192,55635,1,0,0:0:0:40:snare.wav
448,192,55635,1,0,0:0:0:0:
320,192,55785,1,0,0:0:0:40:kick.wav
192,192,55935,1,0,0:0:0:0:
64,192,56085,1,0,0:0:0:40:snare.wav
320,192,56085,1,0,0:0:0:0:
448,192,56235,128,0,56535:0:0:0:40:kick.wav
192,192,56535,128,0,56835:0:0:0:70:floor tom.wav
64,192,56835,1,0,0:0:0:40:snare.wav
320,192,56835,128,0,57135:0:0:0:0:
64,192,57135,1,0,0:0:0:40:kick.wav
192,192,57285,1,0,0:0:0:40:snare.wav
448,192,57285,1,0,0:0:0:0:
320,192,57435,1,0,0:0:0:40:kick.wav
64,192,57585,1,0,0:0:0:50:crash.wav
448,192,57585,1,0,0:0:0:40:snare.wav
64,192,57885,1,0,0:0:0:40:kick.wav
448,192,57885,1,0,0:0:0:0:
192,192,58035,1,0,0:0:0:40:snare.wav
320,192,58035,1,0,0:0:0:0:
64,192,58185,1,0,0:0:0:40:kick.wav
320,192,58335,1,0,0:0:0:70:hi tom.wav
64,192,58485,1,0,0:0:0:40:snare.wav
192,192,58485,1,0,0:0:0:0:
320,192,58635,1,0,0:0:0:40:kick.wav
64,192,58785,1,0,0:0:0:40:snare.wav
448,192,58785,1,0,0:0:0:0:
192,192,58935,128,0,59235:0:0:0:40:kick.wav
320,192,59235,128,0,59535:0:0:0:40:snare.wav
448,192,59235,1,0,0:0:0:0:
192,192,59535,1,0,0:0:0:40:kick.wav
64,192,59685,1,0,0:0:0:40:snare.wav
448,192,59685,1,0,0:0:0:0:
192,192,59835,1,0,0:0:0:40:snare.wav
320,192,59835,1,0,0:0:0:0:
64,192,59985,128,0,60285:0:0:0:50:crash.wav
448,192,59985,1,0,0:0:0:40:kick.wav
192,192,60285,128,0,60585:0:0:0:40:snare.wav
448,192,60285,1,0,0:0:0:0:
320,192,60585,1,0,0:0:0:40:kick.wav
64,192,60735,1,0,0:0:0:40:kick.wav
192,192,60885,1,0,0:0:0:40:snare.wav
320,192,60885,1,0,0:0:0:0:
448,192,61035,128,0,61335:0:0:0:40:kick.wav
192,192,61335,1,0,0:0:0:40:kick.wav
64,192,61485,1,0,0:0:0:40:snare.wav
320,192,61485,1,0,0:0:0:0:
192,192,61635,128,0,61935:0:0:0:40:kick.wav
320,192,61935,1,0,0:0:0:40:kick.wav
64,192,62085,1,0,0:0:0:40:snare.wav
448,192,62085,1,0,0:0:0:0:
320,192,62235,1,0,0:0:0:40:kick.wav
192,192,62385,128,0,62685:0:0:0:50:crash.wav
320,192,62685,128,0,62985:0:0:0:40:snare.wav
448,192,62685,1,0,0:0:0:0:
64,192,62985,1,0,0:0:0:40:kick.wav
448,192,63135,1,0,0:0:0:40:kick.wav
64,192,63285,1,0,0:0:0:40:snare.wav
192,192,63285,1,0,0:0:0:0:
320,192,63435,128,0,63735:0:0:0:40:kick.wav
192,192,63735,1,0,0:0:0:40:kick.wav
64,192,63885,1,0,0:0:0:40:snare.wav
448,192,63885,1,0,0:0:0:0:
192,192,64035,128,0,64335:0:0:0:40:kick.wav
320,192,64335,1,0,0:0:0:40:kick.wav
64,192,64485,1,0,0:0:0:40:kick.wav
448,192,64485,1,0,0:0:0:40:snare.wav
192,192,64635,1,0,0:0:0:40:kick.wav
320,192,64785,128,0,65085:0:0:0:50:crash.wav
448,192,64785,1,0,0:0:0:40:kick.wav
64,192,65085,1,0,0:0:0:40:snare.wav
192,192,65085,128,0,65385:0:0:0:0:
448,192,65385,1,0,0:0:0:40:kick.wav
320,192,65535,1,0,0:0:0:40:kick.wav
64,192,65685,1,0,0:0:0:40:snare.wav
192,192,65685,1,0,0:0:0:0:
448,192,65835,128,0,66135:0:0:0:40:kick.wav
192,192,66135,1,0,0:0:0:40:kick.wav
64,192,66285,1,0,0:0:0:40:snare.wav
320,192,66285,1,0,0:0:0:0:
192,192,66435,128,0,66735:0:0:0:40:kick.wav
320,192,66735,1,0,0:0:0:40:kick.wav
64,192,66885,1,0,0:0:0:40:snare.wav
448,192,66885,1,0,0:0:0:0:
192,192,67035,1,0,0:0:0:40:kick.wav
448,192,67185,128,0,67485:0:0:0:50:crash.wav
192,192,67485,1,0,0:0:0:40:snare.wav
320,192,67485,128,0,67785:0:0:0:0:
64,192,67785,1,0,0:0:0:40:kick.wav
192,192,67935,1,0,0:0:0:40:kick.wav
64,192,68085,1,0,0:0:0:40:snare.wav
448,192,68085,1,0,0:0:0:0:
320,192,68235,128,0,68535:0:0:0:40:kick.wav
192,192,68535,1,0,0:0:0:40:kick.wav
64,192,68685,1,0,0:0:0:40:snare.wav
448,192,68685,1,0,0:0:0:0:
320,192,68835,128,0,69135:0:0:0:40:kick.wav
192,192,69135,1,0,0:0:0:40:kick.wav
64,192,69285,1,0,0:0:0:40:kick.wav
448,192,69285,1,0,0:0:0:40:snare.wav
64,192,69585,128,0,69885:0:0:0:50:crash.wav
448,192,69585,1,0,0:0:0:40:kick.wav
192,192,69885,128,0,70185:0:0:0:40:snare.wav
448,192,69885,1,0,0:0:0:0:
320,192,70185,1,0,0:0:0:40:kick.wav
64,192,70335,1,0,0:0:0:40:kick.wav
192,192,70485,1,0,0:0:0:40:snare.wav
320,192,70485,1,0,0:0:0:0:
448,192,70635,128,0,70935:0:0:0:40:kick.wav
192,192,70935,1,0,0:0:0:40:kick.wav
64,192,71085,1,0,0:0:0:40:snare.wav
320,192,71085,1,0,0:0:0:0:
192,192,71235,128,0,71535:0:0:0:40:kick.wav
320,192,71535,1,0,0:0:0:40:kick.wav
64,192,71685,1,0,0:0:0:40:snare.wav
448,192,71685,1,0,0:0:0:0:
320,192,71835,1,0,0:0:0:40:kick.wav
64,192,71985,1,0,0:0:0:50:crash.wav
192,192,71985,128,0,72285:0:0:0:40:kick.wav
320,192,72285,128,0,72585:0:0:0:40:snare.wav
448,192,72285,1,0,0:0:0:0:
64,192,72585,1,0,0:0:0:40:kick.wav
448,192,72735,1,0,0:0:0:40:kick.wav
64,192,72885,1,0,0:0:0:40:snare.wav
192,192,72885,1,0,0:0:0:0:
320,192,73035,128,0,73335:0:0:0:40:kick.wav
192,192,73335,1,0,0:0:0:40:kick.wav
64,192,73485,1,0,0:0:0:40:snare.wav
448,192,73485,1,0,0:0:0:0:
192,192,73635,128,0,73935:0:0:0:40:kick.wav
320,192,73935,1,0,0:0:0:40:kick.wav
64,192,74085,1,0,0:0:0:40:kick.wav
448,192,74085,1,0,0:0:0:40:snare.wav
192,192,74235,1,0,0:0:0:40:kick.wav
320,192,74385,128,0,74685:0:0:0:50:crash.wav
448,192,74385,1,0,0:0:0:40:snare.wav
64,192,74685,128,0,74985:0:0:0:40:snare.wav
192,192,74685,1,0,0:0:0:0:
320,192,74985,1,0,0:0:0:40:snare.wav
192,192,75135,1,0,0:0:0:40:kick.wav
64,192,75285,1,0,0:0:0:40:snare.wav
448,192,75435,128,0,75735:0:0:0:40:kick.wav
64,192,75585,1,0,0:0:0:40:snare.wav
192,192,75735,128,0,76035:0:0:0:40:kick.wav
320,192,75885,1,0,0:0:0:40:snare.wav
64,192,76035,128,0,76335:0:0:0:40:kick.wav
320,192,76185,1,0,0:0:0:40:kick.wav
448,192,76335,128,0,76785:0:0:0:40:kick.wav
192,192,76485,1,0,0:0:0:40:kick.wav
64,192,76785,128,0,77085:0:0:0:50:crash.wav
192,192,76785,1,0,0:0:0:40:snare.wav
320,192,77085,128,0,77385:0:0:0:40:snare.wav
448,192,77085,1,0,0:0:0:0:
64,192,77385,1,0,0:0:0:40:snare.wav
192,192,77535,1,0,0:0:0:40:kick.wav
320,192,77685,1,0,0:0:0:40:kick.wav
448,192,77835,128,0,78135:0:0:0:40:kick.wav
192,192,77985,1,0,0:0:0:50:crash.wav
64,192,78135,128,0,78435:0:0:0:0:
320,192,78435,128,0,78735:0:0:0:0:
192,192,78735,1,0,0:0:0:0:
320,192,78885,1,0,0:0:0:40:snare.wav
448,192,78885,1,0,0:0:0:0:
64,192,79035,1,0,0:0:0:40:snare.wav
192,192,79035,1,0,0:0:0:0:
320,192,79185,1,0,0:0:0:50:crash.wav
448,192,79185,1,0,0:0:0:40:kick.wav
320,192,79485,1,0,0:0:0:40:kick.wav
448,192,79485,1,0,0:0:0:0:
64,192,79785,1,0,0:0:0:40:snare.wav
192,192,79785,1,0,0:0:0:0:
448,192,79935,1,0,0:0:0:40:kick.wav
192,192,80085,1,0,0:0:0:0:
320,192,80235,1,0,0:0:0:40:snare.wav
448,192,80235,1,0,0:0:0:0:
64,192,80385,1,0,0:0:0:40:kick.wav
192,192,80385,1,0,0:0:0:0:
64,192,80685,1,0,0:0:0:40:kick.wav
192,192,80685,1,0,0:0:0:0:
320,192,80985,1,0,0:0:0:40:snare.wav
448,192,80985,1,0,0:0:0:0:
64,192,81135,1,0,0:0:0:40:kick.wav
320,192,81285,1,0,0:0:0:0:
64,192,81435,1,0,0:0:0:40:snare.wav
448,192,81435,1,0,0:0:0:0:
192,192,81585,1,0,0:0:0:40:kick.wav
320,192,81585,1,0,0:0:0:0:
192,192,81885,1,0,0:0:0:40:kick.wav
320,192,81885,1,0,0:0:0:0:
64,192,82185,1,0,0:0:0:40:snare.wav
448,192,82185,1,0,0:0:0:0:
192,192,82335,1,0,0:0:0:40:kick.wav
448,192,82485,1,0,0:0:0:0:
192,192,82635,1,0,0:0:0:40:snare.wav
320,192,82635,1,0,0:0:0:0:
64,192,82785,1,0,0:0:0:40:kick.wav
448,192,82785,1,0,0:0:0:0:
64,192,83085,1,0,0:0:0:40:kick.wav
448,192,83085,1,0,0:0:0:0:
64,192,83385,1,0,0:0:0:40:snare.wav
192,192,83385,1,0,0:0:0:0:
320,192,83535,1,0,0:0:0:40:snare.wav
64,192,83685,1,0,0:0:0:40:snare.wav
448,192,83685,1,0,0:0:0:0:
192,192,83835,1,0,0:0:0:40:snare.wav
320,192,83985,128,0,84585:0:0:0:50:crash.wav
448,192,83985,1,0,0:0:0:40:kick.wav
64,192,84285,1,0,0:0:0:40:snare.wav
192,192,84285,1,0,0:0:0:0:
192,192,84585,1,0,0:0:0:40:kick.wav
448,192,84735,1,0,0:0:0:40:kick.wav
64,192,84885,1,0,0:0:0:40:snare.wav
192,192,84885,1,0,0:0:0:0:
320,192,85035,1,0,0:0:0:40:kick.wav
448,192,85185,128,0,85485:0:0:0:40:kick.wav
64,192,85485,1,0,0:0:0:40:snare.wav
192,192,85485,128,0,85785:0:0:0:0:
448,192,85785,1,0,0:0:0:0:
320,192,85935,1,0,0:0:0:40:kick.wav
64,192,86085,1,0,0:0:0:40:snare.wav
448,192,86085,1,0,0:0:0:0:
192,192,86235,1,0,0:0:0:40:kick.wav
448,192,86385,128,0,86685:0:0:0:40:kick.wav
64,192,86685,128,0,86985:0:0:0:40:snare.wav
192,192,86685,1,0,0:0:0:0:
320,192,86985,1,0,0:0:0:40:kick.wav
192,192,87135,1,0,0:0:0:40:kick.wav
64,192,87285,1,0,0:0:0:40:snare.wav
448,192,87285,1,0,0:0:0:0:
320,192,87435,1,0,0:0:0:40:kick.wav
448,192,87585,128,0,87885:0:0:0:40:kick.wav
64,192,87885,1,0,0:0:0:40:snare.wav
192,192,87885,128,0,88185:0:0:0:0:
320,192,88185,1,0,0:0:0:0:
64,192,88335,1,0,0:0:0:40:kick.wav
448,192,88485,1,0,0:0:0:40:snare.wav
320,192,88560,1,0,0:0:0:40:snare.wav
192,192,88635,1,0,0:0:0:40:snare.wav
64,192,88710,1,0,0:0:0:40:snare.wav
448,192,88785,128,0,89385:0:0:0:40:kick.wav
64,192,89085,1,0,0:0:0:40:kick.wav
192,192,89085,1,0,0:0:0:40:snare.wav
320,192,89385,1,0,0:0:0:40:kick.wav
192,192,89535,1,0,0:0:0:40:kick.wav
64,192,89685,1,0,0:0:0:40:kick.wav
320,192,89685,1,0,0:0:0:40:snare.wav
448,192,89835,1,0,0:0:0:40:kick.wav
192,192,89985,128,0,90285:0:0:0:40:kick.wav
320,192,90285,128,0,90585:0:0:0:40:kick.wav
448,192,90285,1,0,0:0:0:40:snare.wav
64,192,90585,128,0,90885:0:0:0:40:kick.wav
320,192,90885,1,0,0:0:0:40:kick.wav
448,192,90885,1,0,0:0:0:40:snare.wav
192,192,91035,1,0,0:0:0:40:kick.wav
64,192,91185,128,0,91485:0:0:0:40:kick.wav
320,192,91485,1,0,0:0:0:40:snare.wav
448,192,91485,128,0,91785:0:0:0:0:
64,192,91785,1,0,0:0:0:40:kick.wav
320,192,91935,1,0,0:0:0:40:kick.wav
64,192,92085,1,0,0:0:0:40:snare.wav
448,192,92085,1,0,0:0:0:0:
192,192,92235,1,0,0:0:0:40:kick.wav
448,192,92385,128,0,92685:0:0:0:40:kick.wav
64,192,92685,1,0,0:0:0:40:snare.wav
192,192,92685,128,0,92985:0:0:0:0:
320,192,92985,1,0,0:0:0:40:kick.wav
192,192,93135,1,0,0:0:0:40:kick.wav
448,192,93285,1,0,0:0:0:40:snare.wav
64,192,93360,1,0,0:0:0:40:snare.wav
192,192,93435,1,0,0:0:0:40:snare.wav
320,192,93510,1,0,0:0:0:40:snare.wav
64,192,93585,128,0,93885:0:0:0:50:crash.wav
448,192,93585,1,0,0:0:0:40:kick.wav
320,192,93885,1,0,0:0:0:40:snare.wav
448,192,93885,1,0,0:0:0:0:
192,192,94035,128,0,94335:0:0:0:40:kick.wav
64,192,94335,1,0,0:0:0:40:kick.wav
192,192,94485,1,0,0:0:0:40:snare.wav
320,192,94485,1,0,0:0:0:0:
448,192,94635,128,0,94935:0:0:0:0:
64,192,94935,1,0,0:0:0:40:kick.wav
192,192,95085,1,0,0:0:0:40:snare.wav
448,192,95085,1,0,0:0:0:0:
320,192,95235,1,0,0:0:0:40:kick.wav
192,192,95385,1,0,0:0:0:40:kick.wav
448,192,95535,1,0,0:0:0:40:kick.wav
64,192,95685,1,0,0:0:0:40:snare.wav
320,192,95685,1,0,0:0:0:0:
192,192,95835,1,0,0:0:0:40:kick.wav
320,192,95985,128,0,96285:0:0:0:40:kick.wav
64,192,96285,1,0,0:0:0:40:snare.wav
448,192,96285,1,0,0:0:0:0:
192,192,96435,128,0,96735:0:0:0:40:kick.wav
320,192,96735,1,0,0:0:0:40:kick.wav
64,192,96885,1,0,0:0:0:40:snare.wav
192,192,96885,1,0,0:0:0:0:
448,192,97035,128,0,97335:0:0:0:0:
192,192,97335,1,0,0:0:0:40:kick.wav
64,192,97485,1,0,0:0:0:40:snare.wav
448,192,97485,1,0,0:0:0:0:
320,192,97635,128,0,97935:0:0:0:40:kick.wav
448,192,97935,1,0,0:0:0:40:kick.wav
64,192,98085,1,0,0:0:0:40:snare.wav
192,192,98085,1,0,0:0:0:0:
320,192,98235,1,0,0:0:0:40:snare.wav
448,192,98235,1,0,0:0:0:0:
64,192,98385,128,0,98685:0:0:0:40:kick.wav
320,192,98685,1,0,0:0:0:40:snare.wav
448,192,98685,1,0,0:0:0:0:
192,192,98835,128,0,99135:0:0:0:40:kick.wav
64,192,99135,1,0,0:0:0:40:kick.wav
192,192,99285,1,0,0:0:0:40:snare.wav
320,192,99285,1,0,0:0:0:0:
448,192,99435,128,0,99735:0:0:0:0:
192,192,99735,1,0,0:0:0:40:kick.wav
64,192,99885,1,0,0:0:0:40:snare.wav
320,192,99885,1,0,0:0:0:0:
448,192,100035,1,0,0:0:0:40:kick.wav
192,192,100185,1,0,0:0:0:40:kick.wav
320,192,100335,1,0,0:0:0:40:kick.wav
192,192,100485,1,0,0:0:0:40:snare.wav
448,192,100485,1,0,0:0:0:0:
64,192,100635,1,0,0:0:0:40:kick.wav
320,192,100785,128,0,101085:0:0:0:40:kick.wav
192,192,101085,1,0,0:0:0:40:snare.wav
448,192,101085,1,0,0:0:0:0:
64,192,101235,128,0,101535:0:0:0:40:kick.wav
192,192,101535,1,0,0:0:0:40:kick.wav
64,192,101685,1,0,0:0:0:40:snare.wav
320,192,101685,1,0,0:0:0:0:
448,192,101835,128,0,102135:0:0:0:0:
192,192,102135,1,0,0:0:0:40:kick.wav
64,192,102285,1,0,0:0:0:40:snare.wav
320,192,102285,1,0,0:0:0:0:
448,192,102435,1,0,0:0:0:40:kick.wav
192,192,102585,1,0,0:0:0:40:kick.wav
320,192,102735,1,0,0:0:0:40:kick.wav
64,192,102885,1,0,0:0:0:40:snare.wav
192,192,102960,1,0,0:0:0:40:snare.wav
448,192,103035,1,0,0:0:0:40:snare.wav
320,192,103110,1,0,0:0:0:40:snare.wav
64,192,103185,128,0,103485:0:0:0:50:crash.wav
192,192,103185,1,0,0:0:0:40:kick.wav
320,192,103485,1,0,0:0:0:0:
192,192,103635,1,0,0:0:0:40:kick.wav
320,192,103785,1,0,0:0:0:40:snare.wav
448,192,103785,1,0,0:0:0:0:
64,192,103935,1,0,0:0:0:40:kick.wav
192,192,104085,1,0,0:0:0:0:
448,192,104235,128,0,104535:0:0:0:0:
64,192,104535,1,0,0:0:0:40:kick.wav
192,192,104685,1,0,0:0:0:0:
320,192,104835,1,0,0:0:0:40:kick.wav
64,192,104985,1,0,0:0:0:40:snare.wav
192,192,104985,1,0,0:0:0:0:
448,192,105135,1,0,0:0:0:40:kick.wav
320,192,105285,1,0,0:0:0:0:
192,192,105435,1,0,0:0:0:40:kick.wav
320,192,105585,128,0,105885:0:0:0:40:kick.wav
448,192,105885,1,0,0:0:0:0:
192,192,106035,1,0,0:0:0:40:kick.wav
64,192,106185,1,0,0:0:0:40:snare.wav
448,192,106185,1,0,0:0:0:0:
320,192,106335,1,0,0:0:0:40:kick.wav
192,192,106485,1,0,0:0:0:0:
448,192,106635,128,0,106935:0:0:0:0:
192,192,106935,128,0,107235:0:0:0:40:kick.wav
320,192,107235,1,0,0:0:0:40:kick.wav
64,192,107385,1,0,0:0:0:40:snare.wav
448,192,107385,1,0,0:0:0:0:
320,192,107535,1,0,0:0:0:40:kick.wav
64,192,107685,1,0,0:0:0:40:snare.wav
192,192,107685,1,0,0:0:0:0:
320,192,107835,1,0,0:0:0:40:snare.wav
448,192,107835,1,0,0:0:0:0:
64,192,107985,128,0,108285:0:0:0:40:kick.wav
320,192,108285,1,0,0:0:0:0:
192,192,108435,1,0,0:0:0:40:kick.wav
320,192,108585,1,0,0:0:0:40:snare.wav
448,192,108585,1,0,0:0:0:0:
64,192,108735,1,0,0:0:0:40:kick.wav
192,192,108885,1,0,0:0:0:0:
448,192,109035,128,0,109335:0:0:0:0:
192,192,109335,1,0,0:0:0:40:kick.wav
64,192,109485,1,0,0:0:0:0:
448,192,109635,1,0,0:0:0:40:kick.wav
64,192,109785,1,0,0:0:0:40:snare.wav
192,192,109785,1,0,0:0:0:0:
320,192,109935,1,0,0:0:0:40:kick.wav
448,192,110085,1,0,0:0:0:0:
64,192,110235,1,0,0:0:0:40:kick.wav
320,192,110385,128,0,110685:0:0:0:40:kick.wav
448,192,110685,1,0,0:0:0:0:
192,192,110835,1,0,0:0:0:40:kick.wav
64,192,110985,1,0,0:0:0:40:snare.wav
448,192,110985,1,0,0:0:0:0:
192,192,111135,1,0,0:0:0:40:kick.wav
320,192,111285,1,0,0:0:0:0:
448,192,111435,128,0,111885:0:0:0:0:
192,192,111885,1,0,0:0:0:0:
64,192,112035,1,0,0:0:0:40:snare.wav
320,192,112185,1,0,0:0:0:40:snare.wav
448,192,112185,1,0,0:0:0:0:
192,192,112335,1,0,0:0:0:40:snare.wav
64,192,112485,1,0,0:0:0:40:snare.wav
448,192,112485,1,0,0:0:0:0:
320,192,112635,1,0,0:0:0:40:snare.wav
64,192,112785,1,0,0:0:0:50:crash.wav
192,192,112785,128,0,115185:0:0:0:40:kick.wav
320,192,115185,128,0,117585:0:0:0:40:kick.wav
64,192,115335,1,0,0:0:0:40:kick.wav
192,192,116385,1,0,0:0:0:40:kick.wav
192,192,116985,1,0,0:0:0:40:kick.wav
64,192,117585,1,0,0:0:0:50:crash.wav
448,192,117585,1,0,0:0:0:40:kick.wav
64,192,117885,1,0,0:0:0:0:
64,192,118185,1,0,0:0:0:0:
64,192,118485,1,0,0:0:0:0:
448,192,118785,1,0,0:0:0:0:
448,192,119085,1,0,0:0:0:0:
448,192,119385,1,0,0:0:0:0:
448,192,119685,1,0,0:0:0:0:
192,192,119985,1,0,0:0:0:40:kick.wav
192,192,120285,1,0,0:0:0:0:
192,192,120585,1,0,0:0:0:0:
192,192,120885,1,0,0:0:0:0:
192,192,121185,1,0,0:0:0:40:kick.wav
192,192,121485,1,0,0:0:0:0:
320,192,121785,1,0,0:0:0:40:kick.wav
320,192,122085,1,0,0:0:0:0:
64,192,122385,1,0,0:0:0:50:crash.wav
192,192,122385,1,0,0:0:0:40:kick.wav
64,192,122685,1,0,0:0:0:0:
64,192,122985,1,0,0:0:0:0:
64,192,123285,1,0,0:0:0:0:
320,192,123585,1,0,0:0:0:0:
320,192,123885,1,0,0:0:0:0:
320,192,124185,1,0,0:0:0:0:
320,192,124485,1,0,0:0:0:0:
192,192,124785,1,0,0:0:0:40:kick.wav
192,192,125085,1,0,0:0:0:0:
192,192,125385,1,0,0:0:0:0:
192,192,125685,1,0,0:0:0:0:
320,192,125985,1,0,0:0:0:40:kick.wav
320,192,126285,1,0,0:0:0:0:
448,192,126585,1,0,0:0:0:40:kick.wav
448,192,126885,1,0,0:0:0:0:
64,192,127185,1,0,0:0:0:50:crash.wav
192,192,127185,1,0,0:0:0:40:kick.wav
64,192,127485,1,0,0:0:0:40:kick.wav
64,192,127785,1,0,0:0:0:40:snare.wav
320,192,127785,1,0,0:0:0:0:
64,192,128085,1,0,0:0:0:40:kick.wav
448,192,128385,1,0,0:0:0:40:kick.wav
448,192,128685,1,0,0:0:0:40:kick.wav
192,192,128985,1,0,0:0:0:40:snare.wav
448,192,128985,1,0,0:0:0:0:
448,192,129285,1,0,0:0:0:40:kick.wav
192,192,129585,1,0,0:0:0:40:kick.wav
192,192,129885,1,0,0:0:0:40:kick.wav
192,192,130185,1,0,0:0:0:40:snare.wav
320,192,130185,1,0,0:0:0:0:
192,192,130485,1,0,0:0:0:40:kick.wav
448,192,130785,1,0,0:0:0:40:kick.wav
448,192,131085,1,0,0:0:0:70:floor tom.wav
64,192,131385,1,0,0:0:0:40:snare.wav
320,192,131385,1,0,0:0:0:70:floor tom.wav
320,192,131685,1,0,0:0:0:70:floor tom.wav
64,192,131985,1,0,0:0:0:50:crash.wav
192,192,131985,1,0,0:0:0:40:kick.wav
64,192,132285,1,0,0:0:0:40:kick.wav
64,192,132585,1,0,0:0:0:40:snare.wav
448,192,132585,1,0,0:0:0:0:
64,192,132885,1,0,0:0:0:40:kick.wav
320,192,133185,1,0,0:0:0:40:kick.wav
320,192,133485,1,0,0:0:0:40:kick.wav
64,192,133785,1,0,0:0:0:40:snare.wav
320,192,133785,1,0,0:0:0:0:
320,192,134085,1,0,0:0:0:40:kick.wav
192,192,134385,1,0,0:0:0:40:kick.wav
192,192,134685,1,0,0:0:0:40:kick.wav
192,192,134985,1,0,0:0:0:40:kick.wav
448,192,134985,1,0,0:0:0:40:snare.wav
192,192,135285,1,0,0:0:0:40:kick.wav
320,192,135585,1,0,0:0:0:40:kick.wav
320,192,135885,1,0,0:0:0:40:kick.wav
64,192,136185,1,0,0:0:0:40:kick.wav
448,192,136185,1,0,0:0:0:40:snare.wav
64,192,136485,1,0,0:0:0:40:kick.wav
448,192,136485,1,0,0:0:0:40:snare.wav
64,192,136785,128,0,137085:0:0:0:50:crash.wav
320,192,136785,1,0,0:0:0:40:kick.wav
448,192,136935,1,0,0:0:0:40:kick.wav
192,192,137085,1,0,0:0:0:0:
448,192,137235,1,0,0:0:0:40:kick.wav
64,192,137385,1,0,0:0:0:40:snare.wav
320,192,137385,128,0,138285:0:0:0:0:
64,192,137835,1,0,0:0:0:40:kick.wav
192,192,137985,1,0,0:0:0:40:kick.wav
192,192,138285,1,0,0:0:0:40:kick.wav
64,192,138585,1,0,0:0:0:40:snare.wav
448,192,138585,128,0,138885:0:0:0:0:
192,192,138885,1,0,0:0:0:0:
192,192,139035,1,0,0:0:0:40:kick.wav
64,192,139185,128,0,139485:0:0:0:40:kick.wav
448,192,139335,1,0,0:0:0:40:kick.wav
320,192,139485,128,0,139785:0:0:0:0:
448,192,139635,1,0,0:0:0:40:kick.wav
64,192,139785,1,0,0:0:0:40:snare.wav
192,192,139785,128,0,140085:0:0:0:0:
448,192,140085,128,0,140385:0:0:0:0:
64,192,140235,1,0,0:0:0:40:kick.wav
320,192,140385,128,0,140685:0:0:0:40:kick.wav
448,192,140685,128,0,140985:0:0:0:40:kick.wav
64,192,140835,1,0,0:0:0:40:kick.wav
192,192,140985,1,0,0:0:0:40:snare.wav
320,192,140985,1,0,0:0:0:0:
64,192,141135,1,0,0:0:0:40:kick.wav
448,192,141285,1,0,0:0:0:40:kick.wav
192,192,141435,1,0,0:0:0:40:kick.wav
320,192,141585,128,0,142185:0:0:0:50:crash.wav
448,192,141585,1,0,0:0:0:40:kick.wav
192,192,141735,1,0,0:0:0:40:kick.wav
192,192,142035,1,0,0:0:0:40:kick.wav
64,192,142185,1,0,0:0:0:40:snare.wav
448,192,142185,128,0,142485:0:0:0:0:
192,192,142485,128,0,142785:0:0:0:0:
64,192,142635,1,0,0:0:0:40:kick.wav
320,192,142785,128,0,143385:0:0:0:40:kick.wav
64,192,143085,1,0,0:0:0:40:kick.wav
192,192,143385,1,0,0:0:0:40:snare.wav
448,192,143385,128,0,143685:0:0:0:0:
320,192,143535,1,0,0:0:0:40:kick.wav
192,192,143685,128,0,143985:0:0:0:0:
448,192,143835,1,0,0:0:0:40:kick.wav
64,192,143985,128,0,145185:0:0:0:40:kick.wav
320,192,144135,1,0,0:0:0:40:kick.wav
192,192,144435,1,0,0:0:0:40:kick.wav
320,192,144585,1,0,0:0:0:40:snare.wav
448,192,144585,1,0,0:0:0:0:
192,192,145035,1,0,0:0:0:40:kick.wav
448,192,145185,128,0,145785:0:0:0:40:kick.wav
192,192,145485,1,0,0:0:0:40:kick.wav
64,192,145785,1,0,0:0:0:40:snare.wav
320,192,145785,1,0,0:0:0:0:
192,192,145935,1,0,0:0:0:40:kick.wav
448,192,146085,1,0,0:0:0:40:kick.wav
64,192,146235,1,0,0:0:0:40:kick.wav
192,192,146385,128,0,146685:0:0:0:50:crash.wav
448,192,146385,1,0,0:0:0:40:kick.wav
64,192,146535,1,0,0:0:0:40:kick.wav
320,192,146685,1,0,0:0:0:0:
448,192,146835,1,0,0:0:0:40:kick.wav
64,192,146985,1,0,0:0:0:40:snare.wav
320,192,146985,128,0,147885:0:0:0:0:
64,192,147435,1,0,0:0:0:40:kick.wav
192,192,147585,1,0,0:0:0:40:kick.wav
192,192,147885,1,0,0:0:0:40:kick.wav
64,192,148185,128,0,148485:0:0:0:40:snare.wav
448,192,148185,1,0,0:0:0:0:
192,192,148485,1,0,0:0:0:0:
320,192,148635,1,0,0:0:0:40:kick.wav
448,192,148785,128,0,149085:0:0:0:40:kick.wav
64,192,148935,1,0,0:0:0:40:kick.wav
320,192,149085,128,0,149685:0:0:0:0:
192,192,149235,1,0,0:0:0:40:kick.wav
64,192,149385,1,0,0:0:0:40:snare.wav
448,192,149385,1,0,0:0:0:0:
192,192,149685,128,0,150285:0:0:0:0:
448,192,149835,1,0,0:0:0:40:kick.wav
320,192,149985,1,0,0:0:0:40:kick.wav
64,192,150285,128,0,150585:0:0:0:40:kick.wav
192,192,150435,1,0,0:0:0:40:kick.wav
320,192,150585,1,0,0:0:0:40:snare.wav
448,192,150585,1,0,0:0:0:0:
64,192,150735,1,0,0:0:0:40:kick.wav
320,192,150885,128,0,151185:0:0:0:40:kick.wav
192,192,151035,1,0,0:0:0:40:kick.wav
64,192,151185,1,0,0:0:0:50:crash.wav
448,192,151185,128,0,152385:0:0:0:40:kick.wav
192,192,151335,1,0,0:0:0:40:kick.wav
320,192,151635,1,0,0:0:0:40:kick.wav
64,192,151785,1,0,0:0:0:40:snare.wav
192,192,151785,1,0,0:0:0:0:
64,192,152235,1,0,0:0:0:40:kick.wav
192,192,152385,128,0,152985:0:0:0:40:kick.wav
320,192,152685,1,0,0:0:0:40:kick.wav
320,192,152985,128,0,153585:0:0:0:40:snare.wav
448,192,152985,1,0,0:0:0:0:
64,192,153135,1,0,0:0:0:40:kick.wav
64,192,153435,1,0,0:0:0:40:kick.wav
448,192,153585,128,0,154185:0:0:0:40:kick.wav
192,192,153735,1,0,0:0:0:40:kick.wav
192,192,154035,1,0,0:0:0:40:kick.wav
64,192,154185,1,0,0:0:0:40:snare.wav
320,192,154185,128,0,154485:0:0:0:0:
192,192,154485,128,0,154785:0:0:0:0:
448,192,154635,1,0,0:0:0:40:kick.wav
64,192,154785,128,0,155085:0:0:0:40:kick.wav
320,192,155085,128,0,155385:0:0:0:40:kick.wav
192,192,155235,1,0,0:0:0:40:kick.wav
64,192,155385,1,0,0:0:0:40:snare.wav
448,192,155385,1,0,0:0:0:0:
192,192,155535,1,0,0:0:0:40:kick.wav
320,192,155685,1,0,0:0:0:40:kick.wav
192,192,155835,1,0,0:0:0:40:kick.wav
64,192,155985,128,0,156285:0:0:0:50:crash.wav
448,192,155985,1,0,0:0:0:40:kick.wav
320,192,156285,1,0,0:0:0:40:snare.wav
448,192,156285,1,0,0:0:0:0:
192,192,156435,1,0,0:0:0:40:kick.wav
320,192,156585,128,0,157485:0:0:0:0:
448,192,156735,1,0,0:0:0:40:kick.wav
64,192,156885,1,0,0:0:0:40:snare.wav
192,192,156885,1,0,0:0:0:0:
448,192,157035,1,0,0:0:0:40:kick.wav
192,192,157185,1,0,0:0:0:40:kick.wav
64,192,157485,1,0,0:0:0:40:snare.wav
192,192,157485,1,0,0:0:0:0:
448,192,157635,1,0,0:0:0:40:kick.wav
64,192,157785,1,0,0:0:0:0:
320,192,157935,1,0,0:0:0:40:kick.wav
192,192,158085,1,0,0:0:0:40:snare.wav
448,192,158085,1,0,0:0:0:0:
192,192,158235,1,0,0:0:0:40:kick.wav
64,192,158385,128,0,158685:0:0:0:40:kick.wav
320,192,158685,128,0,158985:0:0:0:40:snare.wav
448,192,158685,1,0,0:0:0:0:
64,192,158835,1,0,0:0:0:40:kick.wav
192,192,158985,128,0,159285:0:0:0:0:
320,192,159135,1,0,0:0:0:40:kick.wav
64,192,159285,1,0,0:0:0:40:snare.wav
448,192,159285,128,0,159585:0:0:0:0:
320,192,159435,1,0,0:0:0:40:kick.wav
192,192,159585,1,0,0:0:0:40:kick.wav
320,192,159735,1,0,0:0:0:40:kick.wav
64,192,159885,1,0,0:0:0:50:crash.wav
192,192,159885,1,0,0:0:0:40:snare.wav
448,192,160035,1,0,0:0:0:40:kick.wav
64,192,160185,1,0,0:0:0:50:crash.wav
320,192,160185,1,0,0:0:0:40:snare.wav
192,192,160335,1,0,0:0:0:40:kick.wav
320,192,160485,1,0,0:0:0:50:crash.wav
448,192,160485,1,0,0:0:0:40:snare.wav
64,192,160635,1,0,0:0:0:40:snare.wav
192,192,160635,1,0,0:0:0:0:
320,192,160785,128,0,161385:0:0:0:50:crash.wav
448,192,160785,1,0,0:0:0:40:kick.wav
64,192,161085,1,0,0:0:0:40:snare.wav
192,192,161085,1,0,0:0:0:0:
448,192,161235,1,0,0:0:0:40:kick.wav
64,192,161385,128,0,161685:0:0:0:0:
448,192,161535,1,0,0:0:0:40:kick.wav
192,192,161685,128,0,161985:0:0:0:40:snare.wav
320,192,161685,1,0,0:0:0:0:
64,192,161835,1,0,0:0:0:40:kick.wav
320,192,161985,128,0,162585:0:0:0:40:kick.wav
64,192,162285,1,0,0:0:0:40:snare.wav
192,192,162285,1,0,0:0:0:0:
448,192,162435,1,0,0:0:0:40:kick.wav
192,192,162585,128,0,162885:0:0:0:0:
448,192,162735,1,0,0:0:0:40:kick.wav
64,192,162885,128,0,164385:0:0:0:40:snare.wav
320,192,162885,1,0,0:0:0:0:
192,192,163035,1,0,0:0:0:40:kick.wav
448,192,163185,1,0,0:0:0:40:kick.wav
320,192,163485,1,0,0:0:0:40:snare.wav
448,192,163485,1,0,0:0:0:0:
192,192,163635,1,0,0:0:0:40:kick.wav
192,192,163935,1,0,0:0:0:40:kick.wav
320,192,164085,1,0,0:0:0:40:snare.wav
448,192,164085,1,0,0:0:0:0:
192,192,164235,1,0,0:0:0:40:kick.wav
448,192,164385,1,0,0:0:0:40:kick.wav
320,192,164535,1,0,0:0:0:40:kick.wav
64,192,164685,1,0,0:0:0:40:snare.wav
448,192,164685,1,0,0:0:0:0:
192,192,164835,1,0,0:0:0:40:kick.wav
448,192,164985,1,0,0:0:0:40:snare.wav
320,192,165060,1,0,0:0:0:40:snare.wav
192,192,165135,1,0,0:0:0:40:kick.wav
64,192,165285,1,0,0:0:0:40:snare.wav
192,192,165360,1,0,0:0:0:40:snare.wav
320,192,165435,1,0,0:0:0:40:kick.wav
192,192,165585,128,0,165885:0:0:0:50:crash.wav
448,192,165585,1,0,0:0:0:40:kick.wav
320,192,165885,1,0,0:0:0:40:snare.wav
448,192,165885,1,0,0:0:0:0:
64,192,166035,1,0,0:0:0:40:kick.wav
320,192,166185,128,0,167085:0:0:0:0:
448,192,166335,1,0,0:0:0:40:kick.wav
64,192,166485,1,0,0:0:0:40:snare.wav
192,192,166485,1,0,0:0:0:0:
448,192,166635,1,0,0:0:0:40:kick.wav
192,192,166785,1,0,0:0:0:40:kick.wav
64,192,167085,1,0,0:0:0:40:snare.wav
192,192,167085,1,0,0:0:0:0:
448,192,167235,1,0,0:0:0:40:kick.wav
64,192,167385,1,0,0:0:0:0:
320,192,167535,1,0,0:0:0:40:kick.wav
192,192,167685,1,0,0:0:0:40:snare.wav
448,192,167685,1,0,0:0:0:0:
64,192,167835,1,0,0:0:0:40:kick.wav
448,192,167985,128,0,168285:0:0:0:40:kick.wav
64,192,168285,1,0,0:0:0:40:snare.wav
320,192,168285,128,0,168885:0:0:0:0:
192,192,168435,1,0,0:0:0:40:kick.wav
448,192,168735,1,0,0:0:0:40:kick.wav
64,192,168885,1,0,0:0:0:40:snare.wav
192,192,168885,128,0,169485:0:0:0:0:
448,192,169035,1,0,0:0:0:40:kick.wav
64,192,169185,1,0,0:0:0:40:kick.wav
320,192,169335,1,0,0:0:0:40:kick.wav
64,192,169485,1,0,0:0:0:50:crash.wav
448,192,169485,1,0,0:0:0:40:snare.wav
192,192,169635,1,0,0:0:0:40:kick.wav
320,192,169785,1,0,0:0:0:50:crash.wav
448,192,169785,1,0,0:0:0:40:snare.wav
64,192,169935,1,0,0:0:0:40:kick.wav
320,192,170085,1,0,0:0:0:50:crash.wav
448,192,170085,1,0,0:0:0:40:snare.wav
64,192,170235,1,0,0:0:0:40:snare.wav
192,192,170235,1,0,0:0:0:0:
320,192,170385,1,0,0:0:0:50:crash.wav
448,192,170385,128,0,171585:0:0:0:40:kick.wav
64,192,170685,1,0,0:0:0:40:snare.wav
192,192,170685,1,0,0:0:0:0:
320,192,170835,1,0,0:0:0:40:kick.wav
320,192,171135,1,0,0:0:0:40:kick.wav
64,192,171285,1,0,0:0:0:40:snare.wav
192,192,171285,1,0,0:0:0:0:
320,192,171435,1,0,0:0:0:40:kick.wav
192,192,171585,128,0,172185:0:0:0:40:kick.wav
320,192,171885,1,0,0:0:0:40:snare.wav
448,192,171885,1,0,0:0:0:0:
64,192,172035,1,0,0:0:0:40:kick.wav
320,192,172185,128,0,172785:0:0:0:0:
448,192,172335,1,0,0:0:0:40:kick.wav
64,192,172485,1,0,0:0:0:40:snare.wav
192,192,172485,1,0,0:0:0:0:
448,192,172635,1,0,0:0:0:40:kick.wav
64,192,172785,128,0,173385:0:0:0:40:kick.wav
320,192,173085,1,0,0:0:0:40:snare.wav
448,192,173085,1,0,0:0:0:0:
192,192,173235,1,0,0:0:0:40:kick.wav
320,192,173385,128,0,173685:0:0:0:0:
64,192,173535,1,0,0:0:0:40:kick.wav
192,192,173685,128,0,173985:0:0:0:40:snare.wav
448,192,173685,1,0,0:0:0:0:
320,192,173835,1,0,0:0:0:40:kick.wav
64,192,173985,128,0,174285:0:0:0:40:kick.wav
192,192,174135,1,0,0:0:0:40:kick.wav
320,192,174285,128,0,174585:0:0:0:40:snare.wav
448,192,174285,1,0,0:0:0:0:
192,192,174435,1,0,0:0:0:40:kick.wav
64,192,174585,1,0,0:0:0:40:snare.wav
192,192,174660,1,0,0:0:0:40:snare.wav
320,192,174735,1,0,0:0:0:40:kick.wav
448,192,174885,1,0,0:0:0:40:snare.wav
320,192,174960,1,0,0:0:0:40:snare.wav
192,192,175035,1,0,0:0:0:40:kick.wav
320,192,175185,1,0,0:0:0:50:crash.wav
448,192,175185,1,0,0:0:0:40:kick.wav
320,192,175635,1,0,0:0:0:50:crash.wav
448,192,175635,1,0,0:0:0:40:kick.wav
320,192,176085,1,0,0:0:0:50:crash.wav
448,192,176085,1,0,0:0:0:40:kick.wav
320,192,176535,1,0,0:0:0:50:crash.wav
448,192,176535,1,0,0:0:0:40:kick.wav
64,192,176985,1,0,0:0:0:50:crash.wav
192,192,176985,1,0,0:0:0:40:kick.wav
320,192,177285,1,0,0:0:0:50:crash.wav
448,192,177285,1,0,0:0:0:40:snare.wav
64,192,177435,1,0,0:0:0:40:snare.wav
192,192,177435,1,0,0:0:0:0:
320,192,177585,1,0,0:0:0:50:crash.wav
448,192,177585,1,0,0:0:0:40:kick.wav
320,192,178035,1,0,0:0:0:50:crash.wav
448,192,178035,1,0,0:0:0:40:kick.wav
64,192,178185,1,0,0:0:0:40:snare.wav
320,192,178485,1,0,0:0:0:50:crash.wav
448,192,178485,1,0,0:0:0:40:kick.wav
320,192,178935,1,0,0:0:0:50:crash.wav
448,192,178935,1,0,0:0:0:40:snare.wav
320,192,179385,1,0,0:0:0:50:crash.wav
448,192,179385,1,0,0:0:0:40:snare.wav
64,192,179535,1,0,0:0:0:40:snare.wav
320,192,179685,1,0,0:0:0:50:crash.wav
448,192,179685,1,0,0:0:0:40:snare.wav
192,192,179835,1,0,0:0:0:40:snare.wav
64,192,179985,1,0,0:0:0:40:snare.wav
448,192,179985,1,0,0:0:0:0:
320,192,180060,1,0,0:0:0:40:snare.wav
192,192,180135,1,0,0:0:0:40:kick.wav
448,192,180435,1,0,0:0:0:40:snare.wav
320,192,180510,1,0,0:0:0:40:snare.wav
192,192,180585,1,0,0:0:0:40:kick.wav
64,192,180885,1,0,0:0:0:40:snare.wav
192,192,180960,1,0,0:0:0:40:snare.wav
320,192,181035,1,0,0:0:0:40:kick.wav
64,192,181335,1,0,0:0:0:40:snare.wav
192,192,181410,1,0,0:0:0:40:snare.wav
320,192,181485,1,0,0:0:0:40:kick.wav
192,192,181785,1,0,0:0:0:50:crash.wav
448,192,181785,1,0,0:0:0:40:snare.wav
64,192,182085,1,0,0:0:0:50:crash.wav
320,192,182085,1,0,0:0:0:40:snare.wav
192,192,182385,1,0,0:0:0:50:crash.wav
448,192,182385,1,0,0:0:0:40:snare.wav
64,192,182535,1,0,0:0:0:40:kick.wav
192,192,182685,1,0,0:0:0:40:kick.wav
320,192,182835,1,0,0:0:0:50:crash.wav
448,192,182835,1,0,0:0:0:40:snare.wav
192,192,183135,1,0,0:0:0:40:kick.wav
64,192,183285,1,0,0:0:0:50:crash.wav
320,192,183285,1,0,0:0:0:40:snare.wav
448,192,183435,1,0,0:0:0:40:kick.wav
320,192,183585,1,0,0:0:0:40:kick.wav
64,192,183735,1,0,0:0:0:50:crash.wav
192,192,183735,1,0,0:0:0:40:snare.wav
448,192,184035,1,0,0:0:0:40:kick.wav
192,192,184185,1,0,0:0:0:40:kick.wav
320,192,184185,1,0,0:0:0:0:
64,192,184485,1,0,0:0:0:40:snare.wav
192,192,184560,1,0,0:0:0:40:snare.wav
320,192,184635,1,0,0:0:0:40:snare.wav
448,192,184710,1,0,0:0:0:40:snare.wav
