osu file format v14

[General]
AudioFilename: audio.mp3
AudioLeadIn: 0
PreviewTime: -1
Countdown: 0
SampleSet: Drum
StackLeniency: 0.2
Mode: 0
LetterboxInBreaks: 0
WidescreenStoryboard: 0

[Editor]
DistanceSpacing: 1.2
BeatDivisor: 4
GridSize: 32
TimelineZoom: 1

[Metadata]
Title:Pumpkin Head Guy
TitleUnicode:Pumpkin Head Guy
Artist:Shadrow
ArtistUnicode:Shadrow
Creator:mikku1
Version:RE! ACT! ION!
Source:Night in the Woods
Tags:night in the woods alec holowka vocal cover
BeatmapID:1989701
BeatmapSetID:952916

[Difficulty]
HPDrainRate:3
CircleSize:3.2
OverallDifficulty:8
ApproachRate:10
SliderMultiplier:3.6
SliderTickRate:0.5

[Events]
//Background and Video events
Video,-325,"pomhif.mp4"
0,0,"pampkinghedgi.png",0,0
//Break Periods
//Storyboard Layer 0 (Background)
//Storyboard Layer 1 (Fail)
//Storyboard Layer 2 (Pass)
//Storyboard Layer 3 (Foreground)
//Storyboard Layer 4 (Overlay)
//Storyboard Sound Samples

[TimingPoints]
10,428.571428571429,4,3,0,20,1,0
545,-100,4,3,0,100,0,0
867,428.571428571429,4,3,0,100,1,0
55724,-70.4225352112676,4,3,0,100,0,0
57438,437.956204379562,4,3,0,100,1,0
59189,447.761194029851,4,3,0,100,1,0
62771,483.870967741935,4,3,0,100,1,0
62771,-70.4225352112676,4,3,0,100,0,0
63012,500,4,3,0,100,1,8
63262,-70.4225352112676,4,3,0,100,0,8
63512,508.474576271186,4,3,0,100,1,8
63766,-70.4225352112676,4,3,0,100,0,8
64020,517.241379310345,4,3,0,100,1,8
64278,526.315789473684,4,3,0,100,1,8
64278,-70.4225352112676,4,3,0,100,0,8
64541,555.555555555556,4,3,0,100,1,8
64818,600,4,3,0,100,1,0
65118,631.578947368421,4,3,0,100,1,8
65433,659.340659340659,4,3,0,100,1,8
65762,666.666666666667,4,3,0,100,1,8
66095,674.157303370787,4,3,0,100,1,8
66432,681.818181818182,4,3,0,100,1,8
66772,697.674418604651,4,3,0,100,1,8
67469,697.674418604651,4,3,0,100,1,0
67469,-555.555555555556,4,3,0,100,0,0
69114,428.571428571429,4,3,0,20,1,8
70292,-100,4,3,0,100,0,8
70400,428.571428571429,4,3,0,100,1,0
77257,-200,4,3,0,100,0,0
84114,-68.0272108843537,4,3,0,100,0,0
92042,-100,4,3,0,20,0,0
93221,-100,4,3,0,100,0,0
93864,-100,4,3,0,20,0,0
94507,-100,4,3,0,100,0,0

[Colours]
Combo1 : 255,128,0
Combo2 : 0,128,255
Combo3 : 219,0,0
Combo4 : 0,0,64

[HitObjects]
32,32,10,5,2,2:0:0:0:
96,96,224,1,2,2:0:0:0:
160,32,438,1,2,2:0:0:0:
32,160,652,1,8,0:0:0:0:
288,32,867,6,4,L|416:32,1,89.9999976158142,4|0,1:0|0:0,0:0:0:0:
480,160,1081,2,4,L|352:160,1,89.9999976158142,4|0,1:0|0:0,0:0:0:0:
288,160,1295,2,4,L|288:64,1,89.9999976158142,4|0,1:0|0:0,0:0:0:0:
480,32,1509,2,4,L|480:128,1,89.9999976158142,4|0,2:0|0:0,0:0:0:0:
384,96,1724,1,4,2:0:0:0:
384,96,1831,1,4,2:0:0:0:
384,96,2045,1,4,2:0:0:0:
32,224,2581,6,8,L|128:224,1,89.9999976158142,8|0,0:0|0:0,0:0:0:0:
32,320,2795,1,4,0:0:0:0:
96,256,2902,2,8,L|192:256,1,89.9999976158142,8|0,0:0|0:0,0:0:0:0:
96,352,3117,1,4,0:0:0:0:
160,288,3224,2,8,L|256:288,5,89.9999976158142,8|0|8|0|8|0,0:0|0:0|0:0|0:0|0:0|0:0,0:0:0:0:
122,224,3867,2,8,L|32:224,1,89.9999976158142,8|0,0:0|0:0,0:0:0:0:
250,288,4081,2,4,L|160:288,1,89.9999976158142,4|0,0:0|0:0,0:0:0:0:
480,224,4295,6,8,L|384:224,1,89.9999976158142,8|0,0:0|0:0,0:0:0:0:
480,320,4509,1,4,0:0:0:0:
416,256,4616,2,8,L|320:256,1,89.9999976158142,8|0,0:0|0:0,0:0:0:0:
416,352,4831,1,4,0:0:0:0:
352,288,4938,2,8,L|256:288,5,89.9999976158142,8|0|8|0|8|8,0:0|0:0|0:0|0:0|0:0|0:0,0:0:0:0:
390,224,5581,2,8,L|480:224,1,89.9999976158142,8|0,0:0|0:0,0:0:0:0:
262,288,5795,2,4,L|352:288,1,89.9999976158142,4|0,0:0|0:0,0:0:0:0:
32,32,6224,6,4,L|224:32,1,179.999995231628,4|0,2:0|2:0,2:0:0:0:
224,160,6652,2,4,L|32:160,1,179.999995231628,4|0,2:0|2:0,2:0:0:0:
32,64,7081,2,4,L|224:64,1,179.999995231628,4|0,2:0|2:0,2:0:0:0:
224,128,7509,2,4,L|32:128,1,179.999995231628,4|4,2:0|2:0,2:0:0:0:
288,160,7938,5,4,0:0:0:0:
480,32,8045,1,8,0:0:0:0:
384,160,8367,1,4,0:0:0:0:
384,32,8581,1,8,0:0:0:0:
480,160,8795,1,4,0:0:0:0:
288,32,9009,1,8,0:0:0:0:
32,224,9438,6,8,L|128:224,1,89.9999976158142,8|0,0:0|0:0,0:0:0:0:
32,320,9652,1,4,0:0:0:0:
96,256,9759,2,8,L|192:256,1,89.9999976158142,8|0,0:0|0:0,0:0:0:0:
96,352,9974,1,4,0:0:0:0:
160,288,10081,2,8,L|256:288,5,89.9999976158142,8|0|8|0|8|0,0:0|0:0|0:0|0:0|0:0|0:0,0:0:0:0:
122,224,10724,2,8,L|32:224,1,89.9999976158142,8|0,0:0|0:0,0:0:0:0:
250,288,10938,2,4,L|160:288,1,89.9999976158142,4|0,0:0|0:0,0:0:0:0:
480,224,11152,6,8,L|384:224,1,89.9999976158142,8|0,0:0|0:0,0:0:0:0:
480,320,11366,1,4,0:0:0:0:
416,256,11473,2,8,L|320:256,1,89.9999976158142,8|0,0:0|0:0,0:0:0:0:
416,352,11688,1,4,0:0:0:0:
352,288,11795,2,8,L|256:288,5,89.9999976158142,8|0|8|0|8|0,0:0|0:0|0:0|0:0|0:0|0:0,0:0:0:0:
390,224,12438,2,8,L|480:224,1,89.9999976158142,8|0,0:0|0:0,0:0:0:0:
262,288,12652,2,4,L|352:288,1,89.9999976158142,4|0,0:0|0:0,0:0:0:0:
32,32,13081,6,4,L|224:32,1,179.999995231628,4|0,2:0|2:0,2:0:0:0:
224,160,13509,2,4,L|32:160,1,179.999995231628,4|0,2:0|2:0,2:0:0:0:
32,64,13938,2,4,L|224:64,1,179.999995231628,4|0,2:0|2:0,2:0:0:0:
224,128,14366,2,4,L|32:128,1,179.999995231628,4|4,2:0|2:0,2:0:0:0:
288,160,14795,5,4,2:0:0:0:
480,32,14902,1,4,2:0:0:0:
384,160,15224,1,4,2:0:0:0:
384,32,15438,1,4,2:0:0:0:
480,160,16081,1,4,2:0:0:0:
0,296,16295,6,2,B|8:200|16:296|16:296|24:384|32:296|32:296|40:200|48:296|48:296|56:384|64:296|64:296|72:200|80:296|80:296|88:384|96:296|96:296|104:200|112:296|112:296|120:384|128:296|128:296|136:200|144:296|144:296|152:384|160:296|160:296|168:200|176:296|176:296|184:384|192:296|192:296|200:200|208:296|208:296|216:384,1,1259.9999666214,0|0,2:0|2:0,1:0:0:0:
512,296,18009,6,2,B|504:200|496:296|496:296|488:384|480:296|480:296|472:200|464:296|464:296|456:384|448:296|448:296|440:200|432:296|432:296|424:384|416:296|416:296|408:200|400:296|400:296|392:384|384:296|384:296|376:200|368:296|368:296|360:384|352:296|352:296|344:200|336:296|336:296|328:384|320:296|320:296|312:200|304:296|304:296|296:384,1,1259.9999666214,0|0,2:0|2:0,1:0:0:0:
32,160,19724,5,4,0:0:0:0:
32,32,19938,1,8,0:0:0:0:
64,32,20045,1,4,0:0:0:0:
64,96,20152,1,0,0:0:0:0:
64,160,20259,1,4,0:0:0:0:
96,160,20367,1,8,0:0:0:0:
160,160,20581,1,4,0:0:0:0:
192,160,20795,1,8,0:0:0:0:
192,96,20902,1,4,0:0:0:0:
192,32,21009,1,0,0:0:0:0:
224,32,21117,1,4,0:0:0:0:
224,160,21224,1,8,0:0:0:0:
288,160,21438,5,4,0:0:0:0:
480,32,21651,1,8,0:0:0:0:
384,160,21759,1,4,0:0:0:0:
384,32,22081,1,8,0:0:0:0:
480,160,22295,1,4,0:0:0:0:
288,32,22938,1,8,0:0:0:0:
0,296,23152,6,2,B|8:200|16:296|16:296|24:384|32:296|32:296|40:200|48:296|48:296|56:384|64:296|64:296|72:200|80:296|80:296|88:384|96:296|96:296|104:200|112:296|112:296|120:384|128:296|128:296|136:200|144:296|144:296|152:384|160:296|160:296|168:200|176:296|176:296|184:384|192:296|192:296|200:200|208:296|208:296|216:384,1,1259.9999666214,0|0,2:0|2:0,1:0:0:0:
512,296,24866,6,2,B|504:200|496:296|496:296|488:384|480:296|480:296|472:200|464:296|464:296|456:384|448:296|448:296|440:200|432:296|432:296|424:384|416:296|416:296|408:200|400:296|400:296|392:384|384:296|384:296|376:200|368:296|368:296|360:384|352:296|352:296|344:200|336:296|336:296|328:384|320:296|320:296|312:200|304:296|304:296|296:384,1,1259.9999666214,0|0,2:0|2:0,1:0:0:0:
32,160,26581,5,4,0:0:0:0:
32,32,26795,1,8,0:0:0:0:
64,32,26902,1,4,0:0:0:0:
64,96,27009,1,0,0:0:0:0:
64,160,27116,1,4,0:0:0:0:
96,160,27224,1,8,0:0:0:0:
160,160,27438,1,4,0:0:0:0:
192,160,27652,1,8,0:0:0:0:
224,160,28081,1,8,0:0:0:0:
288,48,28295,6,4,L|288:144,1,89.9999976158143,4|0,0:0|0:0,0:0:0:0:
320,144,28509,2,0,L|320:48,1,89.9999976158143,8|0,0:0|0:0,0:0:0:0:
352,48,28724,2,4,L|352:144,1,89.9999976158143,4|0,0:0|0:0,0:0:0:0:
384,144,28938,2,0,L|384:48,1,89.9999976158143,8|0,0:0|0:0,0:0:0:0:
416,48,29152,2,4,L|416:144,1,89.9999976158143,4|0,0:0|0:0,0:0:0:0:
448,144,29367,1,8,0:0:0:0:
448,54,29474,1,4,0:0:0:0:
32,224,30009,6,8,L|32:320,1,89.9999976158143
32,352,30224,1,4,0:0:0:0:
96,352,30331,2,8,L|96:256,1,89.9999976158143,8|0,0:0|0:0,0:0:0:0:
96,224,30546,1,4,0:0:0:0:
160,224,30652,2,8,L|160:320,5,89.9999976158143,8|0|8|0|8|0,0:0|0:0|0:0|0:0|0:0|0:0,0:0:0:0:
96,262,31295,2,8,L|96:352,1,89.9999976158143,8|0,0:0|0:0,0:0:0:0:
32,314,31509,2,4,L|32:224,1,89.9999976158143,4|0,0:0|0:0,0:0:0:0:
480,224,31724,6,8,L|480:320,1,89.9999976158143,8|0,0:0|0:0,0:0:0:0:
480,352,31939,1,4,0:0:0:0:
416,352,32046,2,8,L|416:256,1,89.9999976158143,8|0,0:0|0:0,0:0:0:0:
416,224,32261,1,4,0:0:0:0:
352,224,32367,2,8,L|352:320,5,89.9999976158143,8|0|8|0|8|0,0:0|0:0|0:0|0:0|0:0|0:0,0:0:0:0:
416,262,33010,2,8,L|416:352,1,89.9999976158143,8|0,0:0|0:0,0:0:0:0:
480,314,33224,2,4,L|480:224,1,89.9999976158143,4|0,0:0|0:0,0:0:0:0:
96,192,33652,6,4,L|96:0,1,179.999995231629,4|0,2:0|2:0,2:0:0:0:
160,0,34081,2,4,L|160:192,1,179.999995231629,4|0,2:0|2:0,2:0:0:0:
32,192,34509,2,4,L|32:0,1,179.999995231629,4|0,2:0|2:0,2:0:0:0:
224,0,34938,2,4,L|224:192,1,179.999995231629,4|4,2:0|3:0,2:0:0:0:
448,54,35367,5,4,0:0:0:0:
288,48,35474,2,4,L|288:144,2,89.9999976158143,8|0|0,0:0|0:0|0:0,0:0:0:0:
320,144,35795,2,0,L|320:48,1,89.9999976158143,8|0,0:0|0:0,0:0:0:0:
352,48,36009,2,4,L|352:144,1,89.9999976158143,4|0,0:0|0:0,0:0:0:0:
448,144,36224,1,8,0:0:0:0:
384,144,36331,2,0,L|384:48,2,89.9999976158143,4|4|0,0:0|0:0|0:0,0:0:0:0:
416,48,36652,2,4,L|416:144,1,89.9999976158143,8|0,0:0|0:0,0:0:0:0:
32,224,36867,6,8,L|32:320,1,89.9999976158143,8|0,0:0|0:0,0:0:0:0:
32,352,37082,1,4,0:0:0:0:
96,352,37189,2,8,L|96:256,1,89.9999976158143,8|0,0:0|0:0,0:0:0:0:
96,224,37404,1,4,0:0:0:0:
160,224,37510,2,8,L|160:320,5,89.9999976158143,8|0|8|0|0|8,0:0|0:0|0:0|0:0|0:0|0:0,0:0:0:0:
96,262,38153,2,8,L|96:352,1,89.9999976158143,0|0,0:0|0:0,0:0:0:0:
32,314,38367,2,4,L|32:224,1,89.9999976158143,4|0,0:0|0:0,0:0:0:0:
480,224,38582,6,8,L|480:320,1,89.9999976158143,8|0,0:0|0:0,0:0:0:0:
480,352,38797,1,4,0:0:0:0:
416,352,38904,2,8,L|416:256,1,89.9999976158143,8|0,0:0|0:0,0:0:0:0:
416,224,39119,1,4,0:0:0:0:
352,224,39225,2,8,L|352:320,5,89.9999976158143,8|0|8|0|8|0,0:0|0:0|0:0|0:0|0:0|0:0,0:0:0:0:
416,262,39868,2,8,L|416:352,1,89.9999976158143,8|0,0:0|0:0,0:0:0:0:
480,314,40082,2,4,L|480:224,1,89.9999976158143,4|0,0:0|0:0,0:0:0:0:
96,192,40509,6,4,L|96:0,1,179.999995231629,4|0,2:0|2:0,2:0:0:0:
160,0,40938,2,4,L|160:192,1,179.999995231629,4|0,2:0|2:0,2:0:0:0:
32,192,41366,2,4,L|32:0,1,179.999995231629,4|0,2:0|2:0,2:0:0:0:
224,0,41795,2,4,L|224:192,1,179.999995231629,4|4,2:0|2:0,2:0:0:0:
448,54,42224,5,4,2:0:0:0:
288,48,42331,2,4,L|288:144,2,89.9999976158143,4|0|0,2:0|2:0|2:0,2:0:0:0:
320,144,42652,2,0,L|320:48,1,89.9999976158143,4|0,2:0|2:0,2:0:0:0:
352,48,42866,2,4,L|352:144,5,89.9999976158143,4|0|8|0|0|0,2:0|2:0|3:0|2:0|2:0|2:0,2:0:0:0:
416,48,43509,2,4,L|416:144,1,89.9999976158143,4|0,2:0|2:0,2:0:0:0:
0,192,43724,6,2,B|0:384|0:384|256:384|256:384|256:192|256:192|64:192|64:192|64:320|64:320|192:320|192:320|192:256|192:256|64:256|64:256,1,1259.9999666214,0|0,0:0|0:0,0:0:0:0:
512,192,45438,6,2,B|512:384|512:384|256:384|256:384|256:192|256:192|448:192|448:192|448:320|448:320|320:320|320:320|320:256|320:256|448:256|448:256,1,1259.9999666214,0|0,0:0|0:0,0:0:0:0:
32,160,47152,5,12,0:0:0:0:
32,32,47259,1,4,0:0:0:0:
64,160,47367,1,12,0:0:0:0:
96,160,47474,1,12,0:0:0:0:
96,96,47581,1,4,0:0:0:0:
96,32,47688,1,4,0:0:0:0:
128,160,47795,1,12,0:0:0:0:
128,32,47902,1,4,0:0:0:0:
160,192,48009,1,12,0:0:0:0:
160,128,48117,1,4,0:0:0:0:
160,64,48224,1,4,0:0:0:0:
160,0,48331,1,4,0:0:0:0:
224,192,48438,1,12,0:0:0:0:
224,128,48546,1,4,0:0:0:0:
224,64,48653,1,4,0:0:0:0:
224,0,48760,1,4,0:0:0:0:
288,32,48867,6,4,L|288:128,1,89.9999976158143
320,32,49081,1,8,0:0:0:0:
320,160,49188,2,4,L|512:160,1,179.999995231629
512,32,49509,1,8,0:0:0:0:
384,0,49724,2,0,L|384:192,2,179.999995231629,4|8|4,0:0|0:0|0:0,0:0:0:0:
384,180,50367,1,8,0:0:0:0:
0,192,50581,6,2,B|0:384|0:384|256:384|256:384|256:192|256:192|64:192|64:192|64:320|64:320|192:320|192:320|192:256|192:256|64:256|64:256,1,1259.9999666214,0|0,0:0|0:0,0:0:0:0:
512,192,52295,6,2,B|512:384|512:384|256:384|256:384|256:192|256:192|448:192|448:192|448:320|448:320|320:320|320:320|320:256|320:256|448:256|448:256,1,1259.9999666214,0|0,0:0|0:0,0:0:0:0:
0,192,54009,5,12,0:0:0:0:
0,128,54117,1,4,0:0:0:0:
0,64,54224,1,8,0:0:0:0:
64,0,54331,1,12,0:0:0:0:
128,0,54438,1,4,0:0:0:0:
192,0,54545,1,4,0:0:0:0:
256,64,54652,1,8,0:0:0:0:
256,128,54759,1,4,0:0:0:0:
192,192,54866,1,12,0:0:0:0:
128,192,54973,1,4,0:0:0:0:
64,192,55080,1,8,0:0:0:0:
64,128,55187,1,4,0:0:0:0:
128,64,55295,1,12,0:0:0:0:
192,64,55402,1,4,0:0:0:0:
192,128,55509,1,8,0:0:0:0:
128,128,55617,1,4,0:0:0:0:
256,0,55724,6,0,L|512:0,1,255.59998035843,4|0,1:0|0:0,0:0:0:0:
512,96,56152,2,0,L|256:96,1,255.59998035843,4|0,1:0|0:0,0:0:0:0:
256,192,56581,2,0,L|512:192,3,255.59998035843,4|0|0|0,1:0|0:0|0:0|0:0,0:0:0:0:
256,384,57438,5,4,1:0:0:0:
0,384,57656,1,0,0:0:0:0:
0,288,57875,1,4,1:0:0:0:
256,288,58093,1,0,0:0:0:0:
256,192,58313,1,4,1:0:0:0:
0,192,58531,1,0,0:0:0:0:
256,192,58751,1,0,0:0:0:0:
0,192,58969,1,0,0:0:0:0:
256,384,59189,5,4,1:0:0:0:
512,384,59412,1,0,0:0:0:0:
512,288,59636,1,4,1:0:0:0:
256,288,59860,1,0,0:0:0:0:
256,192,60084,1,4,1:0:0:0:
512,192,60308,1,0,0:0:0:0:
256,192,60532,1,0,0:0:0:0:
512,192,60756,1,0,0:0:0:0:
256,0,60980,5,4,1:0:0:0:
0,0,61203,1,0,0:0:0:0:
0,96,61427,1,4,1:0:0:0:
256,96,61651,1,0,0:0:0:0:
256,192,61875,1,4,1:0:0:0:
0,192,62099,1,0,0:0:0:0:
256,192,62323,1,4,1:0:0:0:
0,192,62547,1,0,0:0:0:0:
256,0,62771,6,0,L|512:0,1,255.59998035843,4|0,1:0|0:0,0:0:0:0:
512,64,63262,2,0,L|256:64,1,255.59998035843,4|0,1:0|0:0,0:0:0:0:
256,128,63766,2,0,L|512:128,1,255.59998035843,4|0,1:0|0:0,0:0:0:0:
512,192,64278,2,0,L|256:192,1,255.59998035843,4|0,1:0|0:0,0:0:0:0:
256,384,64818,5,4,1:0:0:0:
0,384,65118,1,0,0:0:0:0:
0,320,65433,1,4,1:0:0:0:
256,320,65762,1,0,0:0:0:0:
256,256,66095,1,4,1:0:0:0:
0,256,66432,1,4,1:0:0:0:
0,192,66772,1,0,0:0:0:0:
256,192,67120,1,0,0:0:0:0:
256,384,67469,6,4,L|512:384,1,243.000005932617,4|0,1:0|2:0,0:0:0:0:
480,160,69756,21,2,2:0:0:0:
352,32,69970,1,2,2:0:0:0:
352,160,70184,1,2,2:0:0:0:
32,160,70400,37,4,0:0:0:0:
96,32,70614,1,8,0:0:0:0:
96,160,70721,1,4,0:0:0:0:
128,160,70828,1,0,0:0:0:0:
160,160,70935,1,4,0:0:0:0:
160,32,71042,1,8,0:0:0:0:
224,160,71257,1,4,0:0:0:0:
160,32,71471,1,8,0:0:0:0:
160,160,71578,1,4,0:0:0:0:
96,160,71792,1,4,0:0:0:0:
96,32,71899,1,8,0:0:0:0:
96,336,72114,21,4,0:0:0:0:
32,320,72328,1,8,0:0:0:0:
224,304,72542,1,4,0:0:0:0:
160,288,72757,1,8,0:0:0:0:
96,272,72971,1,4,0:0:0:0:
160,256,73185,1,8,0:0:0:0:
32,240,73400,1,4,0:0:0:0:
96,224,73614,1,8,0:0:0:0:
480,224,73828,5,2,0:0:0:0:
448,224,74042,1,2,0:0:0:0:
448,352,74150,1,0,0:0:0:0:
416,224,74257,1,2,0:0:0:0:
416,352,74364,1,0,0:0:0:0:
384,352,74471,1,0,0:0:0:0:
384,224,74578,1,2,0:0:0:0:
320,192,74685,2,0,L|320:384,1,180,2|0,2:0|0:0,0:0:0:0:
288,384,75114,2,0,L|288:192,1,180,2|0,2:0|0:0,0:0:0:0:
32,160,75543,5,4,0:0:0:0:
96,32,75757,1,8,0:0:0:0:
96,160,75864,1,4,0:0:0:0:
128,160,75971,1,0,0:0:0:0:
160,160,76078,1,4,0:0:0:0:
160,32,76185,1,8,0:0:0:0:
224,160,76400,1,4,0:0:0:0:
160,32,76614,1,8,0:0:0:0:
160,160,76721,1,4,0:0:0:0:
96,160,76935,1,4,0:0:0:0:
96,32,77042,1,8,0:0:0:0:
160,384,77257,22,0,L|64:384,1,90,4|0,0:0|0:0,0:0:0:0:
96,352,77578,2,0,L|192:352,1,90,8|0,0:0|0:0,0:0:0:0:
224,320,77900,2,0,L|128:320,1,90,4|0,0:0|0:0,0:0:0:0:
96,288,78221,2,0,L|192:288,1,90,8|0,0:0|0:0,0:0:0:0:
0,256,78542,2,0,L|64:256,1,45,4|0,0:0|0:0,0:0:0:0:
192,224,78757,2,0,L|128:224,1,45,8|0,0:0|0:0,0:0:0:0:
288,192,78971,5,2,0:0:0:0:
320,256,79078,1,0,0:0:0:0:
352,192,79185,1,2,0:0:0:0:
384,256,79292,1,0,0:0:0:0:
416,192,79400,2,4,B|448:208|416:224|416:224|416:256|416:256|384:272|416:288|416:288|416:320|416:320|416:336|416:336,1,135,4|0,0:0|0:0,0:0:0:0:
288,352,79828,1,2,0:0:0:0:
320,320,79900,1,0,0:0:0:0:
352,320,79971,1,2,0:0:0:0:
384,352,80042,1,0,0:0:0:0:
416,352,80150,1,2,0:0:0:0:
448,320,80257,2,2,B|480:304|448:288|448:288|448:256|448:256|416:240|448:224|448:224|448:192|448:192|448:176|448:176,1,135,0|0,2:0|2:0,1:0:0:0:
32,160,80685,5,4,0:0:0:0:
96,32,80899,1,8,0:0:0:0:
96,160,81006,1,4,0:0:0:0:
128,160,81113,1,0,0:0:0:0:
160,160,81220,1,4,0:0:0:0:
160,32,81327,1,8,0:0:0:0:
224,160,81542,1,4,0:0:0:0:
160,32,81756,1,8,0:0:0:0:
160,160,81863,1,4,0:0:0:0:
96,160,82077,1,4,0:0:0:0:
96,32,82184,1,8,0:0:0:0:
96,384,82400,21,8,0:0:0:0:
96,352,82828,1,4,0:0:0:0:
160,320,83257,1,8,0:0:0:0:
32,288,83578,1,4,0:0:0:0:
96,256,83685,1,4,0:0:0:0:
32,224,83900,1,4,0:0:0:0:
256,0,84114,38,0,B|256:192|256:192|288:192|288:192|288:0|288:0|320:0|320:0|320:192|320:192|352:192|352:192|352:0|352:0|384:0|384:0|384:192|384:192|416:192|416:192|416:0|416:0|448:0|448:0|448:192|448:192|480:192|480:192|480:0|480:0|512:0|512:0|512:192,1,1984.49990764275,4|0,2:0|2:0,0:0:0:0:
512,192,85828,2,0,B|512:0|512:0|480:0|480:0|480:192|480:192|448:192|448:192|448:0|448:0|416:0|416:0|416:192|416:192|384:192|384:192|384:0|384:0|352:0|352:0|352:192|352:192|320:192|320:192|320:0|320:0|288:0|288:0|288:192|288:192|256:192|256:192|256:0,1,1984.49990764275,4|0,2:0|2:0,0:0:0:0:
256,0,87542,2,0,B|256:192|256:192|288:192|288:192|288:0|288:0|320:0|320:0|320:192|320:192|352:192|352:192|352:0|352:0|384:0|384:0|384:192|384:192|416:192|416:192|416:0|416:0|448:0|448:0|448:192|448:192|480:192|480:192|480:0|480:0|512:0|512:0|512:192,1,1984.49990764275,4|0,2:0|2:0,0:0:0:0:
512,192,89257,2,0,B|512:0|512:0|480:0|480:0|480:192|480:192|448:192|448:192|448:0|448:0|416:0|416:0|416:192|416:192|384:192|384:192|384:0|384:0|352:0|352:0|352:192|352:192|320:192|320:192|320:0|320:0|288:0|288:0|288:192|288:192|256:192|256:192|256:0,1,1984.49990764275,4|0,2:0|2:0,0:0:0:0:
128,96,90971,37,4,2:0:0:0:
384,96,91185,5,4,2:0:0:0:
128,288,91292,5,4,2:0:0:0:
384,288,91507,5,4,2:0:0:0:
256,192,92364,12,4,94721,0:0:0:0:
