osu file format v14

[General]
AudioFilename: audio.mp3
AudioLeadIn: 0
PreviewTime: 87942
Countdown: 0
SampleSet: Soft
StackLeniency: 0.7
Mode: 0
LetterboxInBreaks: 0
WidescreenStoryboard: 1

[Editor]
DistanceSpacing: 1
BeatDivisor: 4
GridSize: 32
TimelineZoom: 2.999999

[Metadata]
Title:Temperance
TitleUnicode:Temperance
Artist:Shadren
ArtistUnicode:Shadren
Creator:EijiKuinbii
Version:Abstinence
Source:
Tags:drum and bass deep lead melodic progressive oriental rhythm cut short version
BeatmapID:1289743
BeatmapSetID:610891

[Difficulty]
HPDrainRate:6
CircleSize:4
OverallDifficulty:7.5
ApproachRate:9.2
SliderMultiplier:1.6
SliderTickRate:1

[Events]
//Background and Video events
0,0,"sOYoDkbBbmo.jpg",0,0
//Break Periods
//Storyboard Layer 0 (Background)
//Storyboard Layer 1 (Fail)
//Storyboard Layer 2 (Pass)
//Storyboard Layer 3 (Foreground)
//Storyboard Sound Samples

[TimingPoints]
0,342.857142857143,4,2,1,70,1,0
10971,-200,4,2,1,20,0,0
21942,-133.333333333333,4,2,1,30,0,0
32914,-125,4,2,1,40,0,0
35657,-117.647058823529,4,2,1,50,0,0
38400,-111.111111111111,4,2,1,60,0,0
41142,-105.263157894737,4,2,1,60,0,0
43885,-100,4,2,1,70,0,0
65142,-200,4,2,1,70,0,0
65185,-200,4,2,1,5,0,0
65314,-200,4,2,1,70,0,0
65357,-200,4,2,1,5,0,0
65485,-200,4,2,1,70,0,0
65528,-200,4,2,1,5,0,0
65657,-200,4,2,1,70,0,0
65700,-200,4,2,1,5,0,0
65828,-90.9090909090909,4,2,1,70,0,0
87771,-66.6666666666667,4,2,1,80,0,1
109714,-100,4,2,1,70,0,0

[Colours]
Combo1 : 250,90,90
Combo2 : 14,136,188
Combo3 : 122,227,45

[HitObjects]
38,145,10971,6,0,L|43:234,1,80,10|0,0:0|0:0,0:0:0:0:
42,224,11485,1,2,0:0:0:0:
145,94,11828,1,0,0:0:0:0:
143,134,11999,1,0,0:0:0:0:
141,174,12170,1,0,0:0:0:0:
177,245,12342,6,0,L|182:334,1,80,2|0,0:0|0:0,0:0:0:0:
181,324,12857,1,2,0:0:0:0:
295,141,13200,1,0,0:0:0:0:
297,181,13371,1,0,0:0:0:0:
299,221,13542,1,0,0:0:0:0:
263,292,13714,6,0,L|258:381,1,80,2|0,0:0|0:0,0:0:0:0:
258,371,14228,1,2,0:0:0:0:
406,349,14571,1,0,0:0:0:0:
404,309,14742,1,0,0:0:0:0:
402,269,14913,1,0,0:0:0:0:
438,198,15085,6,0,L|443:109,1,80,2|0,0:0|0:0,0:0:0:0:
443,119,15599,1,2,0:0:0:0:
312,301,15942,1,0,0:0:0:0:
314,261,16113,1,0,0:0:0:0:
316,221,16284,1,0,0:0:0:0:
280,150,16457,6,0,L|275:66,1,80,2|0,0:0|0:0,0:0:0:0:
275,70,16970,1,2,0:0:0:0:
119,279,17314,1,0,0:0:0:0:
117,239,17485,1,0,0:0:0:0:
115,199,17656,1,0,0:0:0:0:
151,128,17828,6,0,L|156:39,1,80,2|0,0:0|0:0,0:0:0:0:
156,49,18342,1,2,0:0:0:0:
391,85,18685,1,0,0:0:0:0:
393,125,18856,1,0,0:0:0:0:
395,165,19027,1,0,0:0:0:0:
359,236,19199,6,0,L|354:325,1,80,2|0,0:0|0:0,0:0:0:0:
354,315,19713,1,2,0:0:0:0:
201,144,20057,1,0,0:0:0:0:
199,184,20228,1,0,0:0:0:0:
197,224,20399,1,0,0:0:0:0:
233,295,20571,5,2,0:0:0:0:
312,299,20742,1,0,0:0:0:0:
320,163,20914,1,0,0:0:0:0:
241,159,21085,1,0,0:0:0:0:
355,233,21257,5,4,0:0:0:0:
233,295,21428,1,0,0:0:0:0:
320,163,21600,1,2,0:0:0:0:
312,299,21771,1,0,0:0:0:0:
201,144,21942,6,0,P|186:91|182:59,1,60.0000022888184,8|0,0:0|0:0,0:0:0:0:
318,79,22285,1,0,0:0:0:0:
258,197,22457,2,0,P|224:220|186:220,1,60.0000022888184,8|0,0:0|0:0,0:0:0:0:
73,215,22800,1,0,0:0:0:0:
201,144,22971,1,0,0:0:0:0:
209,300,23142,1,0,0:0:0:0:
119,147,23314,6,0,P|111:120|113:70,1,60.0000022888184,8|0,0:0|0:0,0:0:0:0:
271,101,23657,1,0,0:0:0:0:
218,241,23828,2,0,P|210:268|212:318,1,60.0000022888184,8|0,0:0|0:0,0:0:0:0:
356,324,24171,1,0,0:0:0:0:
288,198,24342,1,0,0:0:0:0:
211,382,24514,1,0,0:0:0:0:
353,243,24685,6,0,P|364:216|366:186,1,60.0000022888184,8|0,0:0|0:0,0:0:0:0:
298,60,25028,1,0,0:0:0:0:
215,231,25200,2,0,P|232:254|257:271,1,60.0000022888184,8|0,0:0|0:0,0:0:0:0:
451,267,25542,1,0,0:0:0:0:
288,198,25714,1,0,0:0:0:0:
332,360,25885,1,0,0:0:0:0:
403,153,26057,6,0,P|416:109|438:84,1,60.0000022888184,8|0,0:0|0:0,0:0:0:0:
451,267,26400,1,0,0:0:0:0:
332,195,26571,2,0,P|321:150|327:117,1,60.0000022888184,8|0,0:0|0:0,0:0:0:0:
364,26,26914,1,0,0:0:0:0:
403,153,27085,1,0,0:0:0:0:
241,115,27257,1,0,0:0:0:0:
447,70,27428,6,0,P|487:110|496:134,1,60.0000022888184,8|0,0:0|0:0,0:0:0:0:
370,234,27771,1,0,0:0:0:0:
241,115,27942,2,0,P|255:60|271:40,1,60.0000022888184,8|0,0:0|0:0,0:0:0:0:
286,260,28285,1,0,0:0:0:0:
138,227,28457,1,0,0:0:0:0:
324,112,28628,1,0,0:0:0:0:
375,255,28800,6,0,P|360:309|344:329,1,60.0000022888184,8|0,0:0|0:0,0:0:0:0:
189,353,29142,1,0,0:0:0:0:
237,185,29314,2,0,P|291:170|316:174,1,60.0000022888184,8|0,0:0|0:0,0:0:0:0:
284,374,29657,1,0,0:0:0:0:
118,288,29828,1,0,0:0:0:0:
286,260,30000,1,0,0:0:0:0:
126,378,30171,6,0,P|96:375|69:364,1,60.0000022888184,8|0,0:0|0:0,0:0:0:0:
40,195,30514,1,0,0:0:0:0:
203,165,30685,2,0,P|215:192|219:221,1,60.0000022888184,8|0,0:0|0:0,0:0:0:0:
210,367,31028,1,0,0:0:0:0:
32,280,31200,1,0,0:0:0:0:
117,158,31371,1,0,0:0:0:0:
99,368,31542,5,2,0:0:0:0:
290,278,31714,1,0,0:0:0:0:
44,198,31885,1,0,0:0:0:0:
44,198,32056,1,0,0:0:0:0:
190,118,32228,5,4,0:0:0:0:
210,367,32400,1,0,0:0:0:0:
32,280,32571,1,2,0:0:0:0:
290,278,32742,1,0,0:0:0:0:
290,278,32914,6,0,P|306:243|309:203,1,64,8|0,0:0|0:0,0:0:0:0:
296,20,33257,1,0,0:0:0:0:
97,187,33428,2,0,P|145:219|216:224,1,128,8|0,0:0|0:0,0:0:0:0:
356,132,33942,2,0,L|292:140,1,64,8|0,0:0|0:0,0:0:0:0:
157,113,34285,5,0,0:0:0:0:
97,187,34457,1,4,0:0:0:0:
96,202,34542,1,4,0:0:0:0:
95,218,34628,1,4,0:0:0:0:
215,223,34800,1,0,0:0:0:0:
275,297,34972,1,4,0:0:0:0:
275,312,35057,1,4,0:0:0:0:
276,328,35143,1,4,0:0:0:0:
310,209,35314,1,4,0:0:0:0:
184,102,35485,1,4,0:0:0:0:
155,265,35657,6,0,P|183:212|186:184,1,68.0000012969971,8|0,0:0|0:0,0:0:0:0:
82,102,36000,1,0,0:0:0:0:
3,274,36171,2,0,P|84:237|109:197,1,136.000002593994,8|0,0:0|0:0,0:0:0:0:
23,46,36685,2,0,P|3:93|6:130,1,68.0000012969971,8|0,0:0|0:0,0:0:0:0:
187,218,37028,5,0,0:0:0:0:
273,120,37200,1,4,0:0:0:0:
289,117,37285,1,4,0:0:0:0:
306,114,37371,1,4,0:0:0:0:
314,243,37542,1,0,0:0:0:0:
400,341,37714,1,4,0:0:0:0:
416,343,37799,1,4,0:0:0:0:
433,346,37885,1,4,0:0:0:0:
442,218,38057,1,4,0:0:0:0:
272,366,38228,1,4,0:0:0:0:
228,144,38400,6,0,P|226:100|244:51,1,71.9999978027344,8|0,0:0|0:0,0:0:0:0:
399,41,38742,1,0,0:0:0:0:
366,241,38914,2,0,P|317:180|309:107,1,143.999995605469,8|0,0:0|0:0,0:0:0:0:
490,62,39428,2,0,P|475:94|451:121,1,71.9999978027344,8|0,0:0|0:0,0:0:0:0:
307,116,39771,5,0,0:0:0:0:
181,53,39942,1,4,0:0:0:0:
163,52,40027,1,4,0:0:0:0:
145,51,40113,1,4,0:0:0:0:
190,194,40285,1,0,0:0:0:0:
64,257,40456,1,4,0:0:0:0:
46,257,40541,1,4,0:0:0:0:
28,258,40627,1,4,0:0:0:0:
19,114,40800,1,4,0:0:0:0:
142,257,40971,1,4,0:0:0:0:
205,79,41142,6,0,P|264:64|300:65,1,75.9999979705811,8|0,0:0|0:0,0:0:0:0:
456,124,41485,1,0,0:0:0:0:
308,289,41657,2,0,P|269:229|276:120,1,151.999995941162,8|0,0:0|0:0,0:0:0:0:
457,264,42171,2,0,P|396:254|364:239,1,75.9999979705811,8|0,0:0|0:0,0:0:0:0:
180,111,42514,5,2,0:0:0:0:
356,54,42685,1,0,0:0:0:0:
247,203,42857,1,0,0:0:0:0:
247,18,43028,1,0,0:0:0:0:
356,168,43200,5,4,0:0:0:0:
157,122,43371,1,0,0:0:0:0:
291,276,43543,1,2,0:0:0:0:
273,72,43714,1,0,0:0:0:0:
168,246,43885,6,0,P|184:281|216:309,1,80,8|0,0:0|0:0,0:0:0:0:
214,308,44142,1,0,0:0:0:0:
214,308,44228,1,0,0:0:0:0:
380,179,44400,2,0,P|276:190|247:250,1,160,8|0,0:0|0:0,0:0:0:0:
282,375,44914,2,0,P|304:343|312:301,1,80,8|0,0:0|0:0,0:0:0:0:
196,160,45257,5,0,0:0:0:0:
400,306,45428,2,0,P|394:268|370:233,1,80,8|0,0:0|0:0,0:0:0:0:
162,239,45771,1,0,0:0:0:0:
299,297,45942,1,2,0:0:0:0:
282,149,46114,1,0,0:0:0:0:
128,318,46285,1,2,0:0:0:0:
334,219,46457,1,0,0:0:0:0:
111,171,46628,6,0,P|95:119|110:68,1,80,8|0,0:0|0:0,0:0:0:0:
98,94,46885,1,0,0:0:0:0:
98,94,46971,1,0,0:0:0:0:
268,6,47142,2,0,P|198:50|180:125,1,160,8|0,0:0|0:0,0:0:0:0:
270,255,47657,2,0,P|271:215|257:178,1,80,8|0,0:0|0:0,0:0:0:0:
98,143,48000,5,0,0:0:0:0:
148,298,48171,2,0,P|177:271|193:234,1,80,8|0,0:0|0:0,0:0:0:0:
143,78,48514,1,0,0:0:0:0:
69,291,48685,1,2,0:0:0:0:
257,178,48857,1,0,0:0:0:0:
20,137,49028,1,2,0:0:0:0:
148,298,49200,1,0,0:0:0:0:
225,99,49371,6,0,P|288:96|319:114,1,80,8|0,0:0|0:0,0:0:0:0:
302,102,49628,1,0,0:0:0:0:
302,102,49714,1,0,0:0:0:0:
293,316,49885,2,0,P|243:243|258:174,1,160,8|0,0:0|0:0,0:0:0:0:
426,263,50400,2,0,P|363:266|332:248,1,80,8|0,0:0|0:0,0:0:0:0:
302,102,50742,5,0,0:0:0:0:
474,195,50914,2,0,P|508:248|508:283,1,80,8|0,0:0|0:0,0:0:0:0:
293,316,51257,1,0,0:0:0:0:
411,105,51428,1,2,0:0:0:0:
426,263,51600,1,0,0:0:0:0:
206,154,51771,1,2,0:0:0:0:
386,356,51942,1,0,0:0:0:0:
487,118,52114,6,0,P|479:68|447:36,1,80,8|0,0:0|0:0,0:0:0:0:
461,46,52371,1,0,0:0:0:0:
461,46,52457,1,0,0:0:0:0:
262,91,52628,2,0,P|335:123|434:87,1,160,8|0,0:0|0:0,0:0:0:0:
223,24,53142,2,0,P|195:51|184:90,1,80,8|0,0:0|0:0,0:0:0:0:
276,239,53485,5,2,0:0:0:0:
343,21,53657,1,0,0:0:0:0:
184,89,53828,1,0,0:0:0:0:
292,158,53999,1,0,0:0:0:0:
200,8,54171,5,4,0:0:0:0:
203,177,54342,1,0,0:0:0:0:
386,115,54514,1,2,0:0:0:0:
122,35,54685,1,2,0:0:0:0:
124,203,54857,6,0,P|149:241|211:261,1,80,8|0,0:0|0:0,0:0:0:0:
178,257,55114,1,0,0:0:0:0:
178,257,55200,1,0,0:0:0:0:
350,194,55371,2,0,P|279:160|202:176,1,160,8|0,0:0|0:0,0:0:0:0:
337,346,55885,2,0,P|334:300|290:252,1,80,8|0,0:0|0:0,0:0:0:0:
124,203,56228,5,0,0:0:0:0:
350,194,56400,2,0,P|369:159|369:119,1,80,8|0,0:0|0:0,0:0:0:0:
240,79,56742,1,0,0:0:0:0:
276,262,56914,1,2,0:0:0:0:
482,120,57085,1,0,0:0:0:0:
313,10,57257,1,2,0:0:0:0:
372,290,57428,1,0,0:0:0:0:
408,83,57600,6,0,P|442:47|485:36,1,80,8|0,0:0|0:0,0:0:0:0:
469,37,57857,1,0,0:0:0:0:
469,37,57942,1,0,0:0:0:0:
502,269,58114,2,0,P|469:200|485:115,1,160,8|0,0:0|0:0,0:0:0:0:
391,252,58628,2,0,P|357:288|314:299,1,80,8|0,0:0|0:0,0:0:0:0:
180,209,58971,5,0,0:0:0:0:
385,161,59142,2,0,P|433:172|467:203,1,80,8|0,0:0|0:0,0:0:0:0:
428,372,59485,1,0,0:0:0:0:
310,212,59657,1,2,0:0:0:0:
460,110,59827,1,0,0:0:0:0:
319,297,60000,1,2,0:0:0:0:
226,81,60171,1,0,0:0:0:0:
396,203,60342,6,0,P|424:243|438:297,1,80,8|0,0:0|0:0,0:0:0:0:
319,297,60685,2,0,P|323:337|318:377,1,80,8|0,0:0|0:0,0:0:0:0:
198,309,61028,2,0,P|166:346|118:373,1,80,8|0,0:0|0:0,0:0:0:0:
126,209,61371,2,0,P|86:203|50:188,1,80,8|0,0:0|0:0,0:0:0:0:
434,272,61714,6,0,P|419:234|396:203,1,80,8|0,0:0|0:0,0:0:0:0:
318,376,62057,2,0,P|323:336|319:297,1,80,8|0,0:0|0:0,0:0:0:0:
140,363,62400,2,0,P|172:339|198:309,1,80,8|0,0:0|0:0,0:0:0:0:
49,187,62743,2,0,P|86:203|126:209,1,80,8|0,0:0|0:0,0:0:0:0:
396,203,63085,5,2,0:0:0:0:
292,29,63257,1,2,0:0:0:0:
309,255,63428,1,4,0:0:0:0:
381,79,63600,5,2,0:0:0:0:
221,206,63771,1,2,0:0:0:0:
483,151,63942,1,4,0:0:0:0:
205,81,64114,5,2,0:0:0:0:
398,305,64285,1,4,0:0:0:0:
483,151,64457,5,4,0:0:0:0:
436,129,64542,1,4,0:0:0:0:
384,133,64628,1,4,0:0:0:0:
342,162,64714,1,0,0:0:0:0:
308,182,64799,1,4,0:0:0:0:
269,189,64885,1,0,0:0:0:0:
230,180,64971,1,4,0:0:0:0:
203,157,65056,1,0,0:0:0:0:
124,171,65142,6,0,L|122:186,1,10,0|0,0:0|0:0,0:0:0:0:
86,100,65314,2,0,L|71:102,1,10,0|0,0:0|0:0,0:0:0:0:
141,42,65485,2,0,L|133:28,1,10,0|0,0:0|0:0,0:0:0:0:
213,76,65657,2,0,L|223:65,1,10,0|0,0:0|0:0,0:0:0:0:
175,232,65828,6,0,P|175:273|188:323,1,88.000002685547,8|0,0:0|0:0,0:0:0:0:
331,362,66171,1,4,0:0:0:0:
320,188,66342,1,2,0:0:0:0:
302,162,66427,1,2,0:0:0:0:
279,142,66513,1,2,0:0:0:0:
252,127,66599,1,0,0:0:0:0:
222,119,66685,2,0,P|198:119|169:125,1,44.0000013427735,8|0,0:0|0:0,0:0:0:0:
47,190,66857,2,0,P|118:195|152:215,1,88.000002685547,8|0,0:0|0:0,0:0:0:0:
187,350,67200,5,4,0:0:0:0:
34,269,67371,1,0,0:0:0:0:
203,163,67542,2,0,P|224:202|235:256,1,88.000002685547,8|0,0:0|0:0,0:0:0:0:
231,266,67800,1,0,0:0:0:0:
226,287,67885,1,0,0:0:0:0:
92,173,68057,1,4,0:0:0:0:
293,98,68228,1,4,0:0:0:0:
140,270,68400,1,0,0:0:0:0:
136,41,68571,6,0,L|240:50,1,88.000002685547,8|0,0:0|0:0,0:0:0:0:
450,41,68914,1,4,0:0:0:0:
353,200,69085,1,2,0:0:0:0:
328,181,69170,1,2,0:0:0:0:
309,156,69256,1,2,0:0:0:0:
298,128,69342,1,0,0:0:0:0:
293,98,69428,2,0,P|298:56|302:47,1,44.0000013427735,8|0,0:0|0:0,0:0:0:0:
400,107,69600,2,0,P|440:124|484:120,1,88.000002685547,8|0,0:0|0:0,0:0:0:0:
355,10,69942,5,2,0:0:0:0:
353,200,70114,1,0,0:0:0:0:
189,103,70285,2,0,P|240:77|276:75,1,88.000002685547,8|0,0:0|0:0,0:0:0:0:
291,79,70542,1,0,0:0:0:0:
311,87,70628,1,0,0:0:0:0:
251,224,70800,1,2,0:0:0:0:
125,157,70971,1,2,0:0:0:0:
315,170,71142,1,0,0:0:0:0:
208,328,71314,6,0,B|188:310|188:310|169:235,1,88.000002685547,8|0,0:0|0:0,0:0:0:0:
185,60,71657,1,4,0:0:0:0:
376,162,71828,1,2,0:0:0:0:
345,166,71913,1,2,0:0:0:0:
315,170,71999,1,2,0:0:0:0:
284,175,72085,1,0,0:0:0:0:
254,179,72171,2,0,P|229:177|196:170,1,44.0000013427735,8|0,0:0|0:0,0:0:0:0:
113,90,72342,2,0,P|111:33|140:-6,1,88.000002685547,8|0,0:0|0:0,0:0:0:0:
335,32,72685,5,2,0:0:0:0:
185,60,72857,1,0,0:0:0:0:
284,175,73028,2,0,P|297:246|292:276,1,88.000002685547,8|0,0:0|0:0,0:0:0:0:
289,282,73285,1,0,0:0:0:0:
279,301,73371,1,0,0:0:0:0:
158,170,73542,1,2,0:0:0:0:
348,114,73714,1,2,0:0:0:0:
201,276,73885,1,0,0:0:0:0:
170,85,74057,6,0,P|211:58|261:53,1,88.000002685547,8|0,0:0|0:0,0:0:0:0:
360,199,74400,1,4,0:0:0:0:
250,338,74571,1,2,0:0:0:0:
222,351,74656,1,2,0:0:0:0:
191,353,74742,1,2,0:0:0:0:
162,343,74828,1,0,0:0:0:0:
140,323,74914,2,0,P|131:293|134:275,1,44.0000013427735,8|0,0:0|0:0,0:0:0:0:
148,137,75085,2,0,P|106:193|71:208,1,88.000002685547,8|0,0:0|0:0,0:0:0:0:
120,55,75428,5,10,0:0:0:0:
231,153,75600,1,0,0:0:0:0:
27,157,75771,1,2,0:0:0:0:
225,43,75942,1,10,0:0:0:0:
225,43,76028,1,2,0:0:0:0:
225,43,76114,1,2,0:0:0:0:
237,263,76285,1,0,0:0:0:0:
422,143,76457,1,2,0:0:0:0:
283,95,76628,1,2,0:0:0:0:
409,221,76800,6,0,P|463:213|498:169,1,88.000002685547,8|0,0:0|0:0,0:0:0:0:
400,34,77142,1,4,0:0:0:0:
263,184,77314,1,2,0:0:0:0:
257,214,77399,1,2,0:0:0:0:
254,244,77485,1,2,0:0:0:0:
254,275,77571,1,0,0:0:0:0:
256,306,77657,2,0,P|260:333|267:358,1,44.0000013427735,8|0,0:0|0:0,0:0:0:0:
426,335,77828,2,0,P|376:315|334:312,1,88.000002685547,8|0,0:0|0:0,0:0:0:0:
169,341,78171,5,4,0:0:0:0:
56,206,78342,1,0,0:0:0:0:
229,175,78514,2,0,P|252:213|261:262,1,88.000002685547,8|0,0:0|0:0,0:0:0:0:
258,277,78771,1,0,0:0:0:0:
252,298,78857,1,0,0:0:0:0:
172,107,79028,1,2,0:0:0:0:
376,133,79200,1,2,0:0:0:0:
157,219,79371,1,0,0:0:0:0:
241,19,79542,6,0,L|330:24,1,88.000002685547,8|0,0:0|0:0,0:0:0:0:
496,148,79885,1,4,0:0:0:0:
315,287,80057,1,2,0:0:0:0:
304,258,80142,1,2,0:0:0:0:
297,228,80228,1,2,0:0:0:0:
293,197,80314,1,0,0:0:0:0:
294,166,80400,2,0,P|305:132|314:118,1,44.0000013427735,8|0,0:0|0:0,0:0:0:0:
137,147,80571,2,0,P|200:182|240:171,1,88.000002685547,8|0,0:0|0:0,0:0:0:0:
128,64,80914,5,2,0:0:0:0:
69,195,81085,1,0,0:0:0:0:
292,90,81257,2,0,L|184:99,1,88.000002685547,8|0,0:0|0:0,0:0:0:0:
192,116,81514,1,0,0:0:0:0:
180,134,81600,1,0,0:0:0:0:
342,162,81771,1,2,0:0:0:0:
329,10,81942,1,2,0:0:0:0:
247,229,82114,1,0,0:0:0:0:
448,212,82285,6,0,P|459:163|450:112,1,88.000002685547,8|0,0:0|0:0,0:0:0:0:
292,90,82628,1,4,0:0:0:0:
245,311,82800,1,2,0:0:0:0:
275,306,82885,1,2,0:0:0:0:
301,290,82971,1,2,0:0:0:0:
320,266,83057,1,0,0:0:0:0:
329,237,83142,2,0,P|326:208|319:186,1,44.0000013427735,8|0,0:0|0:0,0:0:0:0:
161,195,83314,2,0,P|198:219|242:226,1,88.000002685547,8|0,0:0|0:0,0:0:0:0:
148,111,83657,5,2,0:0:0:0:
94,249,83828,1,0,0:0:0:0:
229,142,84000,2,0,P|225:69|209:44,1,88.000002685547,8|0,0:0|0:0,0:0:0:0:
201,43,84257,1,0,0:0:0:0:
181,33,84342,1,0,0:0:0:0:
52,153,84514,1,2,0:0:0:0:
241,226,84685,1,2,0:0:0:0:
94,249,84857,1,0,0:0:0:0:
252,122,85028,6,0,L|359:129,1,88.000002685547,8|0,0:0|0:0,0:0:0:0:
486,149,85371,1,4,0:0:0:0:
352,267,85542,1,2,0:0:0:0:
320,268,85627,1,2,0:0:0:0:
290,261,85713,1,2,0:0:0:0:
263,246,85799,1,0,0:0:0:0:
241,226,85885,2,0,P|220:215|198:214,1,44.0000013427735,8|0,0:0|0:0,0:0:0:0:
129,343,86057,2,0,P|174:319|207:268,1,88.000002685547,8|0,0:0|0:0,0:0:0:0:
234,139,86400,5,2,0:0:0:0:
221,97,86485,1,2,0:0:0:0:
187,70,86571,1,2,0:0:0:0:
144,67,86657,1,0,0:0:0:0:
107,89,86742,1,2,0:0:0:0:
88,128,86828,1,0,0:0:0:0:
95,170,86914,1,2,0:0:0:0:
125,202,87000,1,0,0:0:0:0:
175,214,87085,5,2,0:0:0:0:
227,210,87170,1,2,0:0:0:0:
277,193,87256,1,2,0:0:0:0:
320,162,87342,1,0,0:0:0:0:
367,140,87427,1,2,0:0:0:0:
418,149,87513,1,0,0:0:0:0:
456,185,87599,1,2,0:0:0:0:
468,235,87684,1,0,0:0:0:0:
411,306,87771,6,0,B|380:313|380:313|277:299,1,120.000004577637,8|0,0:0|0:0,0:0:0:0:
123,229,88114,2,0,P|188:215|214:217,1,60.0000022888184,8|0,0:0|0:0,0:0:0:0:
85,307,88285,2,0,P|40:251|47:187,1,120.000004577637,4|0,0:0|0:0,0:0:0:0:
226,113,88628,1,2,0:0:0:0:
168,330,88800,1,2,0:0:0:0:
17,120,88971,1,0,0:0:0:0:
17,120,89057,1,0,0:0:0:0:
17,120,89142,1,0,0:0:0:0:
270,44,89314,1,0,0:0:0:0:
311,49,89399,1,0,0:0:0:0:
353,54,89485,6,0,L|414:46,1,60.0000022888184,8|0,0:0|0:0,0:0:0:0:
401,220,89657,2,0,P|341:183|325:126,1,120.000004577637,4|0,0:0|0:0,0:0:0:0:
497,13,90000,1,2,0:0:0:0:
410,138,90171,1,2,0:0:0:0:
270,44,90342,1,0,0:0:0:0:
444,293,90514,6,0,P|479:245|477:187,1,120.000004577637,8|0,0:0|0:0,0:0:0:0:
292,267,90857,2,0,P|356:274|384:270,1,60.0000022888184,8|0,0:0|0:0,0:0:0:0:
245,188,91028,2,0,B|212:239|212:239|206:300,1,120.000004577637,4|0,0:0|0:0,0:0:0:0:
382,365,91371,1,2,0:0:0:0:
341,178,91543,1,2,0:0:0:0:
110,307,91714,1,0,0:0:0:0:
110,307,91800,1,0,0:0:0:0:
110,307,91885,1,0,0:0:0:0:
55,115,92057,1,0,0:0:0:0:
81,82,92142,1,0,0:0:0:0:
107,49,92228,6,0,L|208:42,1,60.0000022888184,8|0,0:0|0:0,0:0:0:0:
228,205,92400,2,0,P|165:166|146:117,1,120.000004577637,4|0,0:0|0:0,0:0:0:0:
334,180,92742,1,2,0:0:0:0:
195,309,92914,1,2,0:0:0:0:
260,100,93085,1,0,0:0:0:0:
302,284,93257,6,0,B|341:299|341:299|444:303,1,120.000004577637,8|0,0:0|0:0,0:0:0:0:
369,132,93600,2,0,P|334:178|326:217,1,60.0000022888184,8|0,0:0|0:0,0:0:0:0:
449,135,93771,2,0,P|418:68|374:52,1,120.000004577637,4|0,0:0|0:0,0:0:0:0:
226,199,94114,1,2,0:0:0:0:
407,203,94285,1,2,0:0:0:0:
260,100,94457,1,0,0:0:0:0:
260,100,94542,1,0,0:0:0:0:
260,100,94628,1,0,0:0:0:0:
192,298,94800,1,0,0:0:0:0:
224,325,94885,1,0,0:0:0:0:
256,352,94971,6,0,P|293:357|344:349,1,60.0000022888184,8|0,0:0|0:0,0:0:0:0:
370,200,95142,2,0,P|307:232|287:284,1,120.000004577637,4|0,0:0|0:0,0:0:0:0:
445,240,95485,1,2,0:0:0:0:
367,114,95657,1,2,0:0:0:0:
373,286,95828,1,0,0:0:0:0:
439,68,96000,6,0,P|374:30|306:51,1,120.000004577637,8|0,0:0|0:0,0:0:0:0:
249,205,96342,2,0,P|288:188|309:171,1,60.0000022888184,8|0,0:0|0:0,0:0:0:0:
178,160,96514,2,0,P|166:221|205:277,1,120.000004577637,4|0,0:0|0:0,0:0:0:0:
193,268,96771,1,0,0:0:0:0:
193,268,96857,1,0,0:0:0:0:
351,245,97028,1,2,0:0:0:0:
252,121,97200,1,2,0:0:0:0:
283,335,97371,5,6,0:0:0:0:
419,155,97542,1,2,0:0:0:0:
178,160,97714,1,6,0:0:0:0:
272,257,97885,1,2,0:0:0:0:
215,29,98057,5,2,0:0:0:0:
215,29,98142,1,2,0:0:0:0:
215,29,98228,1,2,0:0:0:0:
141,291,98400,1,6,0:0:0:0:
430,234,98571,1,2,0:0:0:0:
178,160,98742,6,0,P|113:157|55:180,1,120.000004577637,8|0,0:0|0:0,0:0:0:0:
228,274,99085,2,0,P|244:223|244:205,1,60.0000022888184,8|0,0:0|0:0,0:0:0:0:
141,291,99257,2,0,P|197:357|259:357,1,120.000004577637,4|0,0:0|0:0,0:0:0:0:
316,277,99514,1,0,0:0:0:0:
316,277,99600,2,0,P|361:258|390:257,1,60.0000022888184,4|0,0:0|0:0,0:0:0:0:
491,270,99771,1,0,0:0:0:0:
255,338,99942,1,0,0:0:0:0:
234,309,100028,1,0,0:0:0:0:
227,274,100114,6,0,P|234:202|249:135,1,120.000004577637,8|0,0:0|0:0,0:0:0:0:
408,138,100457,2,0,P|374:162|334:170,1,60.0000022888184,8|0,0:0|0:0,0:0:0:0:
417,58,100628,2,0,P|471:87|487:153,1,120.000004577637,4|0,0:0|0:0,0:0:0:0:
333,297,100971,1,2,0:0:0:0:
195,90,101142,1,2,0:0:0:0:
343,90,101314,1,0,0:0:0:0:
199,220,101485,6,0,P|120:216|72:198,1,120.000004577637,8|0,0:0|0:0,0:0:0:0:
195,90,101828,2,0,P|217:122|226:158,1,60.0000022888184,8|0,0:0|0:0,0:0:0:0:
117,85,102000,2,0,P|141:34|208:12,1,120.000004577637,4|0,0:0|0:0,0:0:0:0:
298,75,102257,1,0,0:0:0:0:
298,75,102342,2,0,P|343:86|377:85,1,60.0000022888184,4|0,0:0|0:0,0:0:0:0:
474,57,102514,1,0,0:0:0:0:
230,22,102685,1,0,0:0:0:0:
213,60,102770,1,0,0:0:0:0:
218,101,102857,6,0,P|229:182|220:231,1,120.000004577637,8|0,0:0|0:0,0:0:0:0:
87,229,103200,2,0,P|145:206|179:206,1,60.0000022888184,8|0,0:0|0:0,0:0:0:0:
24,291,103371,2,0,B|4:238|4:238|18:150,1,120.000004577637,4|0,0:0|0:0,0:0:0:0:
218,101,103714,1,2,0:0:0:0:
148,289,103885,1,2,0:0:0:0:
120,118,104057,1,0,0:0:0:0:
308,188,104228,6,0,P|376:185|431:161,1,120.000004577637,8|0,0:0|0:0,0:0:0:0:
276,86,104571,2,0,P|241:149|241:159,1,60.0000022888184,8|0,0:0|0:0,0:0:0:0:
351,109,104743,2,0,P|341:43|294:9,1,120.000004577637,4|0,0:0|0:0,0:0:0:0:
194,65,105000,1,0,0:0:0:0:
194,65,105086,2,0,P|128:93|115:93,1,60.0000022888184,4|0,0:0|0:0,0:0:0:0:
21,74,105257,1,0,0:0:0:0:
116,220,105428,1,0,0:0:0:0:
157,227,105513,1,0,0:0:0:0:
198,235,105600,6,0,L|326:216,1,120.000004577637,8|0,0:0|0:0,0:0:0:0:
426,305,105942,2,0,P|364:274|347:258,1,60.0000022888184,8|0,0:0|0:0,0:0:0:0:
491,249,106114,2,0,P|508:315|482:372,1,120.000004577637,4|0,0:0|0:0,0:0:0:0:
317,330,106457,1,2,0:0:0:0:
198,235,106628,1,2,0:0:0:0:
370,166,106800,1,0,0:0:0:0:
210,342,106971,6,0,L|91:331,1,120.000004577637,8|0,0:0|0:0,0:0:0:0:
250,177,107314,2,0,L|369:166,1,120.000004577637,8|0,0:0|0:0,0:0:0:0:
219,103,107657,2,0,P|172:157|171:175,1,60.0000022888184,2|2,0:0|0:0,0:0:0:0:
201,240,107828,2,0,P|271:253|287:245,1,60.0000022888184,2|0,0:0|0:0,0:0:0:0:
292,72,108000,1,8,0:0:0:0:
104,213,108171,1,0,0:0:0:0:
425,301,108342,6,0,L|431:210,1,60.0000022888184,2|2,0:0|0:0,0:0:0:0:
440,120,108514,2,0,L|446:29,1,60.0000022888184,2|0,0:0|0:0,0:0:0:0:
292,72,108685,2,0,L|295:131,1,60.0000022888184,2|0,0:0|0:0,0:0:0:0:
307,253,108857,2,0,L|310:312,1,60.0000022888184,2|0,0:0|0:0,0:0:0:0:
206,321,109028,6,0,P|191:294|185:265,1,60.0000022888184,2|2,0:0|0:0,0:0:0:0:
239,151,109200,2,0,P|265:136|295:131,1,60.0000022888184,2|0,0:0|0:0,0:0:0:0:
409,186,109371,2,0,P|423:212|429:241,1,60.0000022888184,2|0,0:0|0:0,0:0:0:0:
375,355,109542,2,0,P|348:369|319:375,1,60.0000022888184,2|0,0:0|0:0,0:0:0:0:
155,181,109714,5,4,0:0:0:0:
