osu file format v14

[General]
AudioFilename: audio.mp3
AudioLeadIn: 0
PreviewTime: 44274
Countdown: 0
SampleSet: Soft
StackLeniency: 0.7
Mode: 3
LetterboxInBreaks: 0
SpecialStyle: 0
WidescreenStoryboard: 1

[Editor]
Bookmarks: 11171,22205
DistanceSpacing: 1
BeatDivisor: 4
GridSize: 32
TimelineZoom: 1.5

[Metadata]
Title:Lolisquad
TitleUnicode:Lolisquad
Artist:Shadren
ArtistUnicode:Shadren
Creator:SuzumeAyase
Version:Normal
Source:
Tags:FA Featured Artist Drum and Bass dnb dubstep halfstep electronic japanese kawaii loli anime instrumental
BeatmapID:4154773
BeatmapSetID:1998687

[Difficulty]
HPDrainRate:7
CircleSize:4
OverallDifficulty:7
ApproachRate:5
SliderMultiplier:1.4
SliderTickRate:1

[Events]
//Background and Video events
0,0,"loli.jpg",0,0
//Break Periods
//Storyboard Layer 0 (Background)
//Storyboard Layer 1 (Fail)
//Storyboard Layer 2 (Pass)
//Storyboard Layer 3 (Foreground)
//Storyboard Layer 4 (Overlay)
//Storyboard Sound Samples

[TimingPoints]
149,344.827586206897,4,2,1,30,1,0
44286,-100,4,2,1,30,0,1
46355,-100,4,2,1,30,0,0
47045,-100,4,2,1,30,0,1
49114,-100,4,2,1,30,0,0
49804,-100,4,2,1,30,0,1
51873,-100,4,2,1,30,0,0
52562,-100,4,2,1,30,0,1
53942,-100,4,2,1,30,0,0
88424,-100,4,2,1,30,0,1
90493,-100,4,2,1,30,0,0
91183,-100,4,2,1,30,0,1
93252,-100,4,2,1,30,0,0
93942,-100,4,2,1,30,0,1
96011,-100,4,2,1,30,0,0
96700,-100,4,2,1,30,0,1
98080,-100,4,2,1,30,0,0

[HitObjects]
64,192,149,128,0,321:0:0:0:0:
64,192,493,128,0,666:0:0:0:0:
320,192,1011,128,0,1183:0:0:0:0:
192,192,1183,128,0,1355:0:0:0:0:
448,192,1528,128,0,1700:0:0:0:0:
448,192,1873,128,0,2045:0:0:0:0:
448,192,2907,128,0,3080:0:0:0:0:
448,192,3252,128,0,3424:0:0:0:0:
192,192,3769,128,0,3942:0:0:0:0:
320,192,3942,128,0,4114:0:0:0:0:
64,192,4286,128,0,4459:0:0:0:0:
64,192,4631,128,0,4804:0:0:0:0:
320,192,5666,128,0,5838:0:0:0:0:
320,192,6011,128,0,6183:0:0:0:0:
64,192,6528,128,0,6700:0:0:0:0:
448,192,6700,128,0,6873:0:0:0:0:
192,192,7045,128,0,7217:0:0:0:0:
192,192,7390,128,0,7562:0:0:0:0:
192,192,8424,128,0,8597:0:0:0:0:
192,192,8769,128,0,8942:0:0:0:0:
448,192,9286,128,0,9459:0:0:0:0:
64,192,9459,128,0,9631:0:0:0:0:
320,192,9804,128,0,9976:0:0:0:0:
320,192,10149,128,0,10321:0:0:0:0:
192,192,10493,128,0,11183:0:0:0:0:
320,192,11183,1,0,0:0:0:0:
448,192,11183,1,0,0:0:0:0:
192,192,11528,1,0,0:0:0:0:
64,192,11528,1,0,0:0:0:0:
320,192,11873,1,0,0:0:0:0:
448,192,12045,1,0,0:0:0:0:
64,192,12045,1,0,0:0:0:0:
192,192,12217,1,0,0:0:0:0:
192,192,12390,1,0,0:0:0:0:
320,192,12562,1,0,0:0:0:0:
448,192,12562,1,0,0:0:0:0:
192,192,12907,1,0,0:0:0:0:
64,192,12907,1,0,0:0:0:0:
448,192,13252,1,0,0:0:0:0:
64,192,13424,1,0,0:0:0:0:
192,192,13424,1,0,0:0:0:0:
320,192,13597,1,0,0:0:0:0:
448,192,13769,1,0,0:0:0:0:
320,192,13769,1,0,0:0:0:0:
192,192,13942,1,0,0:0:0:0:
64,192,13942,1,0,0:0:0:0:
64,192,14286,1,0,0:0:0:0:
320,192,14286,1,0,0:0:0:0:
192,192,14631,1,0,0:0:0:0:
320,192,14804,1,0,0:0:0:0:
448,192,14804,1,0,0:0:0:0:
192,192,14976,1,0,0:0:0:0:
192,192,15149,1,0,0:0:0:0:
320,192,15321,1,0,0:0:0:0:
64,192,15321,1,0,0:0:0:0:
192,192,15666,1,0,0:0:0:0:
448,192,15666,1,0,0:0:0:0:
320,192,16011,1,0,0:0:0:0:
192,192,16183,1,0,0:0:0:0:
64,192,16183,1,0,0:0:0:0:
448,192,16355,1,0,0:0:0:0:
320,192,16528,1,0,0:0:0:0:
448,192,16528,1,0,0:0:0:0:
192,192,16700,1,0,0:0:0:0:
64,192,16700,1,0,0:0:0:0:
320,192,17045,1,0,0:0:0:0:
448,192,17045,1,0,0:0:0:0:
192,192,17390,1,0,0:0:0:0:
64,192,17562,1,0,0:0:0:0:
448,192,17562,1,0,0:0:0:0:
320,192,17735,1,0,0:0:0:0:
320,192,17907,1,0,0:0:0:0:
192,192,18080,1,0,0:0:0:0:
64,192,18080,1,0,0:0:0:0:
320,192,18424,1,0,0:0:0:0:
448,192,18424,1,0,0:0:0:0:
64,192,18769,1,0,0:0:0:0:
448,192,18942,1,0,0:0:0:0:
320,192,18942,1,0,0:0:0:0:
192,192,19114,1,0,0:0:0:0:
192,192,19286,1,0,0:0:0:0:
64,192,19286,1,0,0:0:0:0:
320,192,19459,1,0,0:0:0:0:
448,192,19459,1,0,0:0:0:0:
448,192,19804,1,0,0:0:0:0:
192,192,19804,1,0,0:0:0:0:
320,192,20149,1,0,0:0:0:0:
192,192,20321,1,0,0:0:0:0:
64,192,20321,1,0,0:0:0:0:
320,192,20493,1,0,0:0:0:0:
320,192,20666,1,0,0:0:0:0:
192,192,20838,1,0,0:0:0:0:
448,192,20838,1,0,0:0:0:0:
320,192,21183,1,0,0:0:0:0:
64,192,21183,1,0,0:0:0:0:
192,192,21528,1,0,0:0:0:0:
320,192,21700,1,0,0:0:0:0:
448,192,21700,1,0,0:0:0:0:
64,192,21873,1,0,0:0:0:0:
64,192,22045,1,0,0:0:0:0:
192,192,22045,1,0,0:0:0:0:
320,192,22217,1,0,0:0:0:0:
448,192,22217,1,0,0:0:0:0:
64,192,22390,1,0,0:0:0:0:
192,192,22562,1,0,0:0:0:0:
320,192,22735,1,0,0:0:0:0:
448,192,22907,1,0,0:0:0:0:
320,192,23252,1,0,0:0:0:0:
192,192,23424,1,0,0:0:0:0:
448,192,23597,1,0,0:0:0:0:
64,192,23769,1,0,0:0:0:0:
192,192,23942,1,0,0:0:0:0:
320,192,24114,1,0,0:0:0:0:
64,192,24631,1,0,0:0:0:0:
64,192,24804,1,0,0:0:0:0:
320,192,24976,1,0,0:0:0:0:
192,192,25149,1,0,0:0:0:0:
448,192,25321,1,0,0:0:0:0:
320,192,25493,1,0,0:0:0:0:
192,192,25666,1,0,0:0:0:0:
320,192,26011,1,0,0:0:0:0:
448,192,26183,1,0,0:0:0:0:
192,192,26355,1,0,0:0:0:0:
320,192,26528,1,0,0:0:0:0:
64,192,26700,1,0,0:0:0:0:
192,192,26873,1,0,0:0:0:0:
448,192,27045,1,0,0:0:0:0:
320,192,27735,1,0,0:0:0:0:
192,192,27907,1,0,0:0:0:0:
64,192,28080,1,0,0:0:0:0:
192,192,28252,1,0,0:0:0:0:
64,192,28769,1,0,0:0:0:0:
192,192,28942,1,0,0:0:0:0:
448,192,29114,1,0,0:0:0:0:
320,192,29286,1,0,0:0:0:0:
192,192,29459,1,0,0:0:0:0:
64,192,29631,1,0,0:0:0:0:
448,192,29804,1,0,0:0:0:0:
320,192,30149,1,0,0:0:0:0:
64,192,30493,1,0,0:0:0:0:
192,192,30666,1,0,0:0:0:0:
320,192,30838,1,0,0:0:0:0:
448,192,31011,1,0,0:0:0:0:
64,192,31183,1,0,0:0:0:0:
320,192,31528,1,0,0:0:0:0:
192,192,31700,1,0,0:0:0:0:
448,192,31873,1,0,0:0:0:0:
320,192,32045,1,0,0:0:0:0:
64,192,32217,1,0,0:0:0:0:
192,192,32390,1,0,0:0:0:0:
320,192,32562,128,0,33252:0:0:0:0:
64,192,33252,1,0,0:0:0:0:
192,192,33252,1,0,0:0:0:0:
448,192,33597,128,0,33769:0:0:0:0:
192,192,33769,1,0,0:0:0:0:
64,192,34114,128,0,34286:0:0:0:0:
320,192,34286,128,0,34631:0:0:0:0:
192,192,34459,1,0,0:0:0:0:
64,192,34631,1,0,0:0:0:0:
448,192,34631,128,0,34976:0:0:0:0:
192,192,34976,128,0,35321:0:0:0:0:
64,192,34976,1,0,0:0:0:0:
320,192,35321,1,0,0:0:0:0:
448,192,35493,1,0,0:0:0:0:
64,192,35493,1,0,0:0:0:0:
448,192,35838,1,0,0:0:0:0:
64,192,35838,1,0,0:0:0:0:
192,192,36011,128,0,36355:0:0:0:0:
320,192,36011,1,0,0:0:0:0:
448,192,36355,128,0,36528:0:0:0:0:
320,192,36355,1,0,0:0:0:0:
64,192,36528,128,0,36700:0:0:0:0:
320,192,36873,1,0,0:0:0:0:
448,192,36873,128,0,37045:0:0:0:0:
192,192,37045,128,0,37390:0:0:0:0:
64,192,37390,1,0,0:0:0:0:
448,192,37390,128,0,37735:0:0:0:0:
64,192,37735,128,0,38080:0:0:0:0:
320,192,37735,1,0,0:0:0:0:
192,192,38080,1,0,0:0:0:0:
448,192,38252,128,0,38424:0:0:0:0:
64,192,38252,1,0,0:0:0:0:
320,192,38424,128,0,38597:0:0:0:0:
192,192,38597,1,0,0:0:0:0:
448,192,38597,1,0,0:0:0:0:
64,192,38769,128,0,39114:0:0:0:0:
320,192,38769,1,0,0:0:0:0:
192,192,39114,1,0,0:0:0:0:
320,192,39114,128,0,39459:0:0:0:0:
448,192,39459,1,0,0:0:0:0:
64,192,39459,1,0,0:0:0:0:
192,192,39631,1,0,0:0:0:0:
64,192,39631,1,0,0:0:0:0:
320,192,39804,1,0,0:0:0:0:
448,192,39804,128,0,40149:0:0:0:0:
64,192,40149,1,0,0:0:0:0:
192,192,40149,128,0,40493:0:0:0:0:
448,192,40493,1,0,0:0:0:0:
320,192,40493,128,0,40838:0:0:0:0:
192,192,40838,1,0,0:0:0:0:
64,192,40838,1,0,0:0:0:0:
448,192,41011,128,0,41183:0:0:0:0:
64,192,41011,1,0,0:0:0:0:
192,192,41183,128,0,41355:0:0:0:0:
320,192,41355,1,0,0:0:0:0:
448,192,41355,1,0,0:0:0:0:
64,192,41528,1,0,0:0:0:0:
192,192,41528,1,0,0:0:0:0:
320,192,41700,1,0,0:0:0:0:
64,192,41873,1,0,0:0:0:0:
448,192,41873,1,0,0:0:0:0:
192,192,42045,1,0,0:0:0:0:
320,192,42217,1,0,0:0:0:0:
192,192,42390,1,0,0:0:0:0:
64,192,42390,1,0,0:0:0:0:
320,192,42562,1,0,0:0:0:0:
448,192,42562,128,0,42735:0:0:0:0:
192,192,42735,128,0,42907:0:0:0:0:
448,192,42907,1,0,0:0:0:0:
64,192,42907,128,0,43080:0:0:0:0:
320,192,43080,128,0,43252:0:0:0:0:
192,192,43252,128,0,43424:0:0:0:0:
64,192,43252,1,0,0:0:0:0:
448,192,43424,128,0,43597:0:0:0:0:
64,192,43597,128,0,43769:0:0:0:0:
320,192,43769,128,0,43942:0:0:0:0:
448,192,43769,1,0,0:0:0:0:
192,192,43942,128,0,44114:0:0:0:0:
448,192,44114,128,0,44286:0:0:0:0:
320,192,44114,1,0,0:0:0:0:
192,192,44286,1,0,0:0:0:0:
64,192,44286,1,0,0:0:0:0:
320,192,44631,1,0,0:0:0:0:
448,192,44631,1,0,0:0:0:0:
192,192,44976,1,0,0:0:0:0:
320,192,45149,1,0,0:0:0:0:
448,192,45149,1,0,0:0:0:0:
192,192,45321,1,0,0:0:0:0:
64,192,45321,1,0,0:0:0:0:
64,192,45666,1,0,0:0:0:0:
448,192,45666,1,0,0:0:0:0:
192,192,46011,1,0,0:0:0:0:
320,192,46011,1,0,0:0:0:0:
64,192,46269,1,0,0:0:0:0:
448,192,46355,1,0,0:0:0:0:
320,192,46528,1,0,0:0:0:0:
192,192,46700,1,0,0:0:0:0:
64,192,46873,1,0,0:0:0:0:
320,192,47045,1,0,0:0:0:0:
448,192,47045,1,0,0:0:0:0:
192,192,47390,1,0,0:0:0:0:
64,192,47390,1,0,0:0:0:0:
320,192,47735,1,0,0:0:0:0:
192,192,47907,1,0,0:0:0:0:
64,192,47907,1,0,0:0:0:0:
320,192,48080,1,0,0:0:0:0:
448,192,48080,1,0,0:0:0:0:
64,192,48424,1,0,0:0:0:0:
448,192,48424,1,0,0:0:0:0:
320,192,48769,1,0,0:0:0:0:
192,192,48769,1,0,0:0:0:0:
448,192,49028,1,0,0:0:0:0:
64,192,49114,1,0,0:0:0:0:
64,192,49286,1,0,0:0:0:0:
320,192,49459,1,0,0:0:0:0:
320,192,49631,1,0,0:0:0:0:
448,192,49804,1,0,0:0:0:0:
64,192,49804,1,0,0:0:0:0:
192,192,50149,1,0,0:0:0:0:
320,192,50149,1,0,0:0:0:0:
64,192,50493,1,0,0:0:0:0:
320,192,50666,1,0,0:0:0:0:
448,192,50666,1,0,0:0:0:0:
192,192,50838,1,0,0:0:0:0:
64,192,50838,1,0,0:0:0:0:
320,192,51183,1,0,0:0:0:0:
448,192,51183,1,0,0:0:0:0:
192,192,51528,1,0,0:0:0:0:
64,192,51528,1,0,0:0:0:0:
448,192,51873,1,0,0:0:0:0:
192,192,52045,1,0,0:0:0:0:
320,192,52217,1,0,0:0:0:0:
64,192,52390,1,0,0:0:0:0:
320,192,52562,1,0,0:0:0:0:
448,192,52562,1,0,0:0:0:0:
64,192,52907,1,0,0:0:0:0:
192,192,52907,1,0,0:0:0:0:
448,192,53166,1,0,0:0:0:0:
64,192,53166,1,0,0:0:0:0:
192,192,53424,1,0,0:0:0:0:
320,192,53597,1,0,0:0:0:0:
448,192,53597,1,0,0:0:0:0:
192,192,53942,1,0,0:0:0:0:
64,192,53942,1,0,0:0:0:0:
320,192,54114,1,0,0:0:0:0:
448,192,54286,1,0,0:0:0:0:
64,192,54286,1,0,0:0:0:0:
192,192,54459,1,0,0:0:0:0:
320,192,54631,1,0,0:0:0:0:
448,192,54631,128,0,54804:0:0:0:0:
192,192,54804,128,0,54976:0:0:0:0:
320,192,54976,128,0,55149:0:0:0:0:
64,192,55149,128,0,55321:0:0:0:0:
192,192,55321,1,0,0:0:0:0:
448,192,55321,1,0,0:0:0:0:
320,192,55666,1,0,0:0:0:0:
192,192,55838,1,0,0:0:0:0:
64,192,55838,1,0,0:0:0:0:
320,192,56011,1,0,0:0:0:0:
448,192,56011,1,0,0:0:0:0:
192,192,56355,128,0,56528:0:0:0:0:
64,192,56528,1,0,0:0:0:0:
448,192,56528,1,0,0:0:0:0:
320,192,56700,128,0,56873:0:0:0:0:
320,192,57045,128,0,57217:0:0:0:0:
64,192,57045,1,0,0:0:0:0:
192,192,57390,1,0,0:0:0:0:
448,192,57390,1,0,0:0:0:0:
64,192,57735,128,0,57907:0:0:0:0:
448,192,57735,128,0,57907:0:0:0:0:
192,192,58080,1,0,0:0:0:0:
64,192,58080,128,0,58252:0:0:0:0:
320,192,58252,128,0,58424:0:0:0:0:
192,192,58424,128,0,58597:0:0:0:0:
448,192,58597,128,0,58769:0:0:0:0:
192,192,58769,1,0,0:0:0:0:
64,192,58769,1,0,0:0:0:0:
320,192,59028,1,0,0:0:0:0:
448,192,59028,1,0,0:0:0:0:
192,192,59286,1,0,0:0:0:0:
64,192,59286,1,0,0:0:0:0:
448,192,59459,128,0,59631:0:0:0:0:
192,192,59631,128,0,59804:0:0:0:0:
320,192,59804,128,0,59976:0:0:0:0:
64,192,59976,128,0,60149:0:0:0:0:
320,192,60149,1,0,0:0:0:0:
448,192,60149,1,0,0:0:0:0:
448,192,60321,1,0,0:0:0:0:
192,192,60493,128,0,60838:0:0:0:0:
320,192,60838,1,0,0:0:0:0:
448,192,60838,1,0,0:0:0:0:
64,192,61183,1,0,0:0:0:0:
448,192,61355,1,0,0:0:0:0:
320,192,61355,1,0,0:0:0:0:
64,192,61528,1,0,0:0:0:0:
192,192,61528,1,0,0:0:0:0:
320,192,61873,128,0,62045:0:0:0:0:
64,192,62045,1,0,0:0:0:0:
448,192,62045,1,0,0:0:0:0:
192,192,62217,128,0,62390:0:0:0:0:
448,192,62562,1,0,0:0:0:0:
192,192,62562,128,0,62735:0:0:0:0:
64,192,62907,1,0,0:0:0:0:
320,192,62907,1,0,0:0:0:0:
64,192,63080,1,0,0:0:0:0:
192,192,63252,1,0,0:0:0:0:
192,192,63424,128,0,63597:0:0:0:0:
320,192,63597,1,0,0:0:0:0:
448,192,63597,1,0,0:0:0:0:
64,192,63942,1,0,0:0:0:0:
320,192,64114,1,0,0:0:0:0:
448,192,64114,1,0,0:0:0:0:
192,192,64286,1,0,0:0:0:0:
64,192,64286,1,0,0:0:0:0:
320,192,64545,1,0,0:0:0:0:
448,192,64545,1,0,0:0:0:0:
192,192,64804,1,0,0:0:0:0:
64,192,64804,1,0,0:0:0:0:
448,192,64976,1,0,0:0:0:0:
320,192,65149,1,0,0:0:0:0:
192,192,65321,1,0,0:0:0:0:
64,192,65493,1,0,0:0:0:0:
320,192,65666,1,0,0:0:0:0:
448,192,65666,128,0,65838:0:0:0:0:
192,192,65838,128,0,66011:0:0:0:0:
320,192,66011,128,0,66183:0:0:0:0:
64,192,66183,128,0,66355:0:0:0:0:
320,192,66355,1,0,0:0:0:0:
448,192,66355,1,0,0:0:0:0:
64,192,66528,1,0,0:0:0:0:
192,192,66700,1,0,0:0:0:0:
320,192,66873,1,0,0:0:0:0:
448,192,67045,1,0,0:0:0:0:
192,192,67390,1,0,0:0:0:0:
320,192,67562,1,0,0:0:0:0:
64,192,67735,1,0,0:0:0:0:
448,192,67907,1,0,0:0:0:0:
320,192,68080,1,0,0:0:0:0:
192,192,68252,1,0,0:0:0:0:
64,192,68424,1,0,0:0:0:0:
448,192,68769,1,0,0:0:0:0:
192,192,68942,1,0,0:0:0:0:
320,192,69114,1,0,0:0:0:0:
64,192,69286,1,0,0:0:0:0:
192,192,69459,1,0,0:0:0:0:
320,192,69631,1,0,0:0:0:0:
448,192,69804,1,0,0:0:0:0:
192,192,70149,1,0,0:0:0:0:
64,192,70321,1,0,0:0:0:0:
320,192,70493,1,0,0:0:0:0:
192,192,70666,1,0,0:0:0:0:
448,192,70838,1,0,0:0:0:0:
320,192,71011,1,0,0:0:0:0:
64,192,71183,1,0,0:0:0:0:
448,192,71528,1,0,0:0:0:0:
64,192,71700,1,0,0:0:0:0:
192,192,71873,1,0,0:0:0:0:
320,192,72045,1,0,0:0:0:0:
448,192,72217,1,0,0:0:0:0:
320,192,72390,1,0,0:0:0:0:
192,192,72562,1,0,0:0:0:0:
448,192,72907,1,0,0:0:0:0:
320,192,73080,1,0,0:0:0:0:
64,192,73252,1,0,0:0:0:0:
192,192,73424,1,0,0:0:0:0:
320,192,73597,1,0,0:0:0:0:
448,192,73769,1,0,0:0:0:0:
64,192,73942,1,0,0:0:0:0:
320,192,74286,1,0,0:0:0:0:
192,192,74459,1,0,0:0:0:0:
448,192,74631,1,0,0:0:0:0:
320,192,74804,1,0,0:0:0:0:
192,192,74976,1,0,0:0:0:0:
64,192,75149,1,0,0:0:0:0:
448,192,75321,1,0,0:0:0:0:
192,192,75666,1,0,0:0:0:0:
320,192,75838,1,0,0:0:0:0:
64,192,76011,1,0,0:0:0:0:
192,192,76183,1,0,0:0:0:0:
448,192,76355,1,0,0:0:0:0:
320,192,76528,1,0,0:0:0:0:
192,192,76700,128,0,77390:0:0:0:0:
64,192,77045,1,0,0:0:0:0:
448,192,77390,1,0,0:0:0:0:
320,192,77390,1,0,0:0:0:0:
64,192,77735,128,0,77907:0:0:0:0:
320,192,77907,1,0,0:0:0:0:
448,192,78252,128,0,78424:0:0:0:0:
192,192,78424,128,0,78769:0:0:0:0:
320,192,78597,1,0,0:0:0:0:
448,192,78769,1,0,0:0:0:0:
64,192,78769,128,0,79114:0:0:0:0:
320,192,79114,128,0,79459:0:0:0:0:
192,192,79459,1,0,0:0:0:0:
64,192,79631,1,0,0:0:0:0:
448,192,79631,1,0,0:0:0:0:
64,192,79976,1,0,0:0:0:0:
448,192,79976,1,0,0:0:0:0:
320,192,80149,128,0,80493:0:0:0:0:
192,192,80149,1,0,0:0:0:0:
64,192,80493,128,0,80666:0:0:0:0:
192,192,80493,1,0,0:0:0:0:
448,192,80666,128,0,80838:0:0:0:0:
192,192,81011,1,0,0:0:0:0:
64,192,81011,128,0,81183:0:0:0:0:
320,192,81183,128,0,81528:0:0:0:0:
448,192,81528,1,0,0:0:0:0:
64,192,81528,128,0,81873:0:0:0:0:
448,192,81873,128,0,82217:0:0:0:0:
192,192,81873,1,0,0:0:0:0:
320,192,82217,1,0,0:0:0:0:
64,192,82390,128,0,82562:0:0:0:0:
448,192,82390,1,0,0:0:0:0:
192,192,82562,128,0,82735:0:0:0:0:
320,192,82735,1,0,0:0:0:0:
64,192,82735,1,0,0:0:0:0:
448,192,82907,128,0,83252:0:0:0:0:
192,192,82907,1,0,0:0:0:0:
320,192,83252,1,0,0:0:0:0:
192,192,83252,128,0,83597:0:0:0:0:
64,192,83597,1,0,0:0:0:0:
448,192,83597,1,0,0:0:0:0:
320,192,83769,1,0,0:0:0:0:
448,192,83769,1,0,0:0:0:0:
192,192,83942,1,0,0:0:0:0:
64,192,83942,128,0,84286:0:0:0:0:
448,192,84286,1,0,0:0:0:0:
320,192,84286,128,0,84631:0:0:0:0:
64,192,84631,1,0,0:0:0:0:
192,192,84631,128,0,84976:0:0:0:0:
320,192,84976,1,0,0:0:0:0:
448,192,84976,1,0,0:0:0:0:
64,192,85149,128,0,85321:0:0:0:0:
448,192,85149,1,0,0:0:0:0:
192,192,85321,128,0,85493:0:0:0:0:
320,192,85493,1,0,0:0:0:0:
448,192,85493,1,0,0:0:0:0:
448,192,85666,1,0,0:0:0:0:
64,192,85666,1,0,0:0:0:0:
192,192,85838,1,0,0:0:0:0:
320,192,86011,1,0,0:0:0:0:
448,192,86011,1,0,0:0:0:0:
64,192,86183,1,0,0:0:0:0:
192,192,86355,1,0,0:0:0:0:
320,192,86528,1,0,0:0:0:0:
448,192,86528,1,0,0:0:0:0:
192,192,86700,1,0,0:0:0:0:
64,192,86700,128,0,86873:0:0:0:0:
320,192,86873,128,0,87045:0:0:0:0:
64,192,87045,1,0,0:0:0:0:
448,192,87045,128,0,87217:0:0:0:0:
192,192,87217,128,0,87390:0:0:0:0:
320,192,87390,128,0,87562:0:0:0:0:
448,192,87390,1,0,0:0:0:0:
64,192,87562,128,0,87735:0:0:0:0:
448,192,87735,128,0,87907:0:0:0:0:
192,192,87907,128,0,88080:0:0:0:0:
64,192,87907,1,0,0:0:0:0:
320,192,88080,128,0,88252:0:0:0:0:
64,192,88252,128,0,88424:0:0:0:0:
192,192,88252,1,0,0:0:0:0:
320,192,88424,1,0,0:0:0:0:
448,192,88424,1,0,0:0:0:0:
192,192,88769,1,0,0:0:0:0:
64,192,88769,1,0,0:0:0:0:
320,192,89114,1,0,0:0:0:0:
192,192,89286,1,0,0:0:0:0:
64,192,89286,1,0,0:0:0:0:
320,192,89459,1,0,0:0:0:0:
448,192,89459,1,0,0:0:0:0:
448,192,89804,1,0,0:0:0:0:
64,192,89804,1,0,0:0:0:0:
320,192,90149,1,0,0:0:0:0:
192,192,90149,1,0,0:0:0:0:
448,192,90407,1,0,0:0:0:0:
64,192,90493,1,0,0:0:0:0:
192,192,90666,1,0,0:0:0:0:
320,192,90838,1,0,0:0:0:0:
448,192,91011,1,0,0:0:0:0:
192,192,91183,1,0,0:0:0:0:
64,192,91183,1,0,0:0:0:0:
320,192,91528,1,0,0:0:0:0:
448,192,91528,1,0,0:0:0:0:
192,192,91873,1,0,0:0:0:0:
320,192,92045,1,0,0:0:0:0:
448,192,92045,1,0,0:0:0:0:
192,192,92217,1,0,0:0:0:0:
64,192,92217,1,0,0:0:0:0:
448,192,92562,1,0,0:0:0:0:
64,192,92562,1,0,0:0:0:0:
192,192,92907,1,0,0:0:0:0:
320,192,92907,1,0,0:0:0:0:
64,192,93166,1,0,0:0:0:0:
448,192,93252,1,0,0:0:0:0:
448,192,93424,1,0,0:0:0:0:
192,192,93597,1,0,0:0:0:0:
192,192,93769,1,0,0:0:0:0:
64,192,93942,1,0,0:0:0:0:
448,192,93942,1,0,0:0:0:0:
320,192,94286,1,0,0:0:0:0:
192,192,94286,1,0,0:0:0:0:
448,192,94631,1,0,0:0:0:0:
192,192,94804,1,0,0:0:0:0:
64,192,94804,1,0,0:0:0:0:
320,192,94976,1,0,0:0:0:0:
448,192,94976,1,0,0:0:0:0:
192,192,95321,1,0,0:0:0:0:
64,192,95321,1,0,0:0:0:0:
320,192,95666,1,0,0:0:0:0:
448,192,95666,1,0,0:0:0:0:
64,192,96011,1,0,0:0:0:0:
320,192,96183,1,0,0:0:0:0:
192,192,96355,1,0,0:0:0:0:
448,192,96528,1,0,0:0:0:0:
192,192,96700,1,0,0:0:0:0:
64,192,96700,1,0,0:0:0:0:
448,192,97045,1,0,0:0:0:0:
320,192,97045,1,0,0:0:0:0:
64,192,97304,1,0,0:0:0:0:
448,192,97304,1,0,0:0:0:0:
320,192,97562,1,0,0:0:0:0:
192,192,97735,1,0,0:0:0:0:
64,192,97735,1,0,0:0:0:0:
320,192,98080,1,0,0:0:0:0:
448,192,98080,1,0,0:0:0:0:
192,192,98252,1,0,0:0:0:0:
64,192,98424,1,0,0:0:0:0:
448,192,98424,1,0,0:0:0:0:
320,192,98597,1,0,0:0:0:0:
192,192,98769,1,0,0:0:0:0:
64,192,98769,128,0,98942:0:0:0:0:
320,192,98942,128,0,99114:0:0:0:0:
192,192,99114,128,0,99286:0:0:0:0:
448,192,99286,128,0,99459:0:0:0:0:
320,192,99459,1,0,0:0:0:0:
64,192,99459,1,0,0:0:0:0:
192,192,99804,1,0,0:0:0:0:
320,192,99976,1,0,0:0:0:0:
448,192,99976,1,0,0:0:0:0:
192,192,100149,1,0,0:0:0:0:
64,192,100149,1,0,0:0:0:0:
320,192,100493,128,0,100666:0:0:0:0:
448,192,100666,1,0,0:0:0:0:
64,192,100666,1,0,0:0:0:0:
192,192,100838,128,0,101011:0:0:0:0:
192,192,101183,128,0,101355:0:0:0:0:
448,192,101183,1,0,0:0:0:0:
320,192,101528,1,0,0:0:0:0:
64,192,101528,1,0,0:0:0:0:
64,192,101873,128,0,102045:0:0:0:0:
448,192,101873,128,0,102045:0:0:0:0:
320,192,102217,1,0,0:0:0:0:
448,192,102217,128,0,102390:0:0:0:0:
192,192,102390,128,0,102562:0:0:0:0:
320,192,102562,128,0,102735:0:0:0:0:
64,192,102735,128,0,102907:0:0:0:0:
320,192,102907,1,0,0:0:0:0:
448,192,102907,1,0,0:0:0:0:
192,192,103166,1,0,0:0:0:0:
64,192,103166,1,0,0:0:0:0:
320,192,103424,1,0,0:0:0:0:
448,192,103424,1,0,0:0:0:0:
64,192,103597,128,0,103769:0:0:0:0:
320,192,103769,128,0,103942:0:0:0:0:
192,192,103942,128,0,104114:0:0:0:0:
448,192,104114,128,0,104286:0:0:0:0:
192,192,104286,1,0,0:0:0:0:
64,192,104286,1,0,0:0:0:0:
64,192,104459,1,0,0:0:0:0:
320,192,104631,128,0,104976:0:0:0:0:
192,192,104976,1,0,0:0:0:0:
64,192,104976,1,0,0:0:0:0:
448,192,105321,1,0,0:0:0:0:
64,192,105493,1,0,0:0:0:0:
192,192,105493,1,0,0:0:0:0:
448,192,105666,1,0,0:0:0:0:
320,192,105666,1,0,0:0:0:0:
192,192,106011,128,0,106183:0:0:0:0:
448,192,106183,1,0,0:0:0:0:
64,192,106183,1,0,0:0:0:0:
320,192,106355,128,0,106528:0:0:0:0:
64,192,106700,1,0,0:0:0:0:
320,192,106700,128,0,106873:0:0:0:0:
448,192,107045,1,0,0:0:0:0:
192,192,107045,1,0,0:0:0:0:
448,192,107217,1,0,0:0:0:0:
320,192,107390,1,0,0:0:0:0:
320,192,107562,128,0,107735:0:0:0:0:
192,192,107735,1,0,0:0:0:0:
64,192,107735,1,0,0:0:0:0:
448,192,108080,1,0,0:0:0:0:
192,192,108252,1,0,0:0:0:0:
64,192,108252,1,0,0:0:0:0:
320,192,108424,1,0,0:0:0:0:
448,192,108424,1,0,0:0:0:0:
192,192,108683,1,0,0:0:0:0:
64,192,108683,1,0,0:0:0:0:
320,192,108942,1,0,0:0:0:0:
448,192,108942,1,0,0:0:0:0:
64,192,109114,1,0,0:0:0:0:
192,192,109286,1,0,0:0:0:0:
320,192,109459,1,0,0:0:0:0:
448,192,109631,1,0,0:0:0:0:
192,192,109804,1,0,0:0:0:0:
64,192,109804,128,0,109976:0:0:0:0:
320,192,109976,128,0,110149:0:0:0:0:
192,192,110149,128,0,110321:0:0:0:0:
448,192,110321,128,0,110493:0:0:0:0:
192,192,110493,1,0,0:0:0:0:
64,192,110493,1,0,0:0:0:0:
320,192,110838,1,0,0:0:0:0:
192,192,111011,1,0,0:0:0:0:
64,192,111011,1,0,0:0:0:0:
320,192,111183,1,0,0:0:0:0:
448,192,111183,1,0,0:0:0:0:
192,192,111528,1,0,0:0:0:0:
64,192,111700,1,0,0:0:0:0:
448,192,111700,1,0,0:0:0:0:
320,192,111873,1,0,0:0:0:0:
192,192,112045,1,0,0:0:0:0:
64,192,112217,1,0,0:0:0:0:
448,192,112217,1,0,0:0:0:0:
320,192,112390,1,0,0:0:0:0:
192,192,112562,1,0,0:0:0:0:
64,192,112562,1,0,0:0:0:0:
320,192,112907,1,0,0:0:0:0:
448,192,112907,1,0,0:0:0:0:
64,192,113252,1,0,0:0:0:0:
448,192,113252,1,0,0:0:0:0:
192,192,113597,1,0,0:0:0:0:
320,192,113769,1,0,0:0:0:0:
448,192,113769,1,0,0:0:0:0:
192,192,113942,1,0,0:0:0:0:
64,192,113942,1,0,0:0:0:0:
64,192,114200,1,0,0:0:0:0:
320,192,114200,1,0,0:0:0:0:
192,192,114459,1,0,0:0:0:0:
448,192,114459,1,0,0:0:0:0:
320,192,114631,1,0,0:0:0:0:
64,192,114804,1,0,0:0:0:0:
192,192,114976,1,0,0:0:0:0:
320,192,115149,1,0,0:0:0:0:
448,192,115149,1,0,0:0:0:0:
192,192,115321,1,0,0:0:0:0:
64,192,115321,1,0,0:0:0:0:
64,192,115666,1,0,0:0:0:0:
448,192,115666,1,0,0:0:0:0:
320,192,116011,1,0,0:0:0:0:
448,192,116011,1,0,0:0:0:0:
192,192,116355,1,0,0:0:0:0:
320,192,116528,1,0,0:0:0:0:
448,192,116528,1,0,0:0:0:0:
192,192,116700,1,0,0:0:0:0:
64,192,116700,1,0,0:0:0:0:
320,192,117045,1,0,0:0:0:0:
448,192,117217,1,0,0:0:0:0:
64,192,117217,1,0,0:0:0:0:
192,192,117390,1,0,0:0:0:0:
320,192,117562,1,0,0:0:0:0:
448,192,117735,1,0,0:0:0:0:
64,192,117735,1,0,0:0:0:0:
192,192,117907,1,0,0:0:0:0:
320,192,118080,1,0,0:0:0:0:
448,192,118080,1,0,0:0:0:0:
192,192,118424,1,0,0:0:0:0:
64,192,118424,1,0,0:0:0:0:
448,192,118769,1,0,0:0:0:0:
64,192,118769,1,0,0:0:0:0:
320,192,119114,1,0,0:0:0:0:
192,192,119286,1,0,0:0:0:0:
64,192,119286,1,0,0:0:0:0:
320,192,119459,1,0,0:0:0:0:
448,192,119459,1,0,0:0:0:0:
448,192,119717,1,0,0:0:0:0:
192,192,119717,1,0,0:0:0:0:
320,192,119976,1,0,0:0:0:0:
64,192,119976,1,0,0:0:0:0:
192,192,120149,1,0,0:0:0:0:
448,192,120321,1,0,0:0:0:0:
320,192,120493,1,0,0:0:0:0:
192,192,120666,1,0,0:0:0:0:
64,192,120666,1,0,0:0:0:0:
320,192,120838,1,0,0:0:0:0:
448,192,120838,1,0,0:0:0:0:
448,192,121183,1,0,0:0:0:0:
64,192,121183,1,0,0:0:0:0:
192,192,121528,1,0,0:0:0:0:
64,192,121528,1,0,0:0:0:0:
320,192,121873,1,0,0:0:0:0:
192,192,122045,1,0,0:0:0:0:
64,192,122045,1,0,0:0:0:0:
320,192,122217,1,0,0:0:0:0:
448,192,122217,1,0,0:0:0:0:
64,192,122390,128,0,122562:0:0:0:0:
448,192,122562,128,0,122735:0:0:0:0:
192,192,122735,1,0,0:0:0:0:
64,192,122735,1,0,0:0:0:0:
320,192,122907,128,0,123080:0:0:0:0:
320,192,123252,128,0,123424:0:0:0:0:
64,192,123252,1,0,0:0:0:0:
192,192,123597,1,0,0:0:0:0:
448,192,123597,1,0,0:0:0:0:
448,192,123942,1,0,0:0:0:0:
64,192,123942,1,0,0:0:0:0:
320,192,124286,1,0,0:0:0:0:
64,192,124286,1,0,0:0:0:0:
192,192,124631,1,0,0:0:0:0:
320,192,124804,1,0,0:0:0:0:
448,192,124804,1,0,0:0:0:0:
192,192,124976,1,0,0:0:0:0:
64,192,124976,1,0,0:0:0:0:
320,192,125235,1,0,0:0:0:0:
448,192,125235,1,0,0:0:0:0:
192,192,125493,1,0,0:0:0:0:
64,192,125493,1,0,0:0:0:0:
448,192,125666,128,0,125838:0:0:0:0:
448,192,126011,128,0,126183:0:0:0:0:
64,192,126183,1,0,0:0:0:0:
192,192,126183,1,0,0:0:0:0:
320,192,126355,1,0,0:0:0:0:
448,192,126355,1,0,0:0:0:0:
320,192,126700,1,0,0:0:0:0:
192,192,126700,1,0,0:0:0:0:
192,192,127045,1,0,0:0:0:0:
64,192,127045,1,0,0:0:0:0:
320,192,127390,1,0,0:0:0:0:
192,192,127562,1,0,0:0:0:0:
64,192,127562,1,0,0:0:0:0:
320,192,127735,1,0,0:0:0:0:
448,192,127735,1,0,0:0:0:0:
64,192,127907,128,0,128080:0:0:0:0:
448,192,128080,128,0,128252:0:0:0:0:
192,192,128252,1,0,0:0:0:0:
64,192,128252,1,0,0:0:0:0:
320,192,128424,128,0,128597:0:0:0:0:
320,192,128769,128,0,128942:0:0:0:0:
64,192,128769,1,0,0:0:0:0:
192,192,129114,1,0,0:0:0:0:
448,192,129114,1,0,0:0:0:0:
448,192,129459,1,0,0:0:0:0:
64,192,129459,1,0,0:0:0:0:
320,192,129804,1,0,0:0:0:0:
64,192,129804,1,0,0:0:0:0:
192,192,130149,1,0,0:0:0:0:
320,192,130321,1,0,0:0:0:0:
448,192,130321,1,0,0:0:0:0:
64,192,130493,1,0,0:0:0:0:
192,192,130493,1,0,0:0:0:0:
320,192,130752,1,0,0:0:0:0:
448,192,130752,1,0,0:0:0:0:
192,192,131011,1,0,0:0:0:0:
64,192,131011,1,0,0:0:0:0:
448,192,131183,128,0,131355:0:0:0:0:
448,192,131528,128,0,131700:0:0:0:0:
192,192,131700,1,0,0:0:0:0:
64,192,131700,1,0,0:0:0:0:
320,192,131873,1,0,0:0:0:0:
448,192,131873,1,0,0:0:0:0:
192,192,132217,1,0,0:0:0:0:
320,192,132217,1,0,0:0:0:0:
64,192,132562,1,0,0:0:0:0:
192,192,132562,1,0,0:0:0:0:
