osu file format v14

[General]
AudioFilename: audio.mp3
AudioLeadIn: 0
PreviewTime: 44274
Countdown: 0
SampleSet: Soft
StackLeniency: 0.7
Mode: 3
LetterboxInBreaks: 0
SpecialStyle: 0
WidescreenStoryboard: 0

[Editor]
DistanceSpacing: 1
BeatDivisor: 4
GridSize: 32
TimelineZoom: 1.7

[Metadata]
Title:Lolisquad
TitleUnicode:Lolisquad
Artist:Shadren
ArtistUnicode:Shadren
Creator:SuzumeAyase
Version:Loli Eternity
Source:
Tags:FA Featured Artist Drum and Bass dnb dubstep halfstep electronic japanese kawaii loli anime instrumental
BeatmapID:4154772
BeatmapSetID:1998687

[Difficulty]
HPDrainRate:8
CircleSize:4
OverallDifficulty:8
ApproachRate:5
SliderMultiplier:1.4
SliderTickRate:1

[Events]
//Background and Video events
0,0,"loli.jpg",0,0
//Break Periods
//Storyboard Layer 0 (Background)
//Storyboard Layer 1 (Fail)
//Storyboard Layer 2 (Pass)
//Storyboard Layer 3 (Foreground)
//Storyboard Layer 4 (Overlay)
//Storyboard Sound Samples

[TimingPoints]
149,344.827586206897,4,2,1,30,1,0
44286,-100,4,2,1,30,0,1
46355,-100,4,2,1,30,0,0
47045,-100,4,2,1,30,0,1
49114,-100,4,2,1,30,0,0
49804,-100,4,2,1,30,0,1
51873,-100,4,2,1,30,0,0
52562,-100,4,2,1,30,0,1
53942,-100,4,2,1,30,0,0
88424,-100,4,2,1,30,0,1
90493,-100,4,2,1,30,0,0
91183,-100,4,2,1,30,0,1
93252,-100,4,2,1,30,0,0
93942,-100,4,2,1,30,0,1
96011,-100,4,2,1,30,0,0
96700,-100,4,2,1,30,0,1
98080,-100,4,2,1,30,0,0

[HitObjects]
64,192,149,128,0,321:0:0:0:0:
320,192,149,128,0,321:0:0:0:0:
448,192,149,128,0,321:0:0:0:0:
64,192,493,128,0,666:0:0:0:0:
320,192,493,128,0,666:0:0:0:0:
448,192,493,128,0,666:0:0:0:0:
192,192,1011,128,0,1355:0:0:0:0:
64,192,1183,128,0,1355:0:0:0:0:
320,192,1183,128,0,1355:0:0:0:0:
448,192,1183,128,0,1355:0:0:0:0:
192,192,1528,128,0,1700:0:0:0:0:
64,192,1528,128,0,1700:0:0:0:0:
448,192,1528,128,0,1700:0:0:0:0:
192,192,1873,128,0,2045:0:0:0:0:
64,192,1873,128,0,2045:0:0:0:0:
448,192,1873,128,0,2045:0:0:0:0:
192,192,2907,128,0,3080:0:0:0:0:
320,192,2907,128,0,3080:0:0:0:0:
448,192,2907,128,0,3080:0:0:0:0:
320,192,3252,128,0,3424:0:0:0:0:
448,192,3252,128,0,3424:0:0:0:0:
192,192,3252,128,0,3424:0:0:0:0:
64,192,3769,128,0,4114:0:0:0:0:
192,192,3942,128,0,4114:0:0:0:0:
320,192,3942,128,0,4114:0:0:0:0:
448,192,3942,128,0,4114:0:0:0:0:
64,192,4286,128,0,4459:0:0:0:0:
192,192,4286,128,0,4459:0:0:0:0:
320,192,4286,128,0,4459:0:0:0:0:
320,192,4631,128,0,4804:0:0:0:0:
192,192,4631,128,0,4804:0:0:0:0:
64,192,4631,128,0,4804:0:0:0:0:
448,192,5666,128,0,5838:0:0:0:0:
320,192,5666,128,0,5838:0:0:0:0:
64,192,5666,128,0,5838:0:0:0:0:
448,192,6011,128,0,6183:0:0:0:0:
320,192,6011,128,0,6183:0:0:0:0:
64,192,6011,128,0,6183:0:0:0:0:
192,192,6528,128,0,6873:0:0:0:0:
448,192,6700,128,0,6873:0:0:0:0:
320,192,6700,128,0,6873:0:0:0:0:
64,192,6700,128,0,6873:0:0:0:0:
64,192,7045,128,0,7217:0:0:0:0:
448,192,7045,128,0,7217:0:0:0:0:
320,192,7045,128,0,7217:0:0:0:0:
64,192,7390,128,0,7562:0:0:0:0:
448,192,7390,128,0,7562:0:0:0:0:
320,192,7390,128,0,7562:0:0:0:0:
192,192,7735,128,0,11183:0:0:0:0:
64,192,8424,128,0,8597:0:0:0:0:
320,192,8424,128,0,8597:0:0:0:0:
448,192,8424,128,0,8597:0:0:0:0:
320,192,8769,128,0,8942:0:0:0:0:
64,192,8769,128,0,8942:0:0:0:0:
448,192,8769,128,0,8942:0:0:0:0:
448,192,9286,128,0,9631:0:0:0:0:
64,192,9459,128,0,9631:0:0:0:0:
320,192,9459,128,0,9631:0:0:0:0:
320,192,9804,128,0,9976:0:0:0:0:
448,192,9804,128,0,9976:0:0:0:0:
64,192,9804,128,0,9976:0:0:0:0:
448,192,10149,128,0,10321:0:0:0:0:
320,192,10149,128,0,10321:0:0:0:0:
64,192,10149,128,0,10321:0:0:0:0:
320,192,10493,128,0,11183:0:0:0:0:
64,192,11183,1,0,0:0:0:0:
448,192,11183,1,0,0:0:0:0:
320,192,11355,1,0,0:0:0:0:
64,192,11528,1,0,0:0:0:0:
192,192,11528,1,0,0:0:0:0:
448,192,11528,1,0,0:0:0:0:
320,192,11700,1,0,0:0:0:0:
64,192,11873,1,0,0:0:0:0:
192,192,12045,1,0,0:0:0:0:
320,192,12045,1,0,0:0:0:0:
448,192,12045,1,0,0:0:0:0:
64,192,12217,1,0,0:0:0:0:
192,192,12217,1,0,0:0:0:0:
320,192,12304,1,0,0:0:0:0:
448,192,12304,1,0,0:0:0:0:
64,192,12390,1,0,0:0:0:0:
320,192,12476,1,0,0:0:0:0:
448,192,12476,1,0,0:0:0:0:
192,192,12562,1,0,0:0:0:0:
64,192,12562,1,0,0:0:0:0:
320,192,12735,1,0,0:0:0:0:
448,192,12907,1,0,0:0:0:0:
192,192,12907,1,0,0:0:0:0:
64,192,12907,1,0,0:0:0:0:
320,192,13080,1,0,0:0:0:0:
192,192,13252,1,0,0:0:0:0:
320,192,13424,1,0,0:0:0:0:
448,192,13424,1,0,0:0:0:0:
64,192,13424,1,0,0:0:0:0:
192,192,13511,1,0,0:0:0:0:
448,192,13597,1,0,0:0:0:0:
64,192,13597,1,0,0:0:0:0:
320,192,13683,1,0,0:0:0:0:
192,192,13769,1,0,0:0:0:0:
448,192,13769,1,0,0:0:0:0:
64,192,13769,1,0,0:0:0:0:
320,192,13942,1,0,0:0:0:0:
64,192,13942,1,0,0:0:0:0:
192,192,14028,1,0,0:0:0:0:
320,192,14114,1,0,0:0:0:0:
192,192,14286,1,0,0:0:0:0:
64,192,14286,1,0,0:0:0:0:
448,192,14286,1,0,0:0:0:0:
320,192,14459,1,0,0:0:0:0:
192,192,14631,1,0,0:0:0:0:
64,192,14804,1,0,0:0:0:0:
320,192,14804,1,0,0:0:0:0:
448,192,14804,1,0,0:0:0:0:
192,192,14976,1,0,0:0:0:0:
448,192,14976,1,0,0:0:0:0:
320,192,15062,1,0,0:0:0:0:
64,192,15062,1,0,0:0:0:0:
192,192,15149,1,0,0:0:0:0:
64,192,15235,1,0,0:0:0:0:
320,192,15235,1,0,0:0:0:0:
192,192,15321,1,0,0:0:0:0:
448,192,15321,1,0,0:0:0:0:
320,192,15493,1,0,0:0:0:0:
192,192,15666,1,0,0:0:0:0:
64,192,15666,1,0,0:0:0:0:
448,192,15666,1,0,0:0:0:0:
320,192,15838,1,0,0:0:0:0:
192,192,16011,1,0,0:0:0:0:
64,192,16183,1,0,0:0:0:0:
320,192,16183,1,0,0:0:0:0:
448,192,16183,1,0,0:0:0:0:
192,192,16269,1,0,0:0:0:0:
64,192,16355,1,0,0:0:0:0:
448,192,16355,1,0,0:0:0:0:
320,192,16442,1,0,0:0:0:0:
64,192,16528,1,0,0:0:0:0:
448,192,16528,1,0,0:0:0:0:
192,192,16528,1,0,0:0:0:0:
320,192,16700,1,0,0:0:0:0:
64,192,16700,1,0,0:0:0:0:
192,192,16873,1,0,0:0:0:0:
64,192,17045,1,0,0:0:0:0:
320,192,17045,1,0,0:0:0:0:
448,192,17045,1,0,0:0:0:0:
192,192,17217,1,0,0:0:0:0:
448,192,17390,1,0,0:0:0:0:
64,192,17562,1,0,0:0:0:0:
192,192,17562,1,0,0:0:0:0:
320,192,17562,1,0,0:0:0:0:
320,192,17735,1,0,0:0:0:0:
448,192,17735,1,0,0:0:0:0:
64,192,17821,1,0,0:0:0:0:
192,192,17821,1,0,0:0:0:0:
448,192,17907,1,0,0:0:0:0:
64,192,17993,1,0,0:0:0:0:
192,192,17993,1,0,0:0:0:0:
448,192,18080,1,0,0:0:0:0:
320,192,18080,1,0,0:0:0:0:
192,192,18252,1,0,0:0:0:0:
448,192,18424,1,0,0:0:0:0:
320,192,18424,1,0,0:0:0:0:
64,192,18424,1,0,0:0:0:0:
192,192,18597,1,0,0:0:0:0:
320,192,18769,1,0,0:0:0:0:
64,192,18942,1,0,0:0:0:0:
192,192,18942,1,0,0:0:0:0:
448,192,18942,1,0,0:0:0:0:
320,192,19028,1,0,0:0:0:0:
64,192,19114,1,0,0:0:0:0:
448,192,19114,1,0,0:0:0:0:
192,192,19200,1,0,0:0:0:0:
64,192,19286,1,0,0:0:0:0:
320,192,19286,1,0,0:0:0:0:
448,192,19286,1,0,0:0:0:0:
448,192,19459,1,0,0:0:0:0:
192,192,19459,1,0,0:0:0:0:
320,192,19545,1,0,0:0:0:0:
192,192,19631,1,0,0:0:0:0:
64,192,19804,1,0,0:0:0:0:
448,192,19804,1,0,0:0:0:0:
320,192,19804,1,0,0:0:0:0:
192,192,19976,1,0,0:0:0:0:
320,192,20149,1,0,0:0:0:0:
64,192,20321,1,0,0:0:0:0:
192,192,20321,1,0,0:0:0:0:
448,192,20321,1,0,0:0:0:0:
64,192,20493,1,0,0:0:0:0:
320,192,20493,1,0,0:0:0:0:
448,192,20580,1,0,0:0:0:0:
192,192,20580,1,0,0:0:0:0:
320,192,20666,1,0,0:0:0:0:
192,192,20752,1,0,0:0:0:0:
448,192,20752,1,0,0:0:0:0:
64,192,20838,1,0,0:0:0:0:
320,192,20838,1,0,0:0:0:0:
192,192,21011,1,0,0:0:0:0:
64,192,21183,1,0,0:0:0:0:
448,192,21183,1,0,0:0:0:0:
320,192,21183,1,0,0:0:0:0:
192,192,21355,1,0,0:0:0:0:
320,192,21528,1,0,0:0:0:0:
64,192,21700,1,0,0:0:0:0:
192,192,21700,1,0,0:0:0:0:
448,192,21700,1,0,0:0:0:0:
320,192,21786,1,0,0:0:0:0:
64,192,21873,1,0,0:0:0:0:
448,192,21873,1,0,0:0:0:0:
192,192,21959,1,0,0:0:0:0:
320,192,22045,1,0,0:0:0:0:
64,192,22045,1,0,0:0:0:0:
448,192,22045,1,0,0:0:0:0:
64,192,22217,1,0,0:0:0:0:
448,192,22217,128,0,22562:0:0:0:0:
320,192,22390,128,0,22735:0:0:0:0:
192,192,22562,128,0,22907:0:0:0:0:
64,192,22735,128,0,22907:0:0:0:0:
320,192,22907,1,0,0:0:0:0:
448,192,22907,1,0,0:0:0:0:
448,192,23252,128,0,23597:0:0:0:0:
64,192,23252,1,0,0:0:0:0:
192,192,23424,128,0,23769:0:0:0:0:
320,192,23597,128,0,23942:0:0:0:0:
64,192,23597,1,0,0:0:0:0:
64,192,23769,128,0,24286:0:0:0:0:
448,192,23942,128,0,24286:0:0:0:0:
192,192,23942,1,0,0:0:0:0:
192,192,24114,128,0,24286:0:0:0:0:
320,192,24114,128,0,24286:0:0:0:0:
64,192,24631,128,0,24717:0:0:0:0:
64,192,24804,128,0,24890:0:0:0:0:
64,192,24976,128,0,25321:0:0:0:0:
448,192,24976,1,0,0:0:0:0:
192,192,25149,128,0,25493:0:0:0:0:
320,192,25321,128,0,25666:0:0:0:0:
448,192,25493,128,0,25666:0:0:0:0:
192,192,25666,1,0,0:0:0:0:
64,192,25666,1,0,0:0:0:0:
64,192,26011,128,0,26355:0:0:0:0:
448,192,26011,1,0,0:0:0:0:
320,192,26183,128,0,26528:0:0:0:0:
192,192,26355,128,0,26700:0:0:0:0:
448,192,26355,1,0,0:0:0:0:
448,192,26528,128,0,27045:0:0:0:0:
64,192,26700,128,0,26873:0:0:0:0:
320,192,26700,1,0,0:0:0:0:
320,192,26873,128,0,27045:0:0:0:0:
192,192,27045,1,0,0:0:0:0:
64,192,27045,1,0,0:0:0:0:
64,192,27735,128,0,28080:0:0:0:0:
448,192,27735,1,0,0:0:0:0:
192,192,27907,128,0,28252:0:0:0:0:
320,192,28080,128,0,28424:0:0:0:0:
448,192,28252,128,0,28424:0:0:0:0:
64,192,28769,128,0,29114:0:0:0:0:
448,192,28769,1,0,0:0:0:0:
320,192,28942,128,0,29286:0:0:0:0:
192,192,29114,128,0,29459:0:0:0:0:
448,192,29114,1,0,0:0:0:0:
448,192,29286,128,0,29804:0:0:0:0:
64,192,29459,128,0,29631:0:0:0:0:
320,192,29459,1,0,0:0:0:0:
320,192,29631,128,0,29804:0:0:0:0:
192,192,29804,1,0,0:0:0:0:
64,192,29804,1,0,0:0:0:0:
192,192,30149,1,0,0:0:0:0:
320,192,30321,1,0,0:0:0:0:
448,192,30493,128,0,30838:0:0:0:0:
64,192,30493,1,0,0:0:0:0:
320,192,30666,128,0,31011:0:0:0:0:
192,192,30838,128,0,31183:0:0:0:0:
64,192,31011,128,0,31183:0:0:0:0:
320,192,31183,1,0,0:0:0:0:
448,192,31183,1,0,0:0:0:0:
448,192,31528,128,0,31873:0:0:0:0:
64,192,31528,1,0,0:0:0:0:
192,192,31700,128,0,32045:0:0:0:0:
320,192,31873,128,0,32217:0:0:0:0:
64,192,31873,1,0,0:0:0:0:
64,192,32045,128,0,32562:0:0:0:0:
448,192,32217,128,0,32390:0:0:0:0:
192,192,32217,1,0,0:0:0:0:
192,192,32390,128,0,32562:0:0:0:0:
320,192,32562,1,0,0:0:0:0:
448,192,32562,128,0,33252:0:0:0:0:
192,192,33252,1,0,0:0:0:0:
64,192,33252,1,0,0:0:0:0:
320,192,33424,1,0,0:0:0:0:
64,192,33597,128,0,33769:0:0:0:0:
448,192,33769,1,0,0:0:0:0:
192,192,33942,1,0,0:0:0:0:
320,192,33942,1,0,0:0:0:0:
64,192,34114,128,0,34286:0:0:0:0:
448,192,34286,128,0,34459:0:0:0:0:
320,192,34373,1,0,0:0:0:0:
192,192,34373,1,0,0:0:0:0:
64,192,34459,1,0,0:0:0:0:
320,192,34545,1,0,0:0:0:0:
448,192,34545,1,0,0:0:0:0:
192,192,34631,128,0,34804:0:0:0:0:
64,192,34631,128,0,34804:0:0:0:0:
448,192,34804,1,0,0:0:0:0:
64,192,34976,128,0,35149:0:0:0:0:
192,192,34976,128,0,35149:0:0:0:0:
320,192,35149,1,0,0:0:0:0:
448,192,35321,128,0,35493:0:0:0:0:
192,192,35493,128,0,35666:0:0:0:0:
64,192,35493,1,0,0:0:0:0:
448,192,35666,1,0,0:0:0:0:
320,192,35752,1,0,0:0:0:0:
192,192,35838,1,0,0:0:0:0:
64,192,35838,128,0,36011:0:0:0:0:
320,192,36011,128,0,36183:0:0:0:0:
448,192,36011,128,0,36183:0:0:0:0:
192,192,36183,1,0,0:0:0:0:
320,192,36355,128,0,36528:0:0:0:0:
448,192,36355,128,0,36528:0:0:0:0:
64,192,36528,128,0,36873:0:0:0:0:
320,192,36873,1,0,0:0:0:0:
192,192,36873,1,0,0:0:0:0:
448,192,37045,128,0,37217:0:0:0:0:
320,192,37131,1,0,0:0:0:0:
192,192,37131,1,0,0:0:0:0:
64,192,37217,1,0,0:0:0:0:
320,192,37304,1,0,0:0:0:0:
448,192,37304,1,0,0:0:0:0:
192,192,37390,128,0,37562:0:0:0:0:
64,192,37390,128,0,37562:0:0:0:0:
448,192,37562,1,0,0:0:0:0:
64,192,37735,128,0,37907:0:0:0:0:
192,192,37735,128,0,37907:0:0:0:0:
320,192,37907,1,0,0:0:0:0:
448,192,38080,128,0,38252:0:0:0:0:
64,192,38252,128,0,38424:0:0:0:0:
192,192,38252,1,0,0:0:0:0:
320,192,38338,1,0,0:0:0:0:
448,192,38424,128,0,38597:0:0:0:0:
320,192,38511,1,0,0:0:0:0:
192,192,38597,1,0,0:0:0:0:
64,192,38597,128,0,38769:0:0:0:0:
320,192,38769,128,0,38942:0:0:0:0:
448,192,38769,128,0,38942:0:0:0:0:
64,192,38942,1,0,0:0:0:0:
320,192,39114,128,0,39286:0:0:0:0:
448,192,39114,128,0,39286:0:0:0:0:
192,192,39286,1,0,0:0:0:0:
64,192,39459,1,0,0:0:0:0:
448,192,39459,1,0,0:0:0:0:
192,192,39631,1,0,0:0:0:0:
64,192,39631,128,0,39804:0:0:0:0:
320,192,39804,1,0,0:0:0:0:
448,192,39804,128,0,39976:0:0:0:0:
192,192,39890,1,0,0:0:0:0:
64,192,39976,1,0,0:0:0:0:
320,192,40062,1,0,0:0:0:0:
448,192,40062,1,0,0:0:0:0:
64,192,40149,128,0,40321:0:0:0:0:
192,192,40149,128,0,40321:0:0:0:0:
448,192,40321,1,0,0:0:0:0:
192,192,40493,128,0,40666:0:0:0:0:
64,192,40493,128,0,40666:0:0:0:0:
320,192,40666,1,0,0:0:0:0:
448,192,40838,1,0,0:0:0:0:
64,192,40838,1,0,0:0:0:0:
192,192,41011,1,0,0:0:0:0:
320,192,41011,1,0,0:0:0:0:
64,192,41097,1,0,0:0:0:0:
320,192,41183,1,0,0:0:0:0:
448,192,41183,1,0,0:0:0:0:
192,192,41269,1,0,0:0:0:0:
64,192,41355,1,0,0:0:0:0:
448,192,41355,1,0,0:0:0:0:
320,192,41528,1,0,0:0:0:0:
192,192,41528,1,0,0:0:0:0:
192,192,41700,1,0,0:0:0:0:
448,192,41700,1,0,0:0:0:0:
320,192,41873,5,0,0:0:0:0:
64,192,41873,1,0,0:0:0:0:
448,192,41873,1,0,0:0:0:0:
64,192,42045,1,0,0:0:0:0:
192,192,42045,1,0,0:0:0:0:
192,192,42217,1,0,0:0:0:0:
448,192,42217,1,0,0:0:0:0:
320,192,42390,1,0,0:0:0:0:
64,192,42390,1,0,0:0:0:0:
448,192,42390,1,0,0:0:0:0:
64,192,42562,1,0,0:0:0:0:
192,192,42562,1,0,0:0:0:0:
320,192,42649,1,0,0:0:0:0:
64,192,42735,1,0,0:0:0:0:
448,192,42735,1,0,0:0:0:0:
192,192,42821,1,0,0:0:0:0:
320,192,42907,5,0,0:0:0:0:
448,192,42907,1,0,0:0:0:0:
192,192,42993,1,0,0:0:0:0:
64,192,43080,1,0,0:0:0:0:
448,192,43080,1,0,0:0:0:0:
320,192,43166,1,0,0:0:0:0:
192,192,43252,1,0,0:0:0:0:
64,192,43252,1,0,0:0:0:0:
320,192,43338,1,0,0:0:0:0:
448,192,43424,1,0,0:0:0:0:
64,192,43424,1,0,0:0:0:0:
192,192,43511,1,0,0:0:0:0:
320,192,43597,1,0,0:0:0:0:
448,192,43597,1,0,0:0:0:0:
192,192,43683,1,0,0:0:0:0:
64,192,43683,1,0,0:0:0:0:
320,192,43769,1,0,0:0:0:0:
448,192,43769,1,0,0:0:0:0:
64,192,43855,1,0,0:0:0:0:
192,192,43855,1,0,0:0:0:0:
320,192,43942,1,0,0:0:0:0:
448,192,43942,1,0,0:0:0:0:
192,192,44028,1,0,0:0:0:0:
64,192,44028,1,0,0:0:0:0:
320,192,44114,1,0,0:0:0:0:
448,192,44114,1,0,0:0:0:0:
192,192,44200,1,0,0:0:0:0:
64,192,44200,1,0,0:0:0:0:
448,192,44286,128,0,44373:0:0:0:0:
320,192,44286,128,0,44373:0:0:0:0:
192,192,44459,1,0,0:0:0:0:
448,192,44631,128,0,44717:0:0:0:0:
64,192,44631,128,0,44717:0:0:0:0:
320,192,44631,128,0,44717:0:0:0:0:
192,192,44804,1,0,0:0:0:0:
320,192,44976,1,0,0:0:0:0:
192,192,45149,128,0,45235:0:0:0:0:
64,192,45149,128,0,45235:0:0:0:0:
64,192,45321,128,0,45407:0:0:0:0:
320,192,45321,128,0,45407:0:0:0:0:
448,192,45321,128,0,45407:0:0:0:0:
192,192,45493,1,0,0:0:0:0:
448,192,45666,128,0,45752:0:0:0:0:
64,192,45666,128,0,45752:0:0:0:0:
320,192,45838,1,0,0:0:0:0:
448,192,46011,128,0,46097:0:0:0:0:
192,192,46011,128,0,46097:0:0:0:0:
64,192,46011,128,0,46097:0:0:0:0:
320,192,46183,1,0,0:0:0:0:
192,192,46269,1,0,0:0:0:0:
64,192,46269,1,0,0:0:0:0:
320,192,46355,128,0,46442:0:0:0:0:
448,192,46355,128,0,46442:0:0:0:0:
320,192,46528,128,0,46614:0:0:0:0:
192,192,46528,128,0,46614:0:0:0:0:
64,192,46700,128,0,46873:0:0:0:0:
192,192,46700,128,0,46786:0:0:0:0:
448,192,46873,128,0,46959:0:0:0:0:
320,192,46873,128,0,46959:0:0:0:0:
192,192,47045,128,0,47131:0:0:0:0:
64,192,47045,128,0,47131:0:0:0:0:
320,192,47217,1,0,0:0:0:0:
64,192,47390,128,0,47476:0:0:0:0:
192,192,47390,128,0,47476:0:0:0:0:
448,192,47390,128,0,47476:0:0:0:0:
320,192,47562,1,0,0:0:0:0:
192,192,47735,1,0,0:0:0:0:
448,192,47907,128,0,47993:0:0:0:0:
320,192,47907,128,0,47993:0:0:0:0:
64,192,48080,128,0,48166:0:0:0:0:
192,192,48080,128,0,48166:0:0:0:0:
448,192,48080,128,0,48166:0:0:0:0:
320,192,48252,1,0,0:0:0:0:
448,192,48424,128,0,48511:0:0:0:0:
64,192,48424,128,0,48511:0:0:0:0:
192,192,48597,1,0,0:0:0:0:
448,192,48769,128,0,48855:0:0:0:0:
320,192,48769,128,0,48855:0:0:0:0:
64,192,48769,128,0,48855:0:0:0:0:
192,192,48942,1,0,0:0:0:0:
448,192,49028,1,0,0:0:0:0:
320,192,49028,1,0,0:0:0:0:
64,192,49114,128,0,49459:0:0:0:0:
192,192,49114,128,0,49200:0:0:0:0:
320,192,49286,128,0,49373:0:0:0:0:
192,192,49286,128,0,49373:0:0:0:0:
320,192,49459,128,0,49545:0:0:0:0:
448,192,49459,128,0,49717:0:0:0:0:
192,192,49631,128,0,49717:0:0:0:0:
64,192,49631,128,0,49717:0:0:0:0:
64,192,49804,128,0,49890:0:0:0:0:
448,192,49804,128,0,49890:0:0:0:0:
320,192,49976,1,0,0:0:0:0:
192,192,50149,128,0,50235:0:0:0:0:
64,192,50149,128,0,50235:0:0:0:0:
448,192,50149,128,0,50235:0:0:0:0:
320,192,50321,1,0,0:0:0:0:
64,192,50493,1,0,0:0:0:0:
192,192,50666,128,0,50752:0:0:0:0:
448,192,50666,128,0,50752:0:0:0:0:
320,192,50838,128,0,50924:0:0:0:0:
448,192,50838,128,0,50924:0:0:0:0:
64,192,50838,128,0,50924:0:0:0:0:
192,192,51011,1,0,0:0:0:0:
64,192,51183,128,0,51269:0:0:0:0:
448,192,51183,128,0,51269:0:0:0:0:
320,192,51355,1,0,0:0:0:0:
192,192,51528,128,0,51614:0:0:0:0:
64,192,51528,128,0,51614:0:0:0:0:
448,192,51528,128,0,51614:0:0:0:0:
320,192,51700,1,0,0:0:0:0:
192,192,51873,128,0,51959:0:0:0:0:
448,192,51873,128,0,51959:0:0:0:0:
320,192,52045,128,0,52131:0:0:0:0:
64,192,52045,128,0,52131:0:0:0:0:
64,192,52217,128,0,52304:0:0:0:0:
448,192,52217,128,0,52304:0:0:0:0:
192,192,52390,128,0,52476:0:0:0:0:
448,192,52390,128,0,52476:0:0:0:0:
448,192,52562,128,0,52649:0:0:0:0:
64,192,52562,128,0,52649:0:0:0:0:
192,192,52735,1,0,0:0:0:0:
320,192,52907,128,0,52993:0:0:0:0:
448,192,52907,128,0,52993:0:0:0:0:
64,192,52907,128,0,52993:0:0:0:0:
192,192,53080,1,0,0:0:0:0:
64,192,53166,1,0,0:0:0:0:
448,192,53166,1,0,0:0:0:0:
320,192,53252,1,0,0:0:0:0:
192,192,53424,128,0,53597:0:0:0:0:
320,192,53597,128,0,53683:0:0:0:0:
64,192,53597,128,0,53683:0:0:0:0:
448,192,53597,128,0,53683:0:0:0:0:
192,192,53769,1,0,0:0:0:0:
64,192,53942,1,0,0:0:0:0:
448,192,53942,1,0,0:0:0:0:
320,192,54114,1,0,0:0:0:0:
64,192,54114,1,0,0:0:0:0:
192,192,54286,1,0,0:0:0:0:
448,192,54286,1,0,0:0:0:0:
320,192,54459,1,0,0:0:0:0:
64,192,54459,1,0,0:0:0:0:
192,192,54631,1,0,0:0:0:0:
64,192,54631,1,0,0:0:0:0:
320,192,54717,1,0,0:0:0:0:
448,192,54717,1,0,0:0:0:0:
192,192,54804,1,0,0:0:0:0:
64,192,54804,1,0,0:0:0:0:
320,192,54890,1,0,0:0:0:0:
448,192,54890,1,0,0:0:0:0:
192,192,54976,1,0,0:0:0:0:
64,192,54976,1,0,0:0:0:0:
320,192,55062,1,0,0:0:0:0:
448,192,55062,1,0,0:0:0:0:
192,192,55149,1,0,0:0:0:0:
64,192,55149,1,0,0:0:0:0:
320,192,55235,1,0,0:0:0:0:
448,192,55235,1,0,0:0:0:0:
192,192,55321,1,0,0:0:0:0:
64,192,55321,1,0,0:0:0:0:
192,192,55493,1,0,0:0:0:0:
320,192,55666,1,0,0:0:0:0:
320,192,55838,1,0,0:0:0:0:
448,192,55838,1,0,0:0:0:0:
192,192,56011,1,0,0:0:0:0:
64,192,56011,1,0,0:0:0:0:
448,192,56011,1,0,0:0:0:0:
64,192,56183,1,0,0:0:0:0:
320,192,56355,1,0,0:0:0:0:
192,192,56442,1,0,0:0:0:0:
320,192,56528,1,0,0:0:0:0:
448,192,56528,1,0,0:0:0:0:
64,192,56614,1,0,0:0:0:0:
192,192,56700,1,0,0:0:0:0:
448,192,56786,1,0,0:0:0:0:
320,192,56873,1,0,0:0:0:0:
192,192,56959,1,0,0:0:0:0:
64,192,57045,1,0,0:0:0:0:
448,192,57045,1,0,0:0:0:0:
320,192,57131,1,0,0:0:0:0:
64,192,57217,1,0,0:0:0:0:
192,192,57304,1,0,0:0:0:0:
320,192,57390,1,0,0:0:0:0:
64,192,57390,1,0,0:0:0:0:
448,192,57390,1,0,0:0:0:0:
192,192,57476,1,0,0:0:0:0:
320,192,57562,1,0,0:0:0:0:
192,192,57735,1,0,0:0:0:0:
448,192,57735,1,0,0:0:0:0:
64,192,57735,1,0,0:0:0:0:
192,192,57907,1,0,0:0:0:0:
320,192,57993,1,0,0:0:0:0:
448,192,58080,1,0,0:0:0:0:
64,192,58080,128,0,58252:0:0:0:0:
320,192,58252,128,0,58424:0:0:0:0:
192,192,58424,128,0,58597:0:0:0:0:
448,192,58597,128,0,58769:0:0:0:0:
64,192,58597,1,0,0:0:0:0:
320,192,58769,1,0,0:0:0:0:
192,192,58769,1,0,0:0:0:0:
64,192,58769,1,0,0:0:0:0:
320,192,58942,1,0,0:0:0:0:
448,192,58942,1,0,0:0:0:0:
192,192,59028,1,0,0:0:0:0:
64,192,59028,1,0,0:0:0:0:
320,192,59114,1,0,0:0:0:0:
64,192,59200,1,0,0:0:0:0:
192,192,59286,1,0,0:0:0:0:
448,192,59286,1,0,0:0:0:0:
320,192,59373,1,0,0:0:0:0:
192,192,59459,1,0,0:0:0:0:
64,192,59545,1,0,0:0:0:0:
320,192,59631,1,0,0:0:0:0:
192,192,59717,1,0,0:0:0:0:
448,192,59804,1,0,0:0:0:0:
320,192,59890,1,0,0:0:0:0:
192,192,59976,1,0,0:0:0:0:
64,192,59976,1,0,0:0:0:0:
320,192,60062,1,0,0:0:0:0:
448,192,60149,1,0,0:0:0:0:
192,192,60149,1,0,0:0:0:0:
64,192,60149,128,0,60235:0:0:0:0:
64,192,60321,128,0,60407:0:0:0:0:
64,192,60493,128,0,60838:0:0:0:0:
320,192,60493,1,0,0:0:0:0:
192,192,60666,1,0,0:0:0:0:
320,192,60752,1,0,0:0:0:0:
448,192,60838,1,0,0:0:0:0:
192,192,60838,1,0,0:0:0:0:
448,192,61011,1,0,0:0:0:0:
320,192,61183,1,0,0:0:0:0:
320,192,61355,1,0,0:0:0:0:
64,192,61355,1,0,0:0:0:0:
192,192,61528,1,0,0:0:0:0:
448,192,61528,1,0,0:0:0:0:
64,192,61528,1,0,0:0:0:0:
192,192,61700,1,0,0:0:0:0:
320,192,61873,1,0,0:0:0:0:
64,192,61959,1,0,0:0:0:0:
448,192,62045,1,0,0:0:0:0:
320,192,62045,1,0,0:0:0:0:
192,192,62217,1,0,0:0:0:0:
64,192,62304,1,0,0:0:0:0:
320,192,62390,1,0,0:0:0:0:
448,192,62476,1,0,0:0:0:0:
192,192,62562,1,0,0:0:0:0:
64,192,62562,1,0,0:0:0:0:
320,192,62649,1,0,0:0:0:0:
448,192,62735,1,0,0:0:0:0:
64,192,62821,1,0,0:0:0:0:
448,192,62907,1,0,0:0:0:0:
192,192,62907,1,0,0:0:0:0:
320,192,62907,128,0,62993:0:0:0:0:
320,192,63080,128,0,63166:0:0:0:0:
320,192,63252,128,0,63424:0:0:0:0:
64,192,63252,1,0,0:0:0:0:
64,192,63424,128,0,63597:0:0:0:0:
192,192,63511,128,0,63597:0:0:0:0:
320,192,63597,1,0,0:0:0:0:
448,192,63597,1,0,0:0:0:0:
448,192,63769,1,0,0:0:0:0:
192,192,63942,1,0,0:0:0:0:
192,192,64114,1,0,0:0:0:0:
64,192,64114,1,0,0:0:0:0:
320,192,64286,1,0,0:0:0:0:
64,192,64286,1,0,0:0:0:0:
448,192,64286,1,0,0:0:0:0:
448,192,64459,1,0,0:0:0:0:
192,192,64545,1,0,0:0:0:0:
64,192,64545,1,0,0:0:0:0:
320,192,64631,1,0,0:0:0:0:
448,192,64631,1,0,0:0:0:0:
192,192,64804,1,0,0:0:0:0:
320,192,64804,1,0,0:0:0:0:
64,192,64976,1,0,0:0:0:0:
448,192,64976,1,0,0:0:0:0:
192,192,65062,1,0,0:0:0:0:
320,192,65149,1,0,0:0:0:0:
448,192,65235,1,0,0:0:0:0:
192,192,65321,1,0,0:0:0:0:
64,192,65321,1,0,0:0:0:0:
320,192,65407,1,0,0:0:0:0:
64,192,65493,1,0,0:0:0:0:
192,192,65580,1,0,0:0:0:0:
320,192,65666,1,0,0:0:0:0:
448,192,65666,1,0,0:0:0:0:
64,192,65752,1,0,0:0:0:0:
192,192,65752,1,0,0:0:0:0:
320,192,65838,1,0,0:0:0:0:
448,192,65838,1,0,0:0:0:0:
192,192,65924,1,0,0:0:0:0:
64,192,65924,1,0,0:0:0:0:
448,192,66011,1,0,0:0:0:0:
320,192,66011,1,0,0:0:0:0:
192,192,66097,1,0,0:0:0:0:
64,192,66097,1,0,0:0:0:0:
320,192,66183,1,0,0:0:0:0:
448,192,66183,1,0,0:0:0:0:
192,192,66269,1,0,0:0:0:0:
64,192,66269,1,0,0:0:0:0:
448,192,66355,128,0,66700:0:0:0:0:
320,192,66355,1,0,0:0:0:0:
64,192,66528,128,0,67045:0:0:0:0:
192,192,66700,128,0,67045:0:0:0:0:
320,192,66873,128,0,67045:0:0:0:0:
448,192,67045,1,0,0:0:0:0:
192,192,67217,1,0,0:0:0:0:
448,192,67390,128,0,67735:0:0:0:0:
64,192,67390,1,0,0:0:0:0:
320,192,67476,1,0,0:0:0:0:
192,192,67562,128,0,67907:0:0:0:0:
64,192,67735,128,0,68080:0:0:0:0:
320,192,67907,128,0,68424:0:0:0:0:
448,192,68080,128,0,68424:0:0:0:0:
64,192,68252,128,0,68424:0:0:0:0:
192,192,68252,128,0,68424:0:0:0:0:
320,192,68597,1,0,0:0:0:0:
64,192,68769,1,0,0:0:0:0:
192,192,68942,1,0,0:0:0:0:
320,192,69028,1,0,0:0:0:0:
64,192,69114,128,0,69631:0:0:0:0:
448,192,69114,1,0,0:0:0:0:
192,192,69286,128,0,69804:0:0:0:0:
320,192,69459,128,0,69804:0:0:0:0:
448,192,69631,128,0,69804:0:0:0:0:
64,192,69804,1,0,0:0:0:0:
320,192,69976,1,0,0:0:0:0:
64,192,70149,128,0,70666:0:0:0:0:
192,192,70149,1,0,0:0:0:0:
448,192,70235,1,0,0:0:0:0:
320,192,70321,128,0,70838:0:0:0:0:
192,192,70493,128,0,71183:0:0:0:0:
448,192,70666,128,0,71183:0:0:0:0:
64,192,70838,128,0,71011:0:0:0:0:
320,192,71011,128,0,71183:0:0:0:0:
64,192,71183,1,0,0:0:0:0:
64,192,71355,1,0,0:0:0:0:
320,192,71528,1,0,0:0:0:0:
320,192,71700,1,0,0:0:0:0:
192,192,71786,1,0,0:0:0:0:
64,192,71873,128,0,72390:0:0:0:0:
448,192,71873,1,0,0:0:0:0:
192,192,72045,128,0,72562:0:0:0:0:
320,192,72217,128,0,72562:0:0:0:0:
448,192,72390,128,0,72562:0:0:0:0:
64,192,72562,1,0,0:0:0:0:
320,192,72735,1,0,0:0:0:0:
64,192,72907,128,0,73424:0:0:0:0:
192,192,72907,1,0,0:0:0:0:
448,192,72993,1,0,0:0:0:0:
320,192,73080,128,0,73597:0:0:0:0:
192,192,73252,128,0,73769:0:0:0:0:
448,192,73424,128,0,73942:0:0:0:0:
64,192,73597,128,0,73769:0:0:0:0:
320,192,73769,128,0,73942:0:0:0:0:
192,192,73942,1,0,0:0:0:0:
64,192,73942,1,0,0:0:0:0:
448,192,74114,1,0,0:0:0:0:
192,192,74286,1,0,0:0:0:0:
320,192,74459,1,0,0:0:0:0:
192,192,74545,1,0,0:0:0:0:
448,192,74631,128,0,75149:0:0:0:0:
64,192,74631,1,0,0:0:0:0:
320,192,74804,128,0,75149:0:0:0:0:
192,192,74976,128,0,75321:0:0:0:0:
64,192,75149,128,0,75321:0:0:0:0:
320,192,75321,1,0,0:0:0:0:
448,192,75321,1,0,0:0:0:0:
192,192,75493,1,0,0:0:0:0:
448,192,75666,128,0,76183:0:0:0:0:
320,192,75666,1,0,0:0:0:0:
64,192,75752,1,0,0:0:0:0:
192,192,75838,128,0,76355:0:0:0:0:
320,192,76011,128,0,76528:0:0:0:0:
64,192,76183,128,0,76700:0:0:0:0:
448,192,76355,128,0,76528:0:0:0:0:
192,192,76528,128,0,76700:0:0:0:0:
320,192,76700,1,0,0:0:0:0:
448,192,76700,128,0,77390:0:0:0:0:
320,192,76873,1,0,0:0:0:0:
192,192,77045,1,0,0:0:0:0:
64,192,77217,1,0,0:0:0:0:
320,192,77304,1,0,0:0:0:0:
192,192,77390,1,0,0:0:0:0:
64,192,77390,1,0,0:0:0:0:
320,192,77562,1,0,0:0:0:0:
64,192,77735,128,0,77907:0:0:0:0:
448,192,77907,1,0,0:0:0:0:
320,192,78080,1,0,0:0:0:0:
192,192,78080,1,0,0:0:0:0:
64,192,78252,128,0,78424:0:0:0:0:
448,192,78424,128,0,78597:0:0:0:0:
192,192,78511,1,0,0:0:0:0:
64,192,78597,1,0,0:0:0:0:
320,192,78683,1,0,0:0:0:0:
192,192,78769,128,0,78942:0:0:0:0:
64,192,78769,128,0,78942:0:0:0:0:
448,192,78942,1,0,0:0:0:0:
64,192,79114,128,0,79286:0:0:0:0:
192,192,79114,128,0,79286:0:0:0:0:
320,192,79286,1,0,0:0:0:0:
448,192,79459,128,0,79631:0:0:0:0:
192,192,79631,128,0,79804:0:0:0:0:
64,192,79631,1,0,0:0:0:0:
448,192,79804,1,0,0:0:0:0:
320,192,79890,1,0,0:0:0:0:
192,192,79976,1,0,0:0:0:0:
64,192,79976,128,0,80149:0:0:0:0:
320,192,80149,128,0,80321:0:0:0:0:
448,192,80149,128,0,80321:0:0:0:0:
192,192,80321,1,0,0:0:0:0:
320,192,80493,128,0,80666:0:0:0:0:
448,192,80493,128,0,80666:0:0:0:0:
64,192,80666,128,0,81011:0:0:0:0:
320,192,81011,1,0,0:0:0:0:
192,192,81011,1,0,0:0:0:0:
448,192,81183,128,0,81355:0:0:0:0:
320,192,81269,1,0,0:0:0:0:
192,192,81269,1,0,0:0:0:0:
64,192,81355,1,0,0:0:0:0:
320,192,81442,1,0,0:0:0:0:
448,192,81442,1,0,0:0:0:0:
192,192,81528,128,0,81700:0:0:0:0:
64,192,81528,128,0,81700:0:0:0:0:
448,192,81700,1,0,0:0:0:0:
64,192,81873,128,0,82045:0:0:0:0:
192,192,81873,128,0,82045:0:0:0:0:
320,192,82045,1,0,0:0:0:0:
448,192,82217,128,0,82390:0:0:0:0:
64,192,82390,128,0,82562:0:0:0:0:
192,192,82390,1,0,0:0:0:0:
320,192,82476,1,0,0:0:0:0:
448,192,82562,128,0,82735:0:0:0:0:
320,192,82649,1,0,0:0:0:0:
192,192,82735,1,0,0:0:0:0:
64,192,82735,128,0,82907:0:0:0:0:
320,192,82907,128,0,83080:0:0:0:0:
448,192,82907,128,0,83080:0:0:0:0:
64,192,83080,1,0,0:0:0:0:
320,192,83252,128,0,83424:0:0:0:0:
448,192,83252,128,0,83424:0:0:0:0:
192,192,83424,1,0,0:0:0:0:
64,192,83597,1,0,0:0:0:0:
448,192,83597,1,0,0:0:0:0:
192,192,83769,1,0,0:0:0:0:
64,192,83769,128,0,83942:0:0:0:0:
320,192,83942,1,0,0:0:0:0:
448,192,83942,128,0,84114:0:0:0:0:
192,192,84028,1,0,0:0:0:0:
64,192,84114,1,0,0:0:0:0:
320,192,84200,1,0,0:0:0:0:
448,192,84200,1,0,0:0:0:0:
64,192,84286,128,0,84459:0:0:0:0:
192,192,84286,128,0,84459:0:0:0:0:
448,192,84459,1,0,0:0:0:0:
192,192,84631,128,0,84804:0:0:0:0:
64,192,84631,128,0,84804:0:0:0:0:
320,192,84804,1,0,0:0:0:0:
448,192,84976,1,0,0:0:0:0:
64,192,84976,1,0,0:0:0:0:
192,192,85149,1,0,0:0:0:0:
320,192,85149,1,0,0:0:0:0:
64,192,85235,1,0,0:0:0:0:
320,192,85321,1,0,0:0:0:0:
448,192,85321,1,0,0:0:0:0:
192,192,85407,1,0,0:0:0:0:
64,192,85493,1,0,0:0:0:0:
448,192,85493,1,0,0:0:0:0:
320,192,85666,1,0,0:0:0:0:
192,192,85666,1,0,0:0:0:0:
192,192,85838,1,0,0:0:0:0:
448,192,85838,1,0,0:0:0:0:
320,192,86011,5,0,0:0:0:0:
64,192,86011,1,0,0:0:0:0:
448,192,86011,1,0,0:0:0:0:
64,192,86183,1,0,0:0:0:0:
192,192,86183,1,0,0:0:0:0:
192,192,86355,1,0,0:0:0:0:
448,192,86355,1,0,0:0:0:0:
320,192,86528,1,0,0:0:0:0:
64,192,86528,1,0,0:0:0:0:
448,192,86528,1,0,0:0:0:0:
64,192,86700,1,0,0:0:0:0:
192,192,86700,1,0,0:0:0:0:
320,192,86786,1,0,0:0:0:0:
64,192,86873,1,0,0:0:0:0:
448,192,86873,1,0,0:0:0:0:
192,192,86959,1,0,0:0:0:0:
320,192,87045,5,0,0:0:0:0:
448,192,87045,1,0,0:0:0:0:
192,192,87131,1,0,0:0:0:0:
64,192,87217,1,0,0:0:0:0:
448,192,87217,1,0,0:0:0:0:
320,192,87304,1,0,0:0:0:0:
192,192,87390,1,0,0:0:0:0:
64,192,87390,1,0,0:0:0:0:
320,192,87476,1,0,0:0:0:0:
448,192,87562,1,0,0:0:0:0:
64,192,87562,1,0,0:0:0:0:
192,192,87649,1,0,0:0:0:0:
320,192,87735,1,0,0:0:0:0:
448,192,87735,1,0,0:0:0:0:
192,192,87821,1,0,0:0:0:0:
64,192,87821,1,0,0:0:0:0:
320,192,87907,1,0,0:0:0:0:
448,192,87907,1,0,0:0:0:0:
64,192,87993,1,0,0:0:0:0:
192,192,87993,1,0,0:0:0:0:
320,192,88080,1,0,0:0:0:0:
448,192,88080,1,0,0:0:0:0:
192,192,88166,1,0,0:0:0:0:
64,192,88166,1,0,0:0:0:0:
320,192,88252,1,0,0:0:0:0:
448,192,88252,1,0,0:0:0:0:
192,192,88338,1,0,0:0:0:0:
64,192,88338,1,0,0:0:0:0:
448,192,88424,128,0,88511:0:0:0:0:
320,192,88424,128,0,88511:0:0:0:0:
192,192,88597,1,0,0:0:0:0:
448,192,88769,128,0,88855:0:0:0:0:
64,192,88769,128,0,88855:0:0:0:0:
320,192,88769,128,0,88855:0:0:0:0:
192,192,88942,1,0,0:0:0:0:
320,192,89114,1,0,0:0:0:0:
192,192,89286,128,0,89373:0:0:0:0:
64,192,89286,128,0,89373:0:0:0:0:
64,192,89459,128,0,89545:0:0:0:0:
320,192,89459,128,0,89545:0:0:0:0:
448,192,89459,128,0,89545:0:0:0:0:
192,192,89631,1,0,0:0:0:0:
448,192,89804,128,0,89890:0:0:0:0:
64,192,89804,128,0,89890:0:0:0:0:
320,192,89976,1,0,0:0:0:0:
448,192,90149,128,0,90235:0:0:0:0:
192,192,90149,128,0,90235:0:0:0:0:
64,192,90149,128,0,90235:0:0:0:0:
320,192,90321,1,0,0:0:0:0:
192,192,90407,1,0,0:0:0:0:
64,192,90407,1,0,0:0:0:0:
320,192,90493,128,0,90580:0:0:0:0:
448,192,90493,128,0,90580:0:0:0:0:
320,192,90666,128,0,90752:0:0:0:0:
192,192,90666,128,0,90752:0:0:0:0:
64,192,90838,128,0,91011:0:0:0:0:
192,192,90838,128,0,90924:0:0:0:0:
448,192,91011,128,0,91097:0:0:0:0:
320,192,91011,128,0,91097:0:0:0:0:
192,192,91183,128,0,91269:0:0:0:0:
64,192,91183,128,0,91269:0:0:0:0:
320,192,91355,1,0,0:0:0:0:
64,192,91528,128,0,91614:0:0:0:0:
192,192,91528,128,0,91614:0:0:0:0:
448,192,91528,128,0,91614:0:0:0:0:
320,192,91700,1,0,0:0:0:0:
192,192,91873,1,0,0:0:0:0:
448,192,92045,128,0,92131:0:0:0:0:
320,192,92045,128,0,92131:0:0:0:0:
64,192,92217,128,0,92304:0:0:0:0:
192,192,92217,128,0,92304:0:0:0:0:
448,192,92217,128,0,92304:0:0:0:0:
320,192,92390,1,0,0:0:0:0:
448,192,92562,128,0,92649:0:0:0:0:
64,192,92562,128,0,92649:0:0:0:0:
192,192,92735,1,0,0:0:0:0:
448,192,92907,128,0,92993:0:0:0:0:
320,192,92907,128,0,92993:0:0:0:0:
64,192,92907,128,0,92993:0:0:0:0:
192,192,93080,1,0,0:0:0:0:
448,192,93166,1,0,0:0:0:0:
320,192,93166,1,0,0:0:0:0:
64,192,93252,128,0,93597:0:0:0:0:
192,192,93252,128,0,93338:0:0:0:0:
320,192,93424,128,0,93511:0:0:0:0:
192,192,93424,128,0,93511:0:0:0:0:
320,192,93597,128,0,93683:0:0:0:0:
448,192,93597,128,0,93855:0:0:0:0:
192,192,93769,128,0,93855:0:0:0:0:
64,192,93769,128,0,93855:0:0:0:0:
64,192,93942,128,0,94028:0:0:0:0:
448,192,93942,128,0,94028:0:0:0:0:
320,192,94114,1,0,0:0:0:0:
192,192,94286,128,0,94373:0:0:0:0:
64,192,94286,128,0,94373:0:0:0:0:
448,192,94286,128,0,94373:0:0:0:0:
320,192,94459,1,0,0:0:0:0:
64,192,94631,1,0,0:0:0:0:
192,192,94804,128,0,94890:0:0:0:0:
448,192,94804,128,0,94890:0:0:0:0:
320,192,94976,128,0,95062:0:0:0:0:
448,192,94976,128,0,95062:0:0:0:0:
64,192,94976,128,0,95062:0:0:0:0:
192,192,95149,1,0,0:0:0:0:
64,192,95321,128,0,95407:0:0:0:0:
448,192,95321,128,0,95407:0:0:0:0:
320,192,95493,1,0,0:0:0:0:
192,192,95666,128,0,95752:0:0:0:0:
64,192,95666,128,0,95752:0:0:0:0:
448,192,95666,128,0,95752:0:0:0:0:
320,192,95838,1,0,0:0:0:0:
192,192,96011,128,0,96097:0:0:0:0:
448,192,96011,128,0,96097:0:0:0:0:
320,192,96183,128,0,96269:0:0:0:0:
64,192,96183,128,0,96269:0:0:0:0:
64,192,96355,128,0,96442:0:0:0:0:
448,192,96355,128,0,96442:0:0:0:0:
192,192,96528,128,0,96614:0:0:0:0:
448,192,96528,128,0,96614:0:0:0:0:
448,192,96700,128,0,96786:0:0:0:0:
64,192,96700,128,0,96786:0:0:0:0:
192,192,96873,1,0,0:0:0:0:
320,192,97045,128,0,97131:0:0:0:0:
448,192,97045,128,0,97131:0:0:0:0:
64,192,97045,128,0,97131:0:0:0:0:
192,192,97217,1,0,0:0:0:0:
64,192,97304,1,0,0:0:0:0:
448,192,97304,1,0,0:0:0:0:
320,192,97390,1,0,0:0:0:0:
192,192,97562,128,0,97735:0:0:0:0:
320,192,97735,128,0,97821:0:0:0:0:
64,192,97735,128,0,97821:0:0:0:0:
448,192,97735,128,0,97821:0:0:0:0:
192,192,97907,1,0,0:0:0:0:
64,192,98080,1,0,0:0:0:0:
448,192,98080,1,0,0:0:0:0:
320,192,98252,1,0,0:0:0:0:
64,192,98252,1,0,0:0:0:0:
192,192,98424,1,0,0:0:0:0:
448,192,98424,1,0,0:0:0:0:
320,192,98597,1,0,0:0:0:0:
64,192,98597,1,0,0:0:0:0:
192,192,98769,1,0,0:0:0:0:
64,192,98769,1,0,0:0:0:0:
320,192,98855,1,0,0:0:0:0:
448,192,98855,1,0,0:0:0:0:
192,192,98942,1,0,0:0:0:0:
64,192,98942,1,0,0:0:0:0:
320,192,99028,1,0,0:0:0:0:
448,192,99028,1,0,0:0:0:0:
192,192,99114,1,0,0:0:0:0:
64,192,99114,1,0,0:0:0:0:
320,192,99200,1,0,0:0:0:0:
448,192,99200,1,0,0:0:0:0:
192,192,99286,1,0,0:0:0:0:
64,192,99286,1,0,0:0:0:0:
320,192,99373,1,0,0:0:0:0:
448,192,99373,1,0,0:0:0:0:
192,192,99459,1,0,0:0:0:0:
64,192,99459,1,0,0:0:0:0:
192,192,99631,1,0,0:0:0:0:
320,192,99804,1,0,0:0:0:0:
320,192,99976,1,0,0:0:0:0:
448,192,99976,1,0,0:0:0:0:
192,192,100149,1,0,0:0:0:0:
64,192,100149,1,0,0:0:0:0:
448,192,100149,1,0,0:0:0:0:
64,192,100321,1,0,0:0:0:0:
320,192,100493,1,0,0:0:0:0:
192,192,100580,1,0,0:0:0:0:
320,192,100666,1,0,0:0:0:0:
448,192,100666,1,0,0:0:0:0:
64,192,100752,1,0,0:0:0:0:
192,192,100838,1,0,0:0:0:0:
448,192,100924,1,0,0:0:0:0:
320,192,101011,1,0,0:0:0:0:
192,192,101097,1,0,0:0:0:0:
64,192,101183,1,0,0:0:0:0:
448,192,101183,1,0,0:0:0:0:
320,192,101269,1,0,0:0:0:0:
64,192,101355,1,0,0:0:0:0:
192,192,101442,1,0,0:0:0:0:
320,192,101528,1,0,0:0:0:0:
64,192,101528,1,0,0:0:0:0:
448,192,101528,1,0,0:0:0:0:
192,192,101614,1,0,0:0:0:0:
320,192,101700,1,0,0:0:0:0:
192,192,101873,1,0,0:0:0:0:
448,192,101873,1,0,0:0:0:0:
64,192,101873,1,0,0:0:0:0:
192,192,102045,1,0,0:0:0:0:
320,192,102131,1,0,0:0:0:0:
448,192,102217,1,0,0:0:0:0:
64,192,102217,128,0,102390:0:0:0:0:
320,192,102390,128,0,102562:0:0:0:0:
192,192,102562,128,0,102735:0:0:0:0:
448,192,102735,128,0,102907:0:0:0:0:
64,192,102735,1,0,0:0:0:0:
320,192,102907,1,0,0:0:0:0:
192,192,102907,1,0,0:0:0:0:
64,192,102907,1,0,0:0:0:0:
320,192,103080,1,0,0:0:0:0:
448,192,103080,1,0,0:0:0:0:
192,192,103166,1,0,0:0:0:0:
64,192,103166,1,0,0:0:0:0:
320,192,103252,1,0,0:0:0:0:
64,192,103338,1,0,0:0:0:0:
192,192,103424,1,0,0:0:0:0:
448,192,103424,1,0,0:0:0:0:
320,192,103511,1,0,0:0:0:0:
192,192,103597,1,0,0:0:0:0:
64,192,103683,1,0,0:0:0:0:
320,192,103769,1,0,0:0:0:0:
192,192,103855,1,0,0:0:0:0:
448,192,103942,1,0,0:0:0:0:
320,192,104028,1,0,0:0:0:0:
192,192,104114,1,0,0:0:0:0:
64,192,104114,1,0,0:0:0:0:
320,192,104200,1,0,0:0:0:0:
448,192,104286,1,0,0:0:0:0:
192,192,104286,1,0,0:0:0:0:
64,192,104286,128,0,104373:0:0:0:0:
64,192,104459,128,0,104545:0:0:0:0:
64,192,104631,128,0,104976:0:0:0:0:
320,192,104631,1,0,0:0:0:0:
192,192,104804,1,0,0:0:0:0:
320,192,104890,1,0,0:0:0:0:
448,192,104976,1,0,0:0:0:0:
192,192,104976,1,0,0:0:0:0:
448,192,105149,1,0,0:0:0:0:
320,192,105321,1,0,0:0:0:0:
320,192,105493,1,0,0:0:0:0:
64,192,105493,1,0,0:0:0:0:
192,192,105666,1,0,0:0:0:0:
448,192,105666,1,0,0:0:0:0:
64,192,105666,1,0,0:0:0:0:
192,192,105838,1,0,0:0:0:0:
320,192,106011,1,0,0:0:0:0:
64,192,106097,1,0,0:0:0:0:
448,192,106183,1,0,0:0:0:0:
320,192,106183,1,0,0:0:0:0:
192,192,106355,1,0,0:0:0:0:
64,192,106442,1,0,0:0:0:0:
320,192,106528,1,0,0:0:0:0:
448,192,106614,1,0,0:0:0:0:
192,192,106700,1,0,0:0:0:0:
64,192,106700,1,0,0:0:0:0:
320,192,106786,1,0,0:0:0:0:
448,192,106873,1,0,0:0:0:0:
64,192,106959,1,0,0:0:0:0:
448,192,107045,1,0,0:0:0:0:
192,192,107045,1,0,0:0:0:0:
320,192,107045,128,0,107131:0:0:0:0:
320,192,107217,128,0,107304:0:0:0:0:
320,192,107390,128,0,107562:0:0:0:0:
64,192,107390,1,0,0:0:0:0:
64,192,107562,128,0,107735:0:0:0:0:
192,192,107649,1,0,0:0:0:0:
320,192,107735,1,0,0:0:0:0:
448,192,107735,1,0,0:0:0:0:
448,192,107907,1,0,0:0:0:0:
192,192,108080,1,0,0:0:0:0:
192,192,108252,1,0,0:0:0:0:
64,192,108252,1,0,0:0:0:0:
320,192,108424,1,0,0:0:0:0:
64,192,108424,1,0,0:0:0:0:
448,192,108424,1,0,0:0:0:0:
448,192,108597,1,0,0:0:0:0:
192,192,108683,1,0,0:0:0:0:
64,192,108683,1,0,0:0:0:0:
320,192,108769,1,0,0:0:0:0:
448,192,108769,1,0,0:0:0:0:
192,192,108942,1,0,0:0:0:0:
320,192,108942,1,0,0:0:0:0:
64,192,109114,1,0,0:0:0:0:
448,192,109114,1,0,0:0:0:0:
192,192,109200,1,0,0:0:0:0:
320,192,109286,1,0,0:0:0:0:
448,192,109373,1,0,0:0:0:0:
192,192,109459,1,0,0:0:0:0:
64,192,109459,1,0,0:0:0:0:
320,192,109545,1,0,0:0:0:0:
64,192,109631,1,0,0:0:0:0:
192,192,109717,1,0,0:0:0:0:
320,192,109804,1,0,0:0:0:0:
448,192,109804,1,0,0:0:0:0:
64,192,109890,1,0,0:0:0:0:
192,192,109890,1,0,0:0:0:0:
320,192,109976,1,0,0:0:0:0:
448,192,109976,1,0,0:0:0:0:
192,192,110062,1,0,0:0:0:0:
64,192,110062,1,0,0:0:0:0:
448,192,110149,1,0,0:0:0:0:
320,192,110149,1,0,0:0:0:0:
192,192,110235,1,0,0:0:0:0:
64,192,110235,1,0,0:0:0:0:
320,192,110321,1,0,0:0:0:0:
448,192,110321,1,0,0:0:0:0:
192,192,110407,1,0,0:0:0:0:
64,192,110407,1,0,0:0:0:0:
320,192,110493,1,0,0:0:0:0:
448,192,110493,128,0,110666:0:0:0:0:
192,192,110666,128,0,110838:0:0:0:0:
320,192,110838,128,0,111011:0:0:0:0:
64,192,111011,128,0,111183:0:0:0:0:
448,192,111011,1,0,0:0:0:0:
192,192,111183,1,0,0:0:0:0:
320,192,111183,1,0,0:0:0:0:
448,192,111183,1,0,0:0:0:0:
320,192,111355,1,0,0:0:0:0:
192,192,111528,1,0,0:0:0:0:
448,192,111614,1,0,0:0:0:0:
192,192,111700,1,0,0:0:0:0:
64,192,111700,128,0,111873:0:0:0:0:
320,192,111873,128,0,112045:0:0:0:0:
192,192,112045,128,0,112217:0:0:0:0:
448,192,112217,128,0,112390:0:0:0:0:
64,192,112217,1,0,0:0:0:0:
64,192,112390,128,0,112562:0:0:0:0:
192,192,112562,1,0,0:0:0:0:
320,192,112562,1,0,0:0:0:0:
448,192,112562,1,0,0:0:0:0:
320,192,112735,1,0,0:0:0:0:
64,192,112907,1,0,0:0:0:0:
448,192,112907,1,0,0:0:0:0:
64,192,113080,1,0,0:0:0:0:
192,192,113166,1,0,0:0:0:0:
320,192,113252,1,0,0:0:0:0:
448,192,113252,128,0,113424:0:0:0:0:
64,192,113424,128,0,113597:0:0:0:0:
192,192,113597,128,0,113769:0:0:0:0:
320,192,113769,128,0,113942:0:0:0:0:
448,192,113769,1,0,0:0:0:0:
192,192,113942,1,0,0:0:0:0:
64,192,113942,1,0,0:0:0:0:
448,192,113942,1,0,0:0:0:0:
64,192,114114,1,0,0:0:0:0:
320,192,114200,1,0,0:0:0:0:
448,192,114200,1,0,0:0:0:0:
192,192,114286,128,0,114459:0:0:0:0:
64,192,114373,1,0,0:0:0:0:
448,192,114459,128,0,114631:0:0:0:0:
320,192,114459,1,0,0:0:0:0:
64,192,114631,128,0,114804:0:0:0:0:
320,192,114804,128,0,114976:0:0:0:0:
192,192,114976,128,0,115149:0:0:0:0:
448,192,115149,128,0,115321:0:0:0:0:
64,192,115149,1,0,0:0:0:0:
320,192,115321,1,0,0:0:0:0:
64,192,115321,1,0,0:0:0:0:
192,192,115321,1,0,0:0:0:0:
192,192,115493,1,0,0:0:0:0:
320,192,115666,1,0,0:0:0:0:
448,192,115666,1,0,0:0:0:0:
448,192,115838,1,0,0:0:0:0:
320,192,115924,1,0,0:0:0:0:
64,192,116011,128,0,116183:0:0:0:0:
192,192,116011,1,0,0:0:0:0:
320,192,116183,128,0,116355:0:0:0:0:
192,192,116355,128,0,116528:0:0:0:0:
64,192,116528,1,0,0:0:0:0:
448,192,116528,128,0,116700:0:0:0:0:
64,192,116700,1,0,0:0:0:0:
192,192,116700,1,0,0:0:0:0:
320,192,116700,1,0,0:0:0:0:
192,192,116873,1,0,0:0:0:0:
320,192,117045,1,0,0:0:0:0:
64,192,117131,1,0,0:0:0:0:
448,192,117217,128,0,117390:0:0:0:0:
320,192,117217,1,0,0:0:0:0:
192,192,117390,128,0,117562:0:0:0:0:
320,192,117562,128,0,117735:0:0:0:0:
448,192,117735,1,0,0:0:0:0:
64,192,117735,128,0,117907:0:0:0:0:
448,192,117907,128,0,118080:0:0:0:0:
64,192,118080,1,0,0:0:0:0:
192,192,118080,1,0,0:0:0:0:
320,192,118080,1,0,0:0:0:0:
192,192,118252,1,0,0:0:0:0:
64,192,118424,1,0,0:0:0:0:
448,192,118424,1,0,0:0:0:0:
448,192,118597,1,0,0:0:0:0:
320,192,118683,1,0,0:0:0:0:
64,192,118769,128,0,118942:0:0:0:0:
192,192,118769,1,0,0:0:0:0:
448,192,118942,128,0,119114:0:0:0:0:
320,192,119114,128,0,119286:0:0:0:0:
64,192,119286,1,0,0:0:0:0:
192,192,119286,128,0,119459:0:0:0:0:
64,192,119459,1,0,0:0:0:0:
448,192,119459,1,0,0:0:0:0:
320,192,119459,1,0,0:0:0:0:
448,192,119631,1,0,0:0:0:0:
64,192,119717,1,0,0:0:0:0:
192,192,119717,1,0,0:0:0:0:
320,192,119804,128,0,119976:0:0:0:0:
448,192,119890,1,0,0:0:0:0:
192,192,119976,1,0,0:0:0:0:
64,192,119976,128,0,120149:0:0:0:0:
448,192,120149,128,0,120321:0:0:0:0:
192,192,120321,128,0,120493:0:0:0:0:
320,192,120493,128,0,120666:0:0:0:0:
448,192,120666,1,0,0:0:0:0:
64,192,120666,128,0,120838:0:0:0:0:
320,192,120838,1,0,0:0:0:0:
448,192,120838,1,0,0:0:0:0:
192,192,120838,1,0,0:0:0:0:
320,192,121011,1,0,0:0:0:0:
64,192,121183,1,0,0:0:0:0:
192,192,121183,1,0,0:0:0:0:
64,192,121355,1,0,0:0:0:0:
192,192,121442,1,0,0:0:0:0:
320,192,121528,1,0,0:0:0:0:
448,192,121528,128,0,121700:0:0:0:0:
192,192,121700,128,0,121873:0:0:0:0:
320,192,121873,128,0,122045:0:0:0:0:
64,192,122045,128,0,122217:0:0:0:0:
448,192,122045,1,0,0:0:0:0:
448,192,122217,1,0,0:0:0:0:
320,192,122217,1,0,0:0:0:0:
192,192,122217,1,0,0:0:0:0:
192,192,122390,128,0,122562:0:0:0:0:
448,192,122562,128,0,122735:0:0:0:0:
320,192,122735,1,0,0:0:0:0:
192,192,122735,1,0,0:0:0:0:
64,192,122907,128,0,123080:0:0:0:0:
64,192,123252,128,0,123424:0:0:0:0:
320,192,123252,1,0,0:0:0:0:
192,192,123597,1,0,0:0:0:0:
320,192,123597,1,0,0:0:0:0:
448,192,123597,1,0,0:0:0:0:
64,192,123942,1,0,0:0:0:0:
448,192,123942,1,0,0:0:0:0:
192,192,124286,1,0,0:0:0:0:
64,192,124286,128,0,124459:0:0:0:0:
320,192,124459,128,0,124631:0:0:0:0:
192,192,124631,128,0,124804:0:0:0:0:
448,192,124804,128,0,124976:0:0:0:0:
64,192,124804,1,0,0:0:0:0:
64,192,124976,1,0,0:0:0:0:
192,192,124976,1,0,0:0:0:0:
320,192,124976,1,0,0:0:0:0:
320,192,125149,128,0,125321:0:0:0:0:
192,192,125235,1,0,0:0:0:0:
448,192,125235,1,0,0:0:0:0:
64,192,125321,128,0,125493:0:0:0:0:
192,192,125493,128,0,125666:0:0:0:0:
320,192,125493,1,0,0:0:0:0:
448,192,125666,128,0,125838:0:0:0:0:
448,192,126011,128,0,126183:0:0:0:0:
192,192,126183,1,0,0:0:0:0:
64,192,126183,1,0,0:0:0:0:
320,192,126355,1,0,0:0:0:0:
448,192,126355,1,0,0:0:0:0:
64,192,126355,1,0,0:0:0:0:
192,192,126700,1,0,0:0:0:0:
448,192,126700,1,0,0:0:0:0:
192,192,127045,1,0,0:0:0:0:
64,192,127045,128,0,127217:0:0:0:0:
320,192,127217,128,0,127390:0:0:0:0:
192,192,127390,128,0,127562:0:0:0:0:
448,192,127562,128,0,127735:0:0:0:0:
64,192,127562,1,0,0:0:0:0:
64,192,127735,1,0,0:0:0:0:
192,192,127735,1,0,0:0:0:0:
320,192,127735,1,0,0:0:0:0:
320,192,127907,128,0,128080:0:0:0:0:
64,192,128080,128,0,128252:0:0:0:0:
192,192,128252,1,0,0:0:0:0:
320,192,128252,1,0,0:0:0:0:
448,192,128424,128,0,128597:0:0:0:0:
448,192,128769,128,0,128942:0:0:0:0:
192,192,128769,1,0,0:0:0:0:
320,192,129114,1,0,0:0:0:0:
192,192,129114,1,0,0:0:0:0:
64,192,129114,1,0,0:0:0:0:
448,192,129459,1,0,0:0:0:0:
64,192,129459,1,0,0:0:0:0:
320,192,129804,1,0,0:0:0:0:
448,192,129804,128,0,129976:0:0:0:0:
192,192,129976,128,0,130149:0:0:0:0:
320,192,130149,128,0,130321:0:0:0:0:
64,192,130321,128,0,130493:0:0:0:0:
448,192,130321,1,0,0:0:0:0:
448,192,130493,1,0,0:0:0:0:
320,192,130493,1,0,0:0:0:0:
192,192,130493,1,0,0:0:0:0:
192,192,130666,128,0,130838:0:0:0:0:
320,192,130752,1,0,0:0:0:0:
64,192,130752,1,0,0:0:0:0:
448,192,130838,128,0,131011:0:0:0:0:
320,192,131011,128,0,131183:0:0:0:0:
192,192,131011,1,0,0:0:0:0:
64,192,131183,128,0,131355:0:0:0:0:
64,192,131528,128,0,131700:0:0:0:0:
320,192,131700,1,0,0:0:0:0:
448,192,131700,1,0,0:0:0:0:
192,192,131873,1,0,0:0:0:0:
64,192,131873,1,0,0:0:0:0:
448,192,131873,1,0,0:0:0:0:
320,192,132217,1,0,0:0:0:0:
64,192,132217,1,0,0:0:0:0:
192,192,132562,1,0,0:0:0:0:
448,192,132562,1,0,0:0:0:0:
