osu file format v14

[General]
AudioFilename: audio.mp3
AudioLeadIn: 0
PreviewTime: 42190
Countdown: 0
SampleSet: Normal
StackLeniency: 0.3
Mode: 1
LetterboxInBreaks: 0
WidescreenStoryboard: 1

[Editor]
Bookmarks: 22188,33222,38740,41498,44257,46326,49085,51843,53912,55291,57360,60119,62878,65636,66326,77360,82880,88395,98050,99429,110464,121500,127016,132535
DistanceSpacing: 0.9
BeatDivisor: 4
GridSize: 32
TimelineZoom: 1.9

[Metadata]
Title:Lolisquad
TitleUnicode:Lolisquad
Artist:Shadren
ArtistUnicode:Shadren
Creator:Shadren
Version:Rmdy's Oni
Source:
Tags:fine lady kawaii drumstep anime dubstep halfstep trap future bass dnb drum and bass loli sweet artcore Djulus Mentai Frey Uta vanucik Error Uta h4d0uk3n -Rmdy
BeatmapID:1946988
BeatmapSetID:716965

[Difficulty]
HPDrainRate:5.5
CircleSize:3.7
OverallDifficulty:5.5
ApproachRate:5
SliderMultiplier:1.6
SliderTickRate:1

[Events]
//Background and Video events
0,0,"BG.jpg",0,0
//Break Periods
//Storyboard Layer 0 (Background)
//Storyboard Layer 1 (Fail)
//Storyboard Layer 2 (Pass)
//Storyboard Layer 3 (Foreground)
//Storyboard Sound Samples

[TimingPoints]
11156,344.827586206897,4,1,0,50,1,0
11156,-133.333333333333,4,1,0,50,0,0
22362,-140.27468588991,4,1,0,45,0,0
22535,-147.978685150191,4,1,0,40,0,0
22707,-156.5778348417,4,1,0,35,0,0
22880,-166.238325913563,4,1,0,30,0,0
33224,-153.846153846154,4,1,0,35,0,0
35466,-142.857142857143,4,1,0,35,0,0
35811,-133.333333333333,4,1,0,40,0,0
38224,-125,4,1,0,40,0,0
38742,-117.647058823529,4,1,0,50,0,0
42449,-116.714441778168,4,1,0,50,0,0
42535,-115.796360520389,4,1,0,50,0,0
42621,-114.892741880817,4,1,0,50,0,0
42707,-114.002986878256,4,1,0,50,0,0
42793,-113.12703487254,4,1,0,50,0,0
42880,-112.26431510348,4,1,0,50,0,0
42966,-111.41477827902,4,1,0,50,0,0
43052,-110.577880000885,4,1,0,52,0,0
43138,-109.753581259356,4,1,0,54,0,0
43224,-108.941362311736,4,1,0,56,0,0
43311,-108.141193467839,4,1,0,58,0,0
43397,-107.352693318046,4,1,0,60,0,0
43483,-106.57549488331,4,1,0,62,0,0
43569,-105.809580845926,4,1,0,64,0,0
43656,-105.054486509428,4,1,0,66,0,0
43742,-104.310201850672,4,1,0,68,0,0
43828,-103.576281860064,4,1,0,70,0,0
43914,-102.852723128698,4,1,0,72,0,0
44000,-102.139099153573,4,1,0,74,0,0
44087,-101.435412522607,4,1,0,76,0,0
44173,-100.741254148021,4,1,0,78,0,0
44259,-100,4,1,0,80,0,1
46500,-103.448240190262,4,1,0,80,0,1
46673,-107.142895408177,4,1,0,80,0,1
46845,-111.111111111111,4,1,0,80,0,1
47018,-99.9999999999999,4,1,0,80,0,1
49000,-90.9090909090909,4,1,0,80,0,1
49259,-96.774224765879,4,1,0,80,0,1
49431,-103.448240190262,4,1,0,80,0,1
49604,-111.111111111111,4,1,0,80,0,1
49776,-99.9999999999999,4,1,0,80,0,1
52018,-103.448240190262,4,1,0,80,0,1
52190,-107.142895408177,4,1,0,80,0,1
52362,-111.111111111111,4,1,0,80,0,1
52535,-100,4,1,0,80,0,1
53397,-102.536969704427,4,1,0,70,0,1
53569,-105.206125100603,4,1,0,60,0,1
53742,-108.017840226492,4,1,0,50,0,1
53914,-110.983972804487,4,1,0,40,0,0
54690,-109.58904109589,4,1,0,45,0,0
54776,-108.108108108108,4,1,0,50,0,0
54862,-106.666666666667,4,1,0,55,0,0
54949,-105.263157894737,4,1,0,50,0,0
55035,-103.896103896104,4,1,0,65,0,0
55121,-102.564102564103,4,1,0,60,0,0
55207,-101.26582278481,4,1,0,75,0,0
55293,-100,4,1,0,80,0,1
57707,-83.3333333333333,4,1,0,80,0,1
58052,-100,4,1,0,80,0,1
60466,-83.3333333333333,4,1,0,80,0,1
60811,-100,4,1,0,80,0,1
66328,-100,4,1,0,70,0,0
66500,-106.593444076816,4,1,0,60,0,0
66673,-114.117602754342,4,1,0,50,0,0
66845,-122.784808572344,4,1,0,40,0,0
67018,-132.876768755888,4,1,0,30,0,0
77362,-166.666666666667,4,1,0,50,0,0
82880,-153.846153846154,4,1,0,55,0,0
83224,-142.857142857143,4,1,0,55,0,0
83569,-133.333333333333,4,1,0,55,0,0
84604,-125,4,1,0,60,0,0
84949,-117.647058823529,4,1,0,60,0,0
86587,-116.714441778168,4,1,0,60,0,0
86673,-115.796360520389,4,1,0,60,0,0
86759,-114.892741880817,4,1,0,60,0,0
86845,-114.002986878256,4,1,0,60,0,0
86931,-113.12703487254,4,1,0,60,0,0
87018,-112.26431510348,4,1,0,60,0,0
87104,-111.41477827902,4,1,0,60,0,0
87190,-110.577880000885,4,1,0,60,0,0
87276,-109.753581259356,4,1,0,60,0,0
87362,-108.941362311736,4,1,0,60,0,0
87449,-108.141193467839,4,1,0,60,0,0
87535,-107.352693318046,4,1,0,60,0,0
87621,-106.57549488331,4,1,0,61,0,0
87707,-105.809580845926,4,1,0,62,0,0
87793,-105.054486509428,4,1,0,63,0,0
87880,-104.310201850672,4,1,0,64,0,0
87966,-103.576281860064,4,1,0,65,0,0
88052,-102.852723128698,4,1,0,66,0,0
88138,-102.139099153573,4,1,0,67,0,0
88224,-101.435412522607,4,1,0,68,0,0
88311,-100.741254148021,4,1,0,69,0,0
88397,-100,4,1,0,80,0,1
90638,-103.448240190262,4,1,0,80,0,1
90811,-107.142895408177,4,1,0,80,0,1
90983,-111.111111111111,4,1,0,80,0,1
91156,-100,4,1,0,80,0,1
93138,-90.9090909090909,4,1,0,80,0,1
93397,-96.6887020218575,4,1,0,80,0,1
93569,-103.253198525957,4,1,0,80,0,1
93742,-110.773866229479,4,1,0,80,0,1
93914,-100,4,1,0,80,0,1
96156,-103.448240190262,4,1,0,80,0,1
96328,-107.142895408177,4,1,0,80,0,1
96500,-111.111111111111,4,1,0,80,0,1
96673,-100,4,1,0,80,0,1
97535,-102.536969704427,4,1,0,70,0,1
97707,-105.206125100603,4,1,0,60,0,1
97880,-108.017840226492,4,1,0,50,0,1
98052,-110.983972804487,4,1,0,40,0,0
98828,-109.58904109589,4,1,0,45,0,0
98914,-108.108108108108,4,1,0,50,0,0
99000,-106.666666666667,4,1,0,55,0,0
99087,-105.263157894737,4,1,0,60,0,0
99173,-103.896103896104,4,1,0,65,0,0
99259,-102.564102564103,4,1,0,70,0,0
99345,-101.26582278481,4,1,0,75,0,0
99431,-100,4,1,0,80,0,1
101845,-83.3333333333333,4,1,0,80,0,1
102190,-100,4,1,0,80,0,1
104604,-83.3333333333333,4,1,0,80,0,1
104949,-100,4,1,0,80,0,1
110466,-100,4,1,0,70,0,0
110638,-105.206125100603,4,1,0,60,0,0
110811,-110.983972804487,4,1,0,50,0,0
110983,-117.433468068666,4,1,0,40,0,0
111328,-120.947649019598,4,1,0,30,0,0
111500,-124.678640803329,4,1,0,30,0,0
122018,-128.712884030979,4,1,0,30,0,0
122707,-129.999961000012,4,1,0,28,0,0
123224,-134.02059092359,4,1,0,26,0,0
123569,-138.297857627887,4,1,0,24,0,0
123914,-141.304409262787,4,1,0,22,0,0
124259,-144.444380246942,4,1,0,20,0,0
124776,-147.727289514465,4,1,0,18,0,0
125207,-152.941212456756,4,1,0,16,0,0
125466,-154.761867913841,4,1,0,14,0,0
126156,-157.575853076275,4,1,0,12,0,0
126673,-160.493807346444,4,1,0,10,0,0
127018,-168.831081126711,4,1,0,10,0,0
127535,-171.052744113647,4,1,0,10,0,0
128224,-175.675604455836,4,1,0,10,0,0
128742,-180.555605709891,4,1,0,10,0,0
129087,-188.405879017049,4,1,0,10,0,0
129431,-191.176442474053,4,1,0,10,0,0
129776,-200,4,1,0,10,0,0

[Colours]
Combo1 : 83,169,255
Combo2 : 252,230,154
Combo3 : 255,176,216
Combo4 : 255,125,125

[HitObjects]
256,192,11156,5,0,0:0:0:0:
256,192,11500,1,0,0:0:0:0:
256,192,11845,1,0,0:0:0:0:
256,192,12018,1,8,0:0:0:0:
256,192,12190,1,0,0:0:0:0:
256,192,12276,1,0,0:0:0:0:
256,192,12362,1,8,0:0:0:0:
256,192,12535,1,8,0:0:0:0:
256,192,12880,1,8,0:0:0:0:
256,192,13224,1,0,0:0:0:0:
256,192,13397,1,8,0:0:0:0:
256,192,13483,1,0,0:0:0:0:
256,192,13569,1,0,0:0:0:0:
256,192,13742,1,8,0:0:0:0:
256,192,13914,1,0,0:0:0:0:
256,192,14259,1,0,0:0:0:0:
256,192,14604,1,0,0:0:0:0:
256,192,14776,1,8,0:0:0:0:
256,192,14949,1,0,0:0:0:0:
256,192,15035,1,0,0:0:0:0:
256,192,15121,1,8,0:0:0:0:
256,192,15293,1,8,0:0:0:0:
256,192,15638,1,8,0:0:0:0:
256,192,15983,1,0,0:0:0:0:
256,192,16156,1,8,0:0:0:0:
256,192,16242,1,0,0:0:0:0:
256,192,16328,1,0,0:0:0:0:
256,192,16500,1,8,0:0:0:0:
256,192,16673,1,0,0:0:0:0:
256,192,17018,1,0,0:0:0:0:
256,192,17362,1,0,0:0:0:0:
256,192,17535,1,8,0:0:0:0:
256,192,17707,1,0,0:0:0:0:
256,192,17793,1,0,0:0:0:0:
256,192,17880,1,8,0:0:0:0:
256,192,17966,1,8,0:0:0:0:
256,192,18052,1,8,0:0:0:0:
256,192,18397,1,8,0:0:0:0:
256,192,18742,1,0,0:0:0:0:
256,192,18914,1,8,0:0:0:0:
256,192,19000,1,0,0:0:0:0:
256,192,19087,1,0,0:0:0:0:
256,192,19173,1,0,0:0:0:0:
256,192,19259,1,8,0:0:0:0:
256,192,19431,1,0,0:0:0:0:
256,192,19776,1,0,0:0:0:0:
256,192,20121,1,0,0:0:0:0:
256,192,20293,1,8,0:0:0:0:
256,192,20466,1,0,0:0:0:0:
256,192,20552,1,0,0:0:0:0:
256,192,20638,1,8,0:0:0:0:
256,192,20724,1,8,0:0:0:0:
256,192,20811,1,8,0:0:0:0:
256,192,21156,1,8,0:0:0:0:
256,192,21500,1,0,0:0:0:0:
256,192,21673,1,8,0:0:0:0:
256,192,21759,1,0,0:0:0:0:
256,192,21845,1,0,0:0:0:0:
256,192,21931,1,0,0:0:0:0:
256,192,22018,1,8,0:0:0:0:
256,192,22190,1,4,0:0:0:0:
256,192,22362,1,0,0:0:0:0:
256,192,22535,1,8,0:0:0:0:
256,192,22707,1,8,0:0:0:0:
256,192,22880,1,0,0:0:0:0:
256,192,23224,1,8,0:0:0:0:
256,192,23397,1,0,0:0:0:0:
256,192,23569,1,0,0:0:0:0:
256,192,23742,1,8,0:0:0:0:
256,192,23914,1,0,0:0:0:0:
256,192,24087,1,8,0:0:0:0:
256,192,24949,1,0,0:0:0:0:
256,192,25121,1,0,0:0:0:0:
256,192,25293,1,8,0:0:0:0:
256,192,25466,1,8,0:0:0:0:
256,192,25638,1,0,0:0:0:0:
256,192,25983,1,8,0:0:0:0:
256,192,26156,1,8,0:0:0:0:
256,192,26328,1,0,0:0:0:0:
256,192,26500,1,8,0:0:0:0:
256,192,26673,1,0,0:0:0:0:
256,192,26845,1,8,0:0:0:0:
256,192,27018,1,0,0:0:0:0:
256,192,27707,1,0,0:0:0:0:
256,192,27880,1,0,0:0:0:0:
256,192,28052,1,8,0:0:0:0:
256,192,28224,1,8,0:0:0:0:
256,192,28742,1,0,0:0:0:0:
256,192,28914,1,0,0:0:0:0:
256,192,29087,1,0,0:0:0:0:
256,192,29259,1,8,0:0:0:0:
256,192,29431,1,0,0:0:0:0:
256,192,29604,1,8,0:0:0:0:
256,192,29776,1,0,0:0:0:0:
256,192,30466,1,0,0:0:0:0:
256,192,30638,1,0,0:0:0:0:
256,192,30811,1,8,0:0:0:0:
256,192,30983,1,8,0:0:0:0:
256,192,31156,1,0,0:0:0:0:
256,192,31500,1,0,0:0:0:0:
256,192,31673,1,0,0:0:0:0:
256,192,31845,1,8,0:0:0:0:
256,192,32018,1,0,0:0:0:0:
256,192,32190,1,8,0:0:0:0:
256,192,32362,1,8,0:0:0:0:
256,192,33224,1,4,0:0:0:0:
256,192,33397,1,0,0:0:0:0:
256,192,33569,1,8,0:0:0:0:
256,192,33742,1,0,0:0:0:0:
256,192,33914,1,0,0:0:0:0:
256,192,34087,1,8,0:0:0:0:
256,192,34259,1,8,0:0:0:0:
256,192,34345,1,0,0:0:0:0:
256,192,34431,1,0,0:0:0:0:
256,192,34518,1,0,0:0:0:0:
256,192,34604,1,8,0:0:0:0:
256,192,34776,1,0,0:0:0:0:
256,192,34949,1,8,0:0:0:0:
256,192,35121,1,0,0:0:0:0:
256,192,35466,1,0,0:0:0:0:
256,192,35811,1,0,0:0:0:0:
256,192,35983,1,8,0:0:0:0:
256,192,36156,1,0,0:0:0:0:
256,192,36328,1,8,0:0:0:0:
256,192,36500,1,0,0:0:0:0:
256,192,36845,1,8,0:0:0:0:
256,192,37018,1,8,0:0:0:0:
256,192,37104,1,0,0:0:0:0:
256,192,37190,1,0,0:0:0:0:
256,192,37276,1,0,0:0:0:0:
256,192,37362,1,8,0:0:0:0:
256,192,37535,1,0,0:0:0:0:
256,192,37707,1,8,0:0:0:0:
256,192,37880,1,0,0:0:0:0:
256,192,38224,1,0,0:0:0:0:
256,192,38397,1,8,0:0:0:0:
256,192,38483,1,8,0:0:0:0:
256,192,38569,1,0,0:0:0:0:
256,192,38742,1,12,0:0:0:0:
256,192,38914,1,0,0:0:0:0:
256,192,39087,1,8,0:0:0:0:
256,192,39259,1,0,0:0:0:0:
256,192,39431,1,0,0:0:0:0:
256,192,39604,1,8,0:0:0:0:
256,192,39776,1,8,0:0:0:0:
256,192,39862,1,8,0:0:0:0:
256,192,39949,1,0,0:0:0:0:
256,192,40035,1,0,0:0:0:0:
256,192,40121,1,8,0:0:0:0:
256,192,40293,1,0,0:0:0:0:
256,192,40466,1,8,0:0:0:0:
256,192,40638,1,0,0:0:0:0:
256,192,40983,1,8,0:0:0:0:
256,192,41069,1,0,0:0:0:0:
256,192,41156,1,0,0:0:0:0:
256,192,41242,1,0,0:0:0:0:
256,192,41328,1,8,0:0:0:0:
256,192,41500,1,8,0:0:0:0:
256,192,41673,1,0,0:0:0:0:
256,192,41845,1,8,0:0:0:0:
256,192,42018,1,0,0:0:0:0:
256,192,42190,1,0,0:0:0:0:
256,192,42362,1,8,0:0:0:0:
256,192,42449,1,0,0:0:0:0:
256,192,42535,1,8,0:0:0:0:
256,192,42621,1,8,0:0:0:0:
256,192,42707,1,0,0:0:0:0:
256,192,42880,1,8,0:0:0:0:
256,192,42966,1,8,0:0:0:0:
256,192,43052,1,8,0:0:0:0:
256,192,43138,1,8,0:0:0:0:
256,192,43224,1,0,0:0:0:0:
256,192,43397,1,8,0:0:0:0:
256,192,43483,1,8,0:0:0:0:
256,192,43569,1,0,0:0:0:0:
256,192,43656,1,0,0:0:0:0:
256,192,43742,1,0,0:0:0:0:
256,192,43914,1,8,0:0:0:0:
256,192,44000,1,8,0:0:0:0:
256,192,44087,1,0,0:0:0:0:
256,192,44173,1,0,0:0:0:0:
256,192,44259,1,12,0:0:0:0:
256,192,44604,1,8,0:0:0:0:
256,192,44862,1,0,0:0:0:0:
256,192,44949,1,0,0:0:0:0:
256,192,45121,1,0,0:0:0:0:
256,192,45293,1,8,0:0:0:0:
256,192,45638,1,8,0:0:0:0:
256,192,45811,1,0,0:0:0:0:
256,192,45983,1,8,0:0:0:0:
256,192,46242,1,8,0:0:0:0:
256,192,46328,1,0,0:0:0:0:
256,192,46500,1,0,0:0:0:0:
256,192,46673,1,8,0:0:0:0:
256,192,46845,1,0,0:0:0:0:
256,192,47018,1,8,0:0:0:0:
256,192,47362,1,8,0:0:0:0:
256,192,47621,1,0,0:0:0:0:
256,192,47707,1,0,0:0:0:0:
256,192,47880,1,0,0:0:0:0:
256,192,48052,1,8,0:0:0:0:
256,192,48397,1,8,0:0:0:0:
256,192,48569,1,0,0:0:0:0:
256,192,48742,1,8,0:0:0:0:
256,192,49000,1,0,0:0:0:0:
256,192,49087,1,8,0:0:0:0:
256,192,49259,1,8,0:0:0:0:
256,192,49431,1,0,0:0:0:0:
256,192,49604,1,0,0:0:0:0:
256,192,49776,1,8,0:0:0:0:
256,192,50121,1,8,0:0:0:0:
256,192,50380,1,0,0:0:0:0:
256,192,50466,1,0,0:0:0:0:
256,192,50638,1,0,0:0:0:0:
256,192,50811,1,8,0:0:0:0:
256,192,51156,1,8,0:0:0:0:
256,192,51328,1,0,0:0:0:0:
256,192,51500,1,8,0:0:0:0:
256,192,51759,1,8,0:0:0:0:
256,192,51845,1,0,0:0:0:0:
256,192,52018,1,0,0:0:0:0:
256,192,52190,1,0,0:0:0:0:
256,192,52362,1,0,0:0:0:0:
256,192,52535,1,8,0:0:0:0:
256,192,52880,1,8,0:0:0:0:
256,192,53138,1,0,0:0:0:0:
256,192,53224,1,0,0:0:0:0:
256,192,53397,1,8,0:0:0:0:
256,192,53569,1,0,0:0:0:0:
256,192,53742,1,8,0:0:0:0:
256,192,53914,1,0,0:0:0:0:
256,192,54087,1,0,0:0:0:0:
256,192,54259,1,0,0:0:0:0:
256,192,54431,1,0,0:0:0:0:
256,192,54604,1,8,0:0:0:0:
256,192,54690,1,0,0:0:0:0:
256,192,54776,1,8,0:0:0:0:
256,192,54862,1,0,0:0:0:0:
256,192,54949,1,8,0:0:0:0:
256,192,55035,1,0,0:0:0:0:
256,192,55121,1,8,0:0:0:0:
256,192,55207,1,0,0:0:0:0:
256,192,55293,1,0,0:0:0:0:
256,192,55638,1,0,0:0:0:0:
256,192,55811,1,0,0:0:0:0:
256,192,55983,1,8,0:0:0:0:
256,192,56156,1,0,0:0:0:0:
256,192,56242,1,8,0:0:0:0:
256,192,56328,1,0,0:0:0:0:
256,192,56500,1,8,0:0:0:0:
256,192,56673,1,0,0:0:0:0:
256,192,56845,1,0,0:0:0:0:
256,192,56931,1,0,0:0:0:0:
256,192,57018,1,0,0:0:0:0:
256,192,57190,1,0,0:0:0:0:
256,192,57362,1,8,0:0:0:0:
256,192,57707,1,12,0:0:0:0:
256,192,58052,1,0,0:0:0:0:
256,192,58397,1,0,0:0:0:0:
256,192,58569,1,0,0:0:0:0:
256,192,58742,1,8,0:0:0:0:
256,192,58914,1,0,0:0:0:0:
256,192,59000,1,0,0:0:0:0:
256,192,59087,1,8,0:0:0:0:
256,192,59173,1,8,0:0:0:0:
256,192,59259,1,8,0:0:0:0:
256,192,59431,1,0,0:0:0:0:
256,192,59518,1,0,0:0:0:0:
256,192,59604,1,8,0:0:0:0:
256,192,59776,1,0,0:0:0:0:
256,192,59862,1,0,0:0:0:0:
256,192,59949,1,8,0:0:0:0:
256,192,60121,1,0,0:0:0:0:
256,192,60466,1,4,0:0:0:0:
256,192,60811,1,0,0:0:0:0:
256,192,61156,1,0,0:0:0:0:
256,192,61328,1,0,0:0:0:0:
256,192,61500,1,8,0:0:0:0:
256,192,61673,1,0,0:0:0:0:
256,192,61845,1,8,0:0:0:0:
256,192,61931,1,8,0:0:0:0:
256,192,62018,1,8,0:0:0:0:
256,192,62190,1,0,0:0:0:0:
256,192,62362,1,8,0:0:0:0:
256,192,62535,1,0,0:0:0:0:
256,192,62707,1,8,0:0:0:0:
256,192,62793,1,8,0:0:0:0:
256,192,62880,1,0,0:0:0:0:
256,192,63052,1,0,0:0:0:0:
256,192,63224,1,0,0:0:0:0:
256,192,63397,1,8,0:0:0:0:
256,192,63483,1,8,0:0:0:0:
256,192,63569,1,0,0:0:0:0:
256,192,63914,1,0,0:0:0:0:
256,192,64087,1,0,0:0:0:0:
256,192,64259,1,8,0:0:0:0:
256,192,64431,1,0,0:0:0:0:
256,192,64518,1,0,0:0:0:0:
256,192,64604,1,8,0:0:0:0:
256,192,64690,1,8,0:0:0:0:
256,192,64776,1,8,0:0:0:0:
256,192,64949,1,0,0:0:0:0:
256,192,65035,1,0,0:0:0:0:
256,192,65121,1,8,0:0:0:0:
256,192,65293,1,0,0:0:0:0:
256,192,65380,1,0,0:0:0:0:
256,192,65466,1,8,0:0:0:0:
256,192,65638,1,8,0:0:0:0:
256,192,65724,1,0,0:0:0:0:
256,192,65811,1,8,0:0:0:0:
256,192,65897,1,0,0:0:0:0:
256,192,65983,1,8,0:0:0:0:
256,192,66069,1,0,0:0:0:0:
256,192,66156,1,8,0:0:0:0:
256,192,66242,1,0,0:0:0:0:
256,192,66328,1,0,0:0:0:0:
256,192,66500,1,0,0:0:0:0:
256,192,66673,1,8,0:0:0:0:
256,192,66845,1,8,0:0:0:0:
256,192,67018,1,0,0:0:0:0:
256,192,67362,1,8,0:0:0:0:
256,192,67449,1,8,0:0:0:0:
256,192,67535,1,0,0:0:0:0:
256,192,67707,1,0,0:0:0:0:
256,192,67880,1,8,0:0:0:0:
256,192,68052,1,0,0:0:0:0:
256,192,68224,1,8,0:0:0:0:
256,192,69087,1,0,0:0:0:0:
256,192,69259,1,0,0:0:0:0:
256,192,69431,1,8,0:0:0:0:
256,192,69604,1,8,0:0:0:0:
256,192,69776,1,0,0:0:0:0:
256,192,70121,1,8,0:0:0:0:
256,192,70207,1,8,0:0:0:0:
256,192,70293,1,8,0:0:0:0:
256,192,70466,1,0,0:0:0:0:
256,192,70638,1,8,0:0:0:0:
256,192,70811,1,0,0:0:0:0:
256,192,70983,1,8,0:0:0:0:
256,192,71156,1,0,0:0:0:0:
256,192,71845,1,0,0:0:0:0:
256,192,72018,1,0,0:0:0:0:
256,192,72190,1,8,0:0:0:0:
256,192,72362,1,8,0:0:0:0:
256,192,72535,1,0,0:0:0:0:
256,192,72880,1,8,0:0:0:0:
256,192,72966,1,8,0:0:0:0:
256,192,73052,1,0,0:0:0:0:
256,192,73224,1,8,0:0:0:0:
256,192,73397,1,0,0:0:0:0:
256,192,73569,1,8,0:0:0:0:
256,192,73742,1,8,0:0:0:0:
256,192,73914,1,0,0:0:0:0:
256,192,74604,1,0,0:0:0:0:
256,192,74776,1,0,0:0:0:0:
256,192,74949,1,8,0:0:0:0:
256,192,75121,1,8,0:0:0:0:
256,192,75293,1,0,0:0:0:0:
256,192,75638,1,0,0:0:0:0:
256,192,75724,1,0,0:0:0:0:
256,192,75811,1,0,0:0:0:0:
256,192,75983,1,8,0:0:0:0:
256,192,76156,1,0,0:0:0:0:
256,192,76328,1,8,0:0:0:0:
256,192,76500,1,8,0:0:0:0:
256,192,77362,1,0,0:0:0:0:
256,192,77707,1,0,0:0:0:0:
256,192,78052,1,0,0:0:0:0:
256,192,78224,1,8,0:0:0:0:
256,192,78397,1,8,0:0:0:0:
256,192,78742,1,8,0:0:0:0:
256,192,79087,1,8,0:0:0:0:
256,192,79604,1,8,0:0:0:0:
256,192,79690,1,0,0:0:0:0:
256,192,79862,1,0,0:0:0:0:
256,192,79949,1,8,0:0:0:0:
256,192,80121,1,0,0:0:0:0:
256,192,80466,1,0,0:0:0:0:
256,192,80811,1,0,0:0:0:0:
256,192,80983,1,8,0:0:0:0:
256,192,81156,1,8,0:0:0:0:
256,192,81500,1,8,0:0:0:0:
256,192,81845,1,8,0:0:0:0:
256,192,82362,1,8,0:0:0:0:
256,192,82449,1,0,0:0:0:0:
256,192,82535,1,0,0:0:0:0:
256,192,82621,1,0,0:0:0:0:
256,192,82707,1,8,0:0:0:0:
256,192,82880,1,0,0:0:0:0:
256,192,83224,1,0,0:0:0:0:
256,192,83569,1,0,0:0:0:0:
256,192,83742,1,8,0:0:0:0:
256,192,83914,1,0,0:0:0:0:
256,192,84000,1,0,0:0:0:0:
256,192,84087,1,8,0:0:0:0:
256,192,84173,1,8,0:0:0:0:
256,192,84259,1,8,0:0:0:0:
256,192,84604,1,8,0:0:0:0:
256,192,84949,1,0,0:0:0:0:
256,192,85121,1,8,0:0:0:0:
256,192,85207,1,0,0:0:0:0:
256,192,85293,1,0,0:0:0:0:
256,192,85380,1,8,0:0:0:0:
256,192,85466,1,8,0:0:0:0:
256,192,85638,1,0,0:0:0:0:
256,192,85811,1,8,0:0:0:0:
256,192,85897,1,8,0:0:0:0:
256,192,85983,1,0,0:0:0:0:
256,192,86156,1,8,0:0:0:0:
256,192,86328,1,0,0:0:0:0:
256,192,86500,1,8,0:0:0:0:
256,192,86587,1,0,0:0:0:0:
256,192,86673,1,8,0:0:0:0:
256,192,86759,1,8,0:0:0:0:
256,192,86845,1,0,0:0:0:0:
256,192,87018,1,8,0:0:0:0:
256,192,87104,1,8,0:0:0:0:
256,192,87190,1,8,0:0:0:0:
256,192,87276,1,8,0:0:0:0:
256,192,87362,1,0,0:0:0:0:
256,192,87535,1,8,0:0:0:0:
256,192,87621,1,8,0:0:0:0:
256,192,87707,1,0,0:0:0:0:
256,192,87793,1,0,0:0:0:0:
256,192,87880,1,0,0:0:0:0:
256,192,88052,1,8,0:0:0:0:
256,192,88138,1,8,0:0:0:0:
256,192,88224,1,0,0:0:0:0:
256,192,88311,1,0,0:0:0:0:
256,192,88397,1,12,0:0:0:0:
256,192,88742,1,8,0:0:0:0:
256,192,89000,1,0,0:0:0:0:
256,192,89086,1,0,0:0:0:0:
256,192,89259,1,0,0:0:0:0:
256,192,89431,1,8,0:0:0:0:
256,192,89776,1,8,0:0:0:0:
256,192,89949,1,0,0:0:0:0:
256,192,90121,1,8,0:0:0:0:
256,192,90380,1,8,0:0:0:0:
256,192,90466,1,0,0:0:0:0:
256,192,90638,1,0,0:0:0:0:
256,192,90811,1,8,0:0:0:0:
256,192,90983,1,0,0:0:0:0:
256,192,91156,1,8,0:0:0:0:
256,192,91500,1,8,0:0:0:0:
256,192,91759,1,0,0:0:0:0:
256,192,91845,1,0,0:0:0:0:
256,192,92018,1,0,0:0:0:0:
256,192,92190,1,8,0:0:0:0:
256,192,92535,1,8,0:0:0:0:
256,192,92707,1,0,0:0:0:0:
256,192,92880,1,8,0:0:0:0:
256,192,93138,1,0,0:0:0:0:
256,192,93224,1,8,0:0:0:0:
256,192,93397,1,8,0:0:0:0:
256,192,93569,1,0,0:0:0:0:
256,192,93742,1,0,0:0:0:0:
256,192,93914,1,8,0:0:0:0:
256,192,94259,1,8,0:0:0:0:
256,192,94518,1,0,0:0:0:0:
256,192,94604,1,0,0:0:0:0:
256,192,94776,1,0,0:0:0:0:
256,192,94949,1,8,0:0:0:0:
256,192,95293,1,8,0:0:0:0:
256,192,95466,1,0,0:0:0:0:
256,192,95638,1,8,0:0:0:0:
256,192,95897,1,8,0:0:0:0:
256,192,95983,1,0,0:0:0:0:
256,192,96156,1,0,0:0:0:0:
256,192,96328,1,0,0:0:0:0:
256,192,96500,1,0,0:0:0:0:
256,192,96673,1,8,0:0:0:0:
256,192,97018,1,8,0:0:0:0:
256,192,97276,1,0,0:0:0:0:
256,192,97362,1,0,0:0:0:0:
256,192,97535,1,8,0:0:0:0:
256,192,97707,1,0,0:0:0:0:
256,192,97880,1,8,0:0:0:0:
256,192,98052,1,0,0:0:0:0:
256,192,98224,1,0,0:0:0:0:
256,192,98397,1,0,0:0:0:0:
256,192,98569,1,0,0:0:0:0:
256,192,98742,1,8,0:0:0:0:
256,192,98828,1,0,0:0:0:0:
256,192,98914,1,8,0:0:0:0:
256,192,99000,1,0,0:0:0:0:
256,192,99087,1,8,0:0:0:0:
256,192,99173,1,0,0:0:0:0:
256,192,99259,1,8,0:0:0:0:
256,192,99345,1,0,0:0:0:0:
256,192,99431,1,0,0:0:0:0:
256,192,99776,1,0,0:0:0:0:
256,192,99949,1,0,0:0:0:0:
256,192,100121,1,8,0:0:0:0:
256,192,100293,1,0,0:0:0:0:
256,192,100380,1,8,0:0:0:0:
256,192,100466,1,0,0:0:0:0:
256,192,100552,1,0,0:0:0:0:
256,192,100638,1,8,0:0:0:0:
256,192,100811,1,0,0:0:0:0:
256,192,100983,1,0,0:0:0:0:
256,192,101069,1,0,0:0:0:0:
256,192,101156,1,0,0:0:0:0:
256,192,101328,1,0,0:0:0:0:
256,192,101500,1,8,0:0:0:0:
256,192,101845,1,12,0:0:0:0:
256,192,102190,1,0,0:0:0:0:
256,192,102535,1,0,0:0:0:0:
256,192,102707,1,0,0:0:0:0:
256,192,102880,1,8,0:0:0:0:
256,192,103052,1,0,0:0:0:0:
256,192,103138,1,0,0:0:0:0:
256,192,103224,1,8,0:0:0:0:
256,192,103311,1,8,0:0:0:0:
256,192,103397,1,8,0:0:0:0:
256,192,103569,1,0,0:0:0:0:
256,192,103656,1,0,0:0:0:0:
256,192,103742,1,8,0:0:0:0:
256,192,103914,1,0,0:0:0:0:
256,192,104000,1,0,0:0:0:0:
256,192,104087,1,8,0:0:0:0:
256,192,104259,1,0,0:0:0:0:
256,192,104604,1,4,0:0:0:0:
256,192,104949,1,0,0:0:0:0:
256,192,105294,1,0,0:0:0:0:
256,192,105466,1,0,0:0:0:0:
256,192,105638,1,8,0:0:0:0:
256,192,105811,1,0,0:0:0:0:
256,192,105983,1,8,0:0:0:0:
256,192,106069,1,8,0:0:0:0:
256,192,106156,1,8,0:0:0:0:
256,192,106328,1,0,0:0:0:0:
256,192,106414,1,0,0:0:0:0:
256,192,106500,1,8,0:0:0:0:
256,192,106673,1,0,0:0:0:0:
256,192,106759,1,0,0:0:0:0:
256,192,106845,1,8,0:0:0:0:
256,192,106931,1,8,0:0:0:0:
256,192,107018,1,0,0:0:0:0:
256,192,107190,1,0,0:0:0:0:
256,192,107362,1,0,0:0:0:0:
256,192,107535,1,8,0:0:0:0:
256,192,107621,1,8,0:0:0:0:
256,192,107707,1,0,0:0:0:0:
256,192,108052,1,0,0:0:0:0:
256,192,108225,1,0,0:0:0:0:
256,192,108397,1,8,0:0:0:0:
256,192,108569,1,0,0:0:0:0:
256,192,108656,1,0,0:0:0:0:
256,192,108742,1,8,0:0:0:0:
256,192,108828,1,8,0:0:0:0:
256,192,108914,1,8,0:0:0:0:
256,192,109087,1,0,0:0:0:0:
256,192,109173,1,0,0:0:0:0:
256,192,109259,1,8,0:0:0:0:
256,192,109431,1,0,0:0:0:0:
256,192,109518,1,0,0:0:0:0:
256,192,109604,1,8,0:0:0:0:
256,192,109776,1,8,0:0:0:0:
256,192,109862,1,0,0:0:0:0:
256,192,109949,1,8,0:0:0:0:
256,192,110035,1,0,0:0:0:0:
256,192,110121,1,8,0:0:0:0:
256,192,110207,1,0,0:0:0:0:
256,192,110294,1,8,0:0:0:0:
256,192,110380,1,0,0:0:0:0:
256,192,110466,1,0,0:0:0:0:
256,192,110638,1,0,0:0:0:0:
256,192,110811,1,0,0:0:0:0:
256,192,110983,1,8,0:0:0:0:
256,192,111069,1,8,0:0:0:0:
256,192,111156,1,8,0:0:0:0:
256,192,111328,1,0,0:0:0:0:
256,192,111500,1,8,0:0:0:0:
256,192,111845,1,8,0:0:0:0:
256,192,112018,1,0,0:0:0:0:
256,192,112190,1,8,0:0:0:0:
256,192,112535,1,8,0:0:0:0:
256,192,112707,1,0,0:0:0:0:
256,192,112793,1,0,0:0:0:0:
256,192,112880,1,8,0:0:0:0:
256,192,113224,1,8,0:0:0:0:
256,192,113397,1,0,0:0:0:0:
256,192,113569,1,8,0:0:0:0:
256,192,113742,1,8,0:0:0:0:
256,192,113828,1,8,0:0:0:0:
256,192,113914,1,8,0:0:0:0:
256,192,114087,1,0,0:0:0:0:
256,192,114173,1,8,0:0:0:0:
256,192,114259,1,0,0:0:0:0:
256,192,114431,1,8,0:0:0:0:
256,192,114604,1,0,0:0:0:0:
256,192,114776,1,0,0:0:0:0:
256,192,114949,1,0,0:0:0:0:
256,192,115121,1,8,0:0:0:0:
256,192,115293,1,8,0:0:0:0:
256,192,115638,1,8,0:0:0:0:
256,192,115983,1,0,0:0:0:0:
256,192,116156,1,0,0:0:0:0:
256,192,116328,1,0,0:0:0:0:
256,192,116500,1,8,0:0:0:0:
256,192,116587,1,8,0:0:0:0:
256,192,116673,1,8,0:0:0:0:
256,192,116845,1,0,0:0:0:0:
256,192,117018,1,8,0:0:0:0:
256,192,117362,1,8,0:0:0:0:
256,192,117535,1,0,0:0:0:0:
256,192,117707,1,8,0:0:0:0:
256,192,118052,1,8,0:0:0:0:
256,192,118224,1,0,0:0:0:0:
256,192,118311,1,0,0:0:0:0:
256,192,118397,1,8,0:0:0:0:
256,192,118742,1,8,0:0:0:0:
256,192,118914,1,0,0:0:0:0:
256,192,119087,1,0,0:0:0:0:
256,192,119259,1,8,0:0:0:0:
256,192,119345,1,8,0:0:0:0:
256,192,119431,1,8,0:0:0:0:
256,192,119604,1,0,0:0:0:0:
256,192,119690,1,8,0:0:0:0:
256,192,119776,1,0,0:0:0:0:
256,192,119949,1,8,0:0:0:0:
256,192,120121,1,0,0:0:0:0:
256,192,120293,1,0,0:0:0:0:
256,192,120466,1,0,0:0:0:0:
256,192,120638,1,8,0:0:0:0:
256,192,120811,1,8,0:0:0:0:
256,192,121156,1,0,0:0:0:0:
256,192,121500,1,0,0:0:0:0:
256,192,122018,1,0,0:0:0:0:
256,192,122190,1,8,0:0:0:0:
256,192,122707,1,0,0:0:0:0:
256,192,123224,1,0,0:0:0:0:
256,192,123569,1,8,0:0:0:0:
256,192,123914,1,0,0:0:0:0:
256,192,124259,1,0,0:0:0:0:
256,192,124776,1,0,0:0:0:0:
256,192,124949,1,8,0:0:0:0:
256,192,125207,1,0,0:0:0:0:
256,192,125466,1,0,0:0:0:0:
256,192,126156,1,0,0:0:0:0:
256,192,126328,1,8,0:0:0:0:
256,192,126673,1,0,0:0:0:0:
256,192,127018,1,0,0:0:0:0:
256,192,127535,1,0,0:0:0:0:
256,192,127707,1,8,0:0:0:0:
256,192,128224,1,0,0:0:0:0:
256,192,128742,1,0,0:0:0:0:
256,192,129087,1,8,0:0:0:0:
256,192,129431,1,0,0:0:0:0:
256,192,129776,1,0,0:0:0:0:
256,192,130293,12,0,132190,0:0:0:0:
256,192,132535,5,4,0:0:0:0:
