osu file format v14

[General]
AudioFilename: audio.mp3
AudioLeadIn: 0
PreviewTime: 42190
Countdown: 0
SampleSet: None
StackLeniency: 0.4
Mode: 0
LetterboxInBreaks: 0
WidescreenStoryboard: 1

[Editor]
Bookmarks: 22188,33222,44257,53912,55291,66326,77360,88395,98050,99429,110464,112535
DistanceSpacing: 1
BeatDivisor: 4
GridSize: 4
TimelineZoom: 1.2

[Metadata]
Title:Lolisquad
TitleUnicode:Lolisquad
Artist:Shadren
ArtistUnicode:Shadren
Creator:Shadren
Version:Mentai's Normal
Source:
Tags:fine lady kawaii drumstep anime dubstep halfstep trap future bass dnb drum and bass loli sweet artcore Djulus Mentai Frey Uta vanucik Error Uta h4d0uk3n -Rmdy
BeatmapID:1524266
BeatmapSetID:716965

[Difficulty]
HPDrainRate:3
CircleSize:3
OverallDifficulty:4
ApproachRate:5
SliderMultiplier:1.1
SliderTickRate:1

[Events]
//Background and Video events
0,0,"BG.jpg",0,0
//Break Periods
2,22390,29266
2,66528,73404
//Storyboard Layer 0 (Background)
//Storyboard Layer 1 (Fail)
//Storyboard Layer 2 (Pass)
//Storyboard Layer 3 (Foreground)
//Storyboard Sound Samples

[TimingPoints]
11156,344.827586206897,4,2,1,70,1,0
44259,-100,4,3,1,80,0,1
53914,-100,4,3,1,70,0,0
55293,-100,4,3,1,80,0,1
66328,-100,4,3,1,70,0,0
77362,-100,4,2,1,70,0,0
88397,-100,4,3,1,80,0,1
98052,-100,4,3,1,70,0,0
99431,-100,4,3,1,80,0,1
110466,-100,4,2,1,70,0,0

[Colours]
Combo1 : 83,169,255
Combo2 : 252,230,154
Combo3 : 255,176,216
Combo4 : 255,125,125

[HitObjects]
21,363,11156,5,2,0:0:0:0:
91,279,11500,2,0,L|91:166,1,110,10|0,0:0|0:0,0:0:0:0:
13,91,12190,1,2,0:0:0:0:
91,13,12535,1,2,0:0:0:0:
168,91,12880,1,10,0:0:0:0:
168,91,13914,5,2,0:0:0:0:
243,11,14259,2,0,L|361:10,1,110,10|0,0:0|0:0,0:0:0:0:
428,90,14949,1,2,0:0:0:0:
360,176,15293,1,2,0:0:0:0:
435,255,15638,1,10,0:0:0:0:
435,255,16673,5,2,0:0:0:0:
360,176,17018,2,0,L|242:175,1,110,10|0,0:0|0:0,0:0:0:0:
172,96,17707,1,2,0:0:0:0:
96,174,18052,1,2,0:0:0:0:
172,250,18397,1,10,0:0:0:0:
172,250,19431,5,2,0:0:0:0:
250,175,19776,2,0,L|250:62,1,110,10|0,0:0|0:0,0:0:0:0:
159,1,20466,1,2,0:0:0:0:
69,65,20811,1,2,0:0:0:0:
157,130,21156,1,10,0:0:0:0:
157,130,22190,5,4,1:0:0:0:
256,192,30466,12,0,32535,0:0:0:0:
408,63,33224,6,0,P|353:52|292:65,1,110,4|2,1:0|0:0,0:0:0:0:
212,128,33914,1,0,0:0:0:0:
120,66,34259,2,0,L|56:66,1,55,2|0,0:0|0:0,0:0:0:0:
9,66,34604,5,2,0:0:0:0:
61,162,34949,2,0,P|76:253|50:333,1,165,2|0,0:0|0:0,0:0:0:0:
158,363,35811,1,0,0:0:0:0:
158,363,35983,6,0,L|270:362,1,110,2|2,0:0|0:0,0:0:0:0:
350,288,36673,1,0,0:0:0:0:
269,212,37018,2,0,L|268:140,1,55,2|0,0:0|0:0,0:0:0:0:
266,102,37362,5,2,0:0:0:0:
352,33,37707,2,0,P|433:37|500:100,1,165,2|8,0:0|0:0,0:0:0:0:
455,192,38569,1,8,0:0:0:0:
455,192,38742,6,0,P|446:249|473:317,1,110,10|10,0:0|0:0,0:0:0:0:
381,374,39431,1,8,0:0:0:0:
298,301,39776,2,0,L|226:298,1,55,10|0,0:0|0:0,0:0:0:0:
193,322,40121,6,0,P|135:329|77:310,1,110,10|10,0:0|0:0,0:0:0:0:
30,219,40811,2,0,L|36:98,1,110,8|8,0:0|0:0,0:0:0:0:
117,36,41500,1,10,0:0:0:0:
256,192,41587,12,6,43569,0:0:0:0:
413,118,44259,6,0,L|409:4,2,110,4|6|0,0:1|0:0|0:0,0:0:0:0:
447,162,45121,1,0,0:0:0:0:
447,162,45293,2,0,P|454:215|436:280,1,110,6|4,0:0|0:0,0:0:0:0:
358,342,45983,1,6,0:0:0:0:
278,266,46328,2,0,L|278:195,2,55,8|8|8,0:0|0:0|0:0,0:0:0:0:
186,328,47018,6,0,P|132:340|71:331,2,110,4|6|0,0:0|0:0|0:0,0:0:0:0:
230,295,47880,1,0,0:0:0:0:
230,295,48052,2,0,L|343:294,1,110,6|4,0:0|0:0,0:0:0:0:
417,372,48742,1,6,0:0:0:0:
494,294,49087,1,2,0:0:0:0:
417,216,49431,1,2,0:0:0:0:
339,294,49776,5,4,0:1:0:0:
261,216,50121,2,0,L|261:95,1,110,6|0,0:0|0:0,0:0:0:0:
224,64,50638,1,0,0:0:0:0:
224,64,50811,2,0,P|164:52|104:75,1,110,6|4,0:0|0:0,0:0:0:0:
36,138,51500,1,6,0:0:0:0:
111,217,51845,2,0,L|110:279,2,55,8|8|8,0:0|0:0|0:0,0:0:0:0:
194,145,52535,5,4,0:0:0:0:
276,217,52880,2,0,P|336:229|396:206,1,110,6|0,0:0|0:0,0:0:0:0:
462,141,53569,1,2,0:0:0:0:
256,192,53914,12,2,55293,0:0:0:0:
54,324,55983,6,0,P|69:261|59:195,1,110,8|4,0:2|0:0,0:0:0:0:
10,120,56673,1,4,0:0:0:0:
106,68,57018,1,4,0:0:0:0:
168,158,57362,2,0,L|279:162,1,110,10|8,0:2|0:0,0:0:0:0:
376,111,58052,6,0,P|388:170|361:237,1,110,4|4,0:0|0:0,0:0:0:0:
336,256,58569,1,0,0:0:0:0:
336,256,58742,2,0,P|323:309|337:361,1,110,8|4,0:2|0:0,0:0:0:0:
445,381,59431,1,4,0:0:0:0:
501,286,59776,1,4,0:0:0:0:
430,201,60121,2,0,L|427:87,1,110,10|8,0:2|0:0,0:0:0:0:
329,38,60811,6,0,P|279:27|216:39,1,110,4|4,0:1|0:0,0:0:0:0:
176,68,61328,1,0,0:0:0:0:
176,68,61500,2,0,P|126:79|63:67,1,110,8|4,0:2|0:0,0:0:0:0:
5,159,62190,1,4,0:0:0:0:
78,241,62535,1,4,0:0:0:0:
172,185,62880,2,0,L|286:184,1,110,8|8,0:2|0:0,0:0:0:0:
374,125,63569,6,0,P|389:184|370:253,1,110,4|4,0:0|0:0,0:0:0:0:
341,270,64087,1,0,0:0:0:0:
341,270,64259,2,0,L|231:270,1,110,8|4,0:2|0:0,0:0:0:0:
147,343,64949,1,4,0:0:0:0:
71,263,65293,1,4,0:0:0:0:
155,192,65638,2,0,P|161:124|151:84,1,110,2|2,0:0|0:0,0:0:0:0:
61,19,66328,5,4,1:0:0:0:
256,192,74604,12,0,76673,0:0:0:0:
54,35,77362,6,0,L|53:157,1,110,4|2,0:1|0:0,0:0:0:0:
134,219,78052,1,0,0:0:0:0:
217,146,78397,2,0,L|276:145,1,55,2|0,0:0|0:0,0:0:0:0:
327,142,78742,5,2,0:0:0:0:
428,183,79087,2,0,P|411:251|434:346,1,165,2|0,0:0|0:0,0:0:0:0:
325,368,79949,1,0,0:0:0:0:
325,368,80121,6,0,L|215:367,1,110,2|2,0:0|0:0,0:0:0:0:
129,296,80811,1,0,0:0:0:0:
210,221,81156,2,0,L|209:147,1,55,2|0,0:0|0:0,0:0:0:0:
207,111,81500,5,2,0:0:0:0:
293,43,81845,2,0,B|340:27|340:27|472:43,1,165,2|8,0:0|0:0,0:0:0:0:
492,144,82707,1,8,0:0:0:0:
492,144,82880,6,0,P|484:197|506:267,1,110,10|10,0:0|0:0,0:0:0:0:
426,335,83569,1,8,0:0:0:0:
340,266,83914,2,0,L|272:263,1,55,10|0,0:0|0:0,0:0:0:0:
233,282,84259,6,0,P|172:274|111:280,1,110,10|10,0:0|0:0,0:0:0:0:
26,225,84949,2,0,L|23:112,1,110,8|8,0:0|0:0,0:0:0:0:
100,37,85638,1,10,0:0:0:0:
256,192,85724,12,6,87707,0:0:0:0:
477,243,88397,6,0,L|477:353,2,110,4|6|0,0:1|0:0|0:0,0:0:0:0:
444,198,89259,1,4,0:0:0:0:
444,198,89431,2,0,P|434:133|444:79,1,110,6|4,0:0|0:0,0:0:0:0:
355,18,90121,1,6,0:0:0:0:
276,94,90466,2,0,L|275:153,2,55,8|8|8,0:0|0:0|0:0,0:0:0:0:
198,15,91156,6,0,P|138:8|86:19,2,110,4|6|0,0:0|0:0|0:0,0:0:0:0:
238,52,92018,1,4,0:0:0:0:
238,52,92190,2,0,L|357:54,1,110,6|4,0:0|0:0,0:0:0:0:
458,46,92880,1,6,0:0:0:0:
505,145,93224,1,2,0:0:0:0:
419,214,93569,1,2,0:0:0:0:
327,152,93914,5,4,0:1:0:0:
237,215,94259,2,0,L|237:333,1,110,6|0,0:0|0:0,0:0:0:0:
192,358,94776,1,4,0:0:0:0:
192,358,94949,2,0,P|137:368|80:357,1,110,6|4,0:0|0:0,0:0:0:0:
24,266,95638,1,6,0:0:0:0:
99,186,95983,2,0,L|97:129,2,55,8|8|8,0:0|0:0|0:0,0:0:0:0:
191,238,96673,5,4,0:0:0:0:
280,174,97018,2,0,P|336:167|393:173,1,110,6|0,0:0|0:0,0:0:0:0:
476,239,97707,1,2,0:0:0:0:
256,192,98052,12,2,99431,0:0:0:0:
449,51,100121,6,0,L|333:49,1,110,8|4,0:2|0:0,0:0:0:0:
249,113,100811,1,4,0:0:0:0:
163,43,101156,1,4,0:0:0:0:
76,110,101500,2,0,P|68:167|81:229,1,110,10|8,0:2|0:0,0:0:0:0:
177,263,102190,6,0,L|299:261,1,110,4|4,0:0|0:0,0:0:0:0:
335,235,102707,1,0,0:0:0:0:
335,235,102880,2,0,P|390:228|454:243,1,110,8|4,0:2|0:0,0:0:0:0:
489,338,103569,1,4,0:0:0:0:
385,374,103914,1,4,0:0:0:0:
284,329,104259,2,0,L|162:327,1,110,10|10,0:2|0:0,0:0:0:0:
126,227,104949,6,0,L|248:225,1,110,4|4,0:1|0:0,0:0:0:0:
281,193,105466,1,0,0:0:0:0:
281,193,105638,2,0,P|336:184|405:201,1,110,8|4,0:2|0:0,0:0:0:0:
472,266,106328,1,4,0:0:0:0:
487,157,106673,1,4,0:0:0:0:
388,193,107018,2,0,P|334:183|281:193,1,110,8|8,0:2|0:0,0:0:0:0:
197,264,107707,6,0,P|143:273|89:264,1,110,4|4,0:0|0:0,0:0:0:0:
44,232,108224,1,0,0:0:0:0:
44,232,108397,2,0,L|42:111,1,110,8|4,0:2|0:0,0:0:0:0:
110,35,109087,1,4,0:0:0:0:
189,110,109431,1,4,0:0:0:0:
270,35,109776,2,0,P|324:32|390:42,1,110,0|0,0:0|0:0,0:0:0:0:
463,111,110466,6,0,L|470:232,1,110,4|0,0:1|0:0,0:0:0:0:
446,270,110983,1,0,0:0:0:0:
446,270,111156,2,0,P|398:281|332:269,1,110,8|2,0:0|0:0,0:0:0:0:
258,196,111845,2,0,P|210:185|144:197,1,110,2|2,0:0|0:0,0:0:0:0:
94,295,112535,2,0,P|142:306|208:294,1,110,8|0,0:0|0:0,0:0:0:0:
258,196,113224,6,0,L|260:81,1,110,2|2,0:0|0:0,0:0:0:0:
281,34,113742,1,0,0:0:0:0:
281,34,113914,2,0,P|329:23|395:35,1,110,8|2,0:0|0:0,0:0:0:0:
476,98,114604,2,0,L|474:207,1,110,2|2,0:0|0:0,0:0:0:0:
373,253,115293,2,0,L|371:143,1,110,8|0,0:0|0:0,0:0:0:0:
270,96,115983,6,0,P|222:85|156:97,1,110,2|2,0:0|0:0,0:0:0:0:
119,128,116500,1,0,0:0:0:0:
119,128,116673,2,0,L|120:237,1,110,8|2,0:0|0:0,0:0:0:0:
77,338,117362,2,0,P|134:347|184:328,1,110,2|2,0:0|0:0,0:0:0:0:
247,240,118052,2,0,P|304:231|354:250,1,110,8|0,0:0|0:0,0:0:0:0:
445,307,118742,5,2,0:0:0:0:
256,192,118828,12,8,120811,0:0:0:0:
54,346,121500,6,0,P|64:278|54:229,1,110,4|2,0:1|0:0,0:0:0:0:
31,188,122018,1,0,0:0:0:0:
31,188,122190,2,0,P|21:120|31:71,1,110,8|2,0:0|0:0,0:0:0:0:
126,29,122880,2,0,L|237:28,2,110,2|2|8,0:0|0:0|0:0,0:0:0:0:
28,79,123914,1,0,0:0:0:0:
119,140,124259,6,0,P|129:208|119:257,1,110,2|2,0:0|0:0,0:0:0:0:
102,299,124776,1,0,0:0:0:0:
102,299,124949,2,0,L|213:298,1,110,8|2,0:0|0:0,0:0:0:0:
292,222,125638,2,0,P|302:164|283:96,2,110,2|2|8,0:0|0:0|0:0,0:0:0:0:
211,298,126673,1,0,0:0:0:0:
314,336,127018,6,0,L|438:336,1,110,2|2,0:0|0:0,0:0:0:0:
464,298,127535,1,0,0:0:0:0:
464,298,127707,2,0,P|474:233|460:176,1,110,8|2,0:0|0:0,0:0:0:0:
376,125,128397,2,0,L|376:12,2,110,2|2|8,0:0|0:0|0:0,0:0:0:0:
287,189,129431,1,0,0:0:0:0:
194,129,129776,5,2,0:0:0:0:
256,192,129862,12,4,132535,0:1:0:0:
