osu file format v14

[General]
AudioFilename: audio.mp3
AudioLeadIn: 0
PreviewTime: 42190
Countdown: 0
SampleSet: Soft
StackLeniency: 0.7
Mode: 0
LetterboxInBreaks: 0
WidescreenStoryboard: 1

[Editor]
DistanceSpacing: 1.7
BeatDivisor: 4
GridSize: 4
TimelineZoom: 1.5

[Metadata]
Title:Lolisquad
TitleUnicode:Lolisquad
Artist:Shadren
ArtistUnicode:Shadren
Creator:Shadren
Version:Error's Hard
Source:
Tags:fine lady kawaii drumstep anime dubstep halfstep trap future bass dnb drum and bass loli sweet artcore Djulus Mentai Frey Uta vanucik Error Uta h4d0uk3n -Rmdy
BeatmapID:1941376
BeatmapSetID:716965

[Difficulty]
HPDrainRate:5
CircleSize:3.8
OverallDifficulty:6
ApproachRate:7.4
SliderMultiplier:1.4
SliderTickRate:1

[Events]
//Background and Video events
0,0,"BG.jpg",0,0
//Break Periods
2,22390,29199
2,66528,73337
//Storyboard Layer 0 (Background)
//Storyboard Layer 1 (Fail)
//Storyboard Layer 2 (Pass)
//Storyboard Layer 3 (Foreground)
//Storyboard Sound Samples

[TimingPoints]
11156,344.827586206897,4,2,1,70,1,0
11156,-125,4,2,1,70,0,0
33224,-125,4,2,1,70,0,0
34259,-125,4,2,1,70,0,0
34604,-111.111111111111,4,2,1,70,0,0
44259,-100,4,3,1,80,0,1
46328,-100,4,3,1,80,0,1
46500,-100,4,3,1,80,0,1
46673,-100,4,3,1,80,0,1
46845,-100,4,3,1,80,0,1
47024,-100,4,3,1,80,0,1
49087,-100,4,3,1,80,0,1
49431,-100,4,3,1,80,0,1
49776,-100,4,3,1,80,0,1
50121,-100,4,3,1,80,0,1
51845,-100,4,3,1,80,0,1
52535,-100,4,3,1,80,0,1
53914,-100,4,3,1,70,0,0
55293,-100,4,3,1,80,0,1
55983,-100,4,3,1,80,0,1
56328,-100,4,3,1,80,0,1
57362,-100,4,3,1,80,0,1
57707,-100,4,3,1,80,0,1
58052,-100,4,3,1,80,0,1
58742,-100,4,3,1,80,0,1
59000,-100,4,3,1,80,0,1
59087,-100,4,3,1,80,0,1
60466,-100,4,3,1,80,0,1
60811,-100,4,3,1,80,0,1
61500,-100,4,3,1,80,0,1
62880,-100,4,3,1,80,0,1
63569,-100,4,3,1,80,0,1
64259,-100,4,3,1,80,0,1
64518,-100,4,3,1,80,0,1
66328,-100,4,3,1,70,0,0
77362,-133.333333333333,4,2,1,70,0,0
82880,-117.647058823529,4,2,1,70,0,0
88397,-100,4,3,1,80,0,1
90466,-100,4,3,1,80,0,1
90638,-100,4,3,1,80,0,1
90811,-100,4,3,1,80,0,1
91156,-100,4,3,1,80,0,1
93224,-100,4,3,1,80,0,1
93569,-100,4,3,1,80,0,1
93914,-100,4,3,1,80,0,1
95983,-100,4,3,1,80,0,1
96673,-100,4,3,1,80,0,1
98052,-100,4,3,1,70,0,0
99431,-100,4,3,1,80,0,1
100121,-100,4,3,1,80,0,1
100466,-100,4,3,1,80,0,1
101500,-100,4,3,1,80,0,1
101845,-100,4,3,1,80,0,1
102190,-100,4,3,1,80,0,1
102880,-100,4,3,1,80,0,1
103138,-100,4,3,1,80,0,1
104604,-100,4,3,1,80,0,1
104949,-100,4,3,1,80,0,1
105638,-100,4,3,1,80,0,1
105983,-100,4,3,1,80,0,1
106328,-100,4,3,1,80,0,1
107018,-100,4,3,1,80,0,1
107707,-100,4,3,1,80,0,1
108397,-100,4,3,1,80,0,1
108656,-100,4,3,1,80,0,1
110466,-117.647058823529,4,2,1,70,0,0
121500,-133.333333333333,4,2,1,70,0,0
129776,-200,4,2,1,70,0,0

[Colours]
Combo1 : 83,169,255
Combo2 : 252,230,154
Combo3 : 255,176,216
Combo4 : 255,125,125

[HitObjects]
97,66,11156,6,0,L|35:58,2,56,2|0|10,0:0|0:0|0:0,0:0:0:0:
184,42,11673,2,0,L|248:32,2,56,0|0|0,0:0|0:0|0:0,0:0:0:0:
166,129,12190,1,2,0:0:0:0:
90,189,12362,1,0,0:0:0:0:
90,189,12449,1,0,0:0:0:0:
90,189,12535,6,0,L|69:255,2,56,2|0|10,0:0|0:0|0:0,0:0:0:0:
169,242,13052,2,0,L|172:306,2,56,0|0|8,0:0|0:0|0:0,0:0:0:0:
237,170,13569,1,0,0:0:0:0:
237,170,13656,1,0,0:0:0:0:
237,170,13742,1,8,0:0:0:0:
318,233,13914,6,0,P|355:226|388:236,1,56,2|0,0:0|0:0,0:0:0:0:
457,268,14259,2,0,P|449:217|454:190,1,56,10|0,0:0|0:0,0:0:0:0:
476,136,14604,1,0,0:0:0:0:
436,66,14776,2,0,L|365:73,1,56,0|2,0:0|0:0,0:0:0:0:
305,26,15121,1,0,0:0:0:0:
305,26,15207,1,0,0:0:0:0:
305,26,15293,6,0,P|258:57|193:52,1,112,2|10,0:0|0:0,0:0:0:0:
118,14,15811,2,0,P|130:69|130:92,1,56,0|0,0:0|0:0,0:0:0:0:
89,138,16156,1,8,0:0:0:0:
89,138,16242,1,0,0:0:0:0:
89,138,16328,2,0,P|78:176|85:214,1,56,0|8,0:0|0:0,0:0:0:0:
91,274,16673,6,0,P|124:260|199:266,1,112,2|10,0:0|0:0,0:0:0:0:
277,232,17190,2,0,L|285:312,1,56,0|0,0:0|0:0,0:0:0:0:
309,372,17535,1,0,0:0:0:0:
369,309,17707,1,2,0:0:0:0:
448,365,17880,1,0,0:0:0:0:
448,365,17966,1,0,0:0:0:0:
448,365,18052,6,0,P|470:316|468:247,1,112,2|10,0:0|0:0,0:0:0:0:
408,193,18569,2,0,L|398:116,1,56,0|0,0:0|0:0,0:0:0:0:
440,61,18914,1,8,0:0:0:0:
367,17,19087,2,0,L|293:24,1,56,0|8,0:0|0:0,0:0:0:0:
248,83,19431,6,0,P|200:64|176:62,1,56,2|0,0:0|0:0,0:0:0:0:
126,21,19776,2,0,P|92:45|64:47,1,56,10|0,0:0|0:0,0:0:0:0:
8,95,20121,1,0,0:0:0:0:
8,95,20293,2,0,P|27:130|31:164,1,56,0|2,0:0|0:0,0:0:0:0:
5,227,20638,1,0,0:0:0:0:
5,227,20811,6,0,L|14:301,1,56,2|0,0:0|0:0,0:0:0:0:
106,277,21156,2,0,L|92:353,1,56,10|0,0:0|0:0,0:0:0:0:
163,376,21500,1,0,0:0:0:0:
163,376,21673,2,0,L|221:363,1,56,8|0,0:0|0:0,0:0:0:0:
282,291,22018,1,8,0:0:0:0:
345,362,22190,1,4,1:0:0:0:
256,192,29949,12,0,32535,0:0:0:0:
177,44,33224,6,0,P|248:69|293:48,1,112,4|2,1:0|0:0,0:0:0:0:
366,27,33742,2,0,B|350:77|350:77|366:149,1,112,0|2,0:0|0:0,0:0:0:0:
437,172,34259,1,2,0:0:0:0:
457,316,34604,2,0,P|405:272|330:279,1,125.999996154785,2|2,0:0|0:0,0:0:0:0:
279,304,35121,2,0,P|220:314|166:266,1,125.999996154785,0|0,0:0|0:0,0:0:0:0:
161,196,35638,1,0,0:0:0:0:
132,68,35983,6,0,B|207:44|193:100|278:77,1,125.999996154785,2|2,0:0|0:0,0:0:0:0:
316,37,36500,2,0,P|364:33|416:97,1,125.999996154785,0|2,0:0|0:0,0:0:0:0:
369,153,37018,1,2,0:0:0:0:
439,305,37362,2,0,P|382:338|320:323,1,125.999996154785,2|2,0:0|0:0,0:0:0:0:
279,266,37880,2,0,B|230:256|230:256|134:277,1,125.999996154785,0|8,0:0|0:0,0:0:0:0:
83,298,38397,2,0,L|65:225,1,62.9999980773926,0|8,0:0|0:0,0:0:0:0:
35,144,38742,5,10,0:0:0:0:
202,155,39087,1,10,0:0:0:0:
75,5,39431,2,0,L|62:73,1,62.9999980773926,8|2,0:0|0:0,0:0:0:0:
44,153,39776,1,10,0:0:0:0:
44,153,39862,1,0,0:0:0:0:
44,153,39949,1,0,0:0:0:0:
105,217,40121,6,0,P|152:201|225:241,1,125.999996154785,10|10,0:0|0:0,0:0:0:0:
377,219,40811,2,0,L|365:294,1,62.9999980773926,8|0,0:0|0:0,0:0:0:0:
429,362,41156,1,8,0:0:0:0:
429,362,41242,1,0,0:0:0:0:
429,362,41328,1,0,0:0:0:0:
358,303,41500,6,0,P|308:300|276:316,2,62.9999980773926,10|0|10,0:0|0:0|0:0,0:0:0:0:
433,243,42018,1,0,0:0:0:0:
433,243,42190,2,0,P|469:254|496:245,2,62.9999980773926,8|2|10,0:0|0:0|0:0,0:0:0:0:
363,177,42707,1,0,0:0:0:0:
363,177,42880,6,0,L|360:128,3,31.4999990386963,6|8|8|8,0:0|0:0|0:0|0:0,0:0:0:0:
391,122,43224,2,0,L|397:74,3,31.4999990386963,6|8|8|8,0:0|0:0|0:0|0:0,0:0:0:0:
366,56,43569,2,0,L|312:50,3,31.4999990386963,6|8|8|8,0:0|0:0|0:0|0:0,0:0:0:0:
303,72,43914,2,0,L|251:84,3,31.4999990386963,6|8|8|8,0:0|0:0|0:0|0:0,0:0:0:0:
243,100,44259,6,0,B|192:78|192:78|102:92,1,140,4|6,0:1|0:0,0:0:0:0:
27,110,44776,2,0,L|38:188,1,70,0|0,0:0|0:0,0:0:0:0:
8,257,45121,1,0,0:0:0:0:
8,257,45293,2,0,L|20:348,1,70,6|0,0:0|0:0,0:0:0:0:
84,377,45638,6,0,P|113:330|206:313,1,140,4|6,0:0|0:0,0:0:0:0:
270,261,46156,1,0,0:0:0:0:
270,261,46328,2,0,P|284:305|285:331,1,70,8|8,0:0|0:0,0:0:0:0:
378,349,46673,2,0,P|370:309|382:261,1,70,8|8,0:0|0:0,0:0:0:0:
437,235,47018,6,0,B|462:158|401:163|436:78,1,140,4|6,0:0|0:0,0:0:0:0:
479,32,47535,2,0,P|450:65|363:47,1,140,0|0,0:0|0:0,0:0:0:0:
293,7,48052,2,0,L|215:19,1,70,6|0,0:0|0:0,0:0:0:0:
166,67,48397,6,0,L|93:55,1,70,4|0,0:0|0:0,0:0:0:0:
25,104,48742,2,0,P|8:146|14:189,1,70,6|0,0:0|0:0,0:0:0:0:
61,238,49087,6,0,B|96:241|115:224|115:224|125:229|125:229|145:218|180:220,1,105,2|0,0:0|0:0,0:0:0:0:
192,229,49431,2,0,B|196:258|196:258|189:275|189:275|195:288|195:288|184:313|191:349,1,105,2|0,0:0|0:0,0:0:0:0:
213,360,49776,6,0,B|280:338|280:377|354:349,1,140,4|6,0:1|0:0,0:0:0:0:
422,307,50293,1,0,0:0:0:0:
422,307,50466,2,0,L|405:230,1,70,0|0,0:0|0:0,0:0:0:0:
457,166,50811,2,0,L|468:88,1,70,6|0,0:0|0:0,0:0:0:0:
415,29,51156,6,0,B|332:3|353:76|267:42,1,140,4|6,0:0|0:0,0:0:0:0:
213,10,51673,1,0,0:0:0:0:
213,10,51845,2,0,L|200:83,1,70,8|8,0:0|0:0,0:0:0:0:
118,125,52190,2,0,L|133:200,1,70,8|8,0:0|0:0,0:0:0:0:
101,271,52535,6,0,P|137:236|229:247,1,140,4|6,0:0|0:0,0:0:0:0:
314,223,53052,2,0,L|302:302,1,70,0|0,0:0|0:0,0:0:0:0:
361,368,53397,1,0,0:0:0:0:
361,368,53569,2,0,L|444:360,1,70,2|0,0:0|0:0,0:0:0:0:
498,307,53914,5,2,0:0:0:0:
498,307,54087,1,2,0:0:0:0:
439,249,54259,2,0,L|433:162,1,70,2|2,0:0|0:0,0:0:0:0:
489,104,54604,1,8,0:0:0:0:
489,104,54690,1,0,0:0:0:0:
489,104,54776,1,8,0:0:0:0:
410,47,54949,2,0,L|366:45,3,35,8|0|8|0,0:0|0:0|0:0|0:0,0:0:0:0:
346,73,55293,6,0,P|299:53|208:73,1,140,4|4,0:1|0:0,0:0:0:0:
126,69,55811,1,0,0:0:0:0:
126,69,55983,2,0,B|116:136|116:136|138:230,1,140,8|4,0:2|0:0,0:0:0:0:
202,254,56500,1,0,0:0:0:0:
202,254,56673,2,0,P|253:231|340:250,1,140,4|4,0:0|0:0,0:0:0:0:
454,225,57362,2,0,L|435:350,1,105,10|0,0:2|0:0,0:0:0:0:
432,362,57707,2,0,P|397:322|366:310,1,70,8|0,0:0|0:0,0:0:0:0:
303,361,58052,6,0,B|215:361|256:309|150:312,1,140,4|4,0:0|0:0,0:0:0:0:
96,316,58569,1,0,0:0:0:0:
96,316,58742,2,0,P|89:262|106:197,2,105,8|0|0,0:2|0:0|0:0,0:0:0:0:
143,380,59431,2,0,P|179:357|290:350,1,140,4|4,0:0|0:0,0:0:0:0:
461,361,60121,2,0,L|452:288,1,70,10|2,0:2|0:0,0:0:0:0:
497,218,60466,2,0,P|442:204|382:244,1,105,8|0,0:0|0:0,0:0:0:0:
382,244,60811,6,0,L|231:232,1,140,4|4,0:1|0:0,0:0:0:0:
111,139,61500,2,0,L|33:143,1,70,8|0,0:2|0:0,0:0:0:0:
33,54,61845,2,0,L|112:50,1,70,4|0,0:0|0:0,0:0:0:0:
182,12,62190,2,0,B|256:1|233:66|334:44,1,140,4|4,0:0|0:0,0:0:0:0:
396,16,62707,1,0,0:0:0:0:
396,16,62880,2,0,L|404:92,1,70,8|8,0:2|0:0,0:0:0:0:
488,126,63224,2,0,L|476:205,1,70,8|8,0:0|0:0,0:0:0:0:
470,292,63569,6,0,B|448:263|420:255|420:255|327:268,1,140,4|4,0:0|0:0,0:0:0:0:
269,216,64087,1,0,0:0:0:0:
269,216,64259,2,0,B|250:261|250:261|270:332,2,105,8|0|0,0:2|0:0|0:0,0:0:0:0:
348,167,64949,2,0,L|356:96,1,70,4|0,0:0|0:0,0:0:0:0:
290,28,65293,1,4,0:0:0:0:
290,28,65466,1,0,0:0:0:0:
212,94,65638,2,0,P|182:104|155:104,3,35,2|0|2|0,0:0|0:0|0:0|0:0,0:0:0:0:
148,89,65983,2,0,P|128:82|93:79,3,35,2|0|2|0,0:0|0:0|0:0|0:0,0:0:0:0:
73,90,66328,5,4,1:0:0:0:
256,192,74087,12,0,76673,0:0:0:0:
88,46,77362,6,0,L|79:166,1,105.000004005432,4|2,0:1|0:0,0:0:0:0:
148,265,78052,2,0,L|207:255,1,52.5000020027161,0|2,0:0|0:0,0:0:0:0:
249,196,78397,2,0,L|309:208,1,52.5000020027161,2|0,0:0|0:0,0:0:0:0:
376,186,78742,2,0,L|382:311,1,105.000004005432,2|2,0:0|0:0,0:0:0:0:
488,204,79431,1,0,0:0:0:0:
488,204,79604,2,0,P|478:166|484:137,1,52.5000020027161,0|0,0:0|0:0,0:0:0:0:
501,76,79949,1,0,0:0:0:0:
501,76,80121,6,0,P|469:105|398:117,1,105.000004005432,2|2,0:0|0:0,0:0:0:0:
254,66,80983,1,2,0:0:0:0:
254,66,81156,2,0,L|189:57,1,52.5000020027161,2|0,0:0|0:0,0:0:0:0:
126,86,81500,2,0,P|139:142|140:198,1,105.000004005432,2|2,0:0|0:0,0:0:0:0:
62,285,82190,2,0,L|76:344,1,52.5000020027161,0|8,0:0|0:0,0:0:0:0:
160,354,82535,2,0,L|164:381,2,26.2500010013581,0|0|8,0:0|0:0|0:0,0:0:0:0:
225,281,82880,6,0,P|257:333|323:361,1,119.000002269745,10|10,0:0|0:0,0:0:0:0:
420,239,83569,2,0,P|388:187|322:159,1,119.000002269745,8|10,0:0|0:0,0:0:0:0:
265,116,84087,1,0,0:0:0:0:
265,116,84259,2,0,P|212:157|161:161,1,119.000002269745,10|10,0:0|0:0,0:0:0:0:
38,121,84949,2,0,B|30:174|30:174|47:233,2,89.2500017023087,8|0|0,0:0|0:0|0:0,0:0:0:0:
122,57,85638,6,0,L|184:66,1,59.5000011348725,10|0,0:0|0:0,0:0:0:0:
235,141,85983,2,0,L|225:209,1,59.5000011348725,10|0,0:0|0:0,0:0:0:0:
136,172,86328,1,8,0:0:0:0:
136,172,86500,1,2,0:0:0:0:
98,254,86673,2,0,L|111:326,1,59.5000011348725,10|0,0:0|0:0,0:0:0:0:
186,366,87018,6,0,L|224:360,3,29.7500005674362,6|8|8|8,0:0|0:0|0:0|0:0,0:0:0:0:
241,345,87362,2,0,L|293:349,3,29.7500005674362,6|8|8|8,0:0|0:0|0:0|0:0,0:0:0:0:
293,318,87707,2,0,L|330:320,3,29.7500005674362,6|8|8|8,0:0|0:0|0:0|0:0,0:0:0:0:
337,291,88052,2,0,L|374:293,3,29.7500005674362,6|8|8|8,0:0|0:0|0:0|0:0,0:0:0:0:
410,281,88397,6,0,P|406:224|340:168,1,140,4|6,0:1|0:0,0:0:0:0:
269,121,88914,1,0,0:0:0:0:
269,121,89087,2,0,P|220:150|187:153,1,70,0|4,0:0|0:0,0:0:0:0:
144,97,89431,2,0,P|92:85|45:97,1,70,6|0,0:0|0:0,0:0:0:0:
12,156,89776,6,0,B|0:217|0:217|18:301,1,140,4|6,0:0|0:0,0:0:0:0:
56,354,90293,1,0,0:0:0:0:
56,354,90466,2,0,L|129:344,1,70,8|8,0:0|0:0,0:0:0:0:
181,281,90811,2,0,L|275:295,1,70,8|8,0:0|0:0,0:0:0:0:
337,338,91156,6,0,B|361:249|310:264|348:170,1,140,4|6,0:0|0:0,0:0:0:0:
407,158,91673,1,0,0:0:0:0:
407,158,91845,2,0,L|402:74,1,70,0|4,0:0|0:0,0:0:0:0:
345,15,92190,2,0,L|267:25,1,70,6|0,0:0|0:0,0:0:0:0:
214,86,92535,6,0,P|150:49|81:66,1,140,4|6,0:0|0:0,0:0:0:0:
13,101,93052,1,0,0:0:0:0:
13,101,93224,6,0,B|21:144|21:144|12:160|12:160|18:181|18:181|9:220,1,105,2|0,0:0|0:0,0:0:0:0:
9,232,93569,2,0,B|42:214|52:215|52:215|60:209|67:218|81:212|81:212|94:217|94:217|108:212,1,105,2|0,0:0|0:0,0:0:0:0:
145,198,93914,6,0,P|135:257|143:298,1,70,4|0,0:1|0:0,0:0:0:0:
186,334,94259,1,6,0:0:0:0:
253,288,94431,1,0,0:0:0:0:
253,288,94604,2,0,L|333:295,1,70,0|4,0:0|0:0,0:0:0:0:
409,274,94949,2,0,L|404:182,1,70,6|0,0:0|0:0,0:0:0:0:
461,129,95293,6,0,B|425:157|425:157|324:150,1,140,4|6,0:0|0:0,0:0:0:0:
265,92,95811,1,0,0:0:0:0:
265,92,95983,2,0,P|238:144|242:179,1,70,8|8,0:0|0:0,0:0:0:0:
173,219,96328,2,0,P|210:246|249:247,1,70,8|8,0:0|0:0,0:0:0:0:
313,205,96673,6,0,P|345:209|388:231,1,70,4|0,0:0|0:0,0:0:0:0:
438,292,97018,1,6,0:0:0:0:
501,235,97190,1,0,0:0:0:0:
501,235,97362,2,0,L|489:153,1,70,0|4,0:0|0:0,0:0:0:0:
471,75,97707,2,0,L|390:89,1,70,2|0,0:0|0:0,0:0:0:0:
322,34,98052,5,2,0:0:0:0:
322,34,98224,1,2,0:0:0:0:
259,95,98397,2,0,L|187:88,1,70,2|2,0:0|0:0,0:0:0:0:
109,22,98742,1,8,0:0:0:0:
109,22,98828,1,0,0:0:0:0:
109,22,98914,1,8,0:0:0:0:
46,97,99087,2,0,L|55:141,3,35,8|0|8|0,0:0|0:0|0:0|0:0,0:0:0:0:
27,169,99431,6,0,B|48:201|48:201|36:307,1,140,4|4,0:1|0:0,0:0:0:0:
27,377,99949,1,0,0:0:0:0:
100,353,100121,2,0,L|176:358,1,70,8|0,0:2|0:0,0:0:0:0:
236,301,100466,2,0,L|274:304,3,35,4|0|0|0,0:0|0:0|0:0|0:0,0:0:0:0:
317,300,100811,6,0,L|306:204,1,70,4|0,0:0|0:0,0:0:0:0:
390,181,101156,2,0,L|398:85,1,70,4|0,0:0|0:0,0:0:0:0:
326,29,101500,2,0,P|274:19|220:44,1,105,10|0,0:2|0:0,0:0:0:0:
213,51,101845,2,0,L|229:149,1,70,8|0,0:0|0:0,0:0:0:0:
200,201,102190,6,0,B|163:177|163:177|50:194,1,140,4|4,0:0|0:0,0:0:0:0:
11,260,102707,1,0,0:0:0:0:
11,260,102880,2,0,P|33:303|22:365,2,105,8|0|0,0:2|0:0|0:0,0:0:0:0:
68,191,103569,6,0,P|50:120|57:99,1,70,4|0,0:0|0:0,0:0:0:0:
119,73,103914,2,0,P|121:39|109:2,1,70,4|0,0:0|0:0,0:0:0:0:
206,46,104259,2,0,L|289:49,1,70,10|2,0:2|0:0,0:0:0:0:
377,18,104604,2,0,B|356:50|356:50|366:148,1,105,10|0,0:0|0:0,0:0:0:0:
381,140,104949,6,0,L|367:235,1,70,4|0,0:1|0:0,0:0:0:0:
281,224,105293,2,0,L|290:322,1,70,4|0,0:0|0:0,0:0:0:0:
350,352,105638,2,0,B|306:328|306:328|189:349,1,140,8|4,0:2|0:0,0:0:0:0:
177,352,106069,1,0,0:0:0:0:
177,352,106156,1,0,0:0:0:0:
104,310,106328,6,0,L|101:235,1,70,4|0,0:0|0:0,0:0:0:0:
169,185,106673,2,0,L|176:106,1,70,4|0,0:0|0:0,0:0:0:0:
177,18,107018,1,8,0:2:0:0:
244,61,107190,1,8,0:0:0:0:
312,20,107362,1,8,0:0:0:0:
378,68,107535,1,8,0:0:0:0:
448,30,107707,6,0,B|460:84|460:84|441:178,1,140,4|4,0:0|0:0,0:0:0:0:
477,241,108224,1,0,0:0:0:0:
427,300,108397,2,0,P|373:274|315:287,2,105,8|0|0,0:2|0:0|0:0,0:0:0:0:
360,362,109087,6,0,L|264:370,1,70,4|0,0:0|0:0,0:0:0:0:
216,303,109431,1,4,0:0:0:0:
216,303,109518,1,0,0:0:0:0:
216,303,109604,1,0,0:0:0:0:
127,362,109776,2,0,L|73:368,3,35,0|0|0|0,0:0|0:0|0:0|0:0,0:0:0:0:
61,356,110121,2,0,L|17:350,3,35,0|0|0|0,0:0|0:0|0:0|0:0,0:0:0:0:
9,306,110466,6,0,B|33:272|33:272|25:182,1,119.000002269745,4|0,0:1|0:0,0:0:0:0:
0,117,110983,1,0,0:0:0:0:
56,55,111156,2,0,P|104:40|148:64,1,89.2500017023087,8|0,0:0|0:0,0:0:0:0:
166,77,111500,2,0,L|212:71,2,29.7500005674362,2|0|0,0:0|0:0|0:0,0:0:0:0:
94,137,111845,6,0,B|75:184|75:184|92:269,1,119.000002269745,2|2,0:0|0:0,0:0:0:0:
137,319,112362,1,0,0:0:0:0:
211,277,112535,2,0,L|344:289,1,119.000002269745,8|0,0:0|0:0,0:0:0:0:
463,148,113224,6,0,L|318:136,1,119.000002269745,2|2,0:0|0:0,0:0:0:0:
277,83,113742,1,0,0:0:0:0:
277,83,113914,2,0,L|169:72,2,89.2500017023087,8|0|0,0:0|0:0|0:0,0:0:0:0:
344,139,114604,6,0,P|360:184|336:256,1,119.000002269745,2|2,0:0|0:0,0:0:0:0:
281,309,115121,1,0,0:0:0:0:
206,280,115293,1,8,0:0:0:0:
45,351,115638,1,0,0:0:0:0:
6,152,115983,6,0,P|16:80|60:44,1,119.000002269745,2|2,0:0|0:0,0:0:0:0:
128,20,116500,1,0,0:0:0:0:
128,20,116673,2,0,L|202:33,1,59.5000011348725,8|2,0:0|0:0,0:0:0:0:
268,74,117018,2,0,L|336:61,1,59.5000011348725,2|0,0:0|0:0,0:0:0:0:
413,26,117362,6,0,L|425:98,1,59.5000011348725,2|0,0:0|0:0,0:0:0:0:
485,151,117707,2,0,L|472:230,1,59.5000011348725,2|0,0:0|0:0,0:0:0:0:
454,312,118052,1,8,0:0:0:0:
316,186,118397,1,0,0:0:0:0:
252,325,118742,6,0,P|178:349|121:317,1,119.000002269745,2|2,0:0|0:0,0:0:0:0:
57,308,119259,1,0,0:0:0:0:
57,308,119431,2,0,P|71:266|71:230,1,59.5000011348725,8|2,0:0|0:0,0:0:0:0:
140,208,119776,2,0,P|132:161|135:129,1,59.5000011348725,2|0,0:0|0:0,0:0:0:0:
93,73,120121,6,0,L|21:81,2,59.5000011348725,2|0|2,0:0|0:0|0:0,0:0:0:0:
166,28,120638,1,0,0:0:0:0:
166,28,120811,2,0,L|301:37,1,119.000002269745,8|0,0:0|0:0,0:0:0:0:
445,152,121500,6,0,P|464:210|445:269,1,105.000004005432,4|2,0:1|0:0,0:0:0:0:
402,311,122018,2,0,L|336:301,1,52.5000020027161,0|8,0:0|0:0,0:0:0:0:
205,246,122535,2,0,L|129:242,1,52.5000020027161,2|0,0:0|0:0,0:0:0:0:
91,290,122880,6,0,B|65:257|65:257|81:177,1,105.000004005432,2|2,0:0|0:0,0:0:0:0:
66,104,123397,1,0,0:0:0:0:
66,104,123569,2,0,P|140:113|183:91,1,105.000004005432,8|0,0:0|0:0,0:0:0:0:
296,33,124259,6,0,P|284:93|323:139,1,105.000004005432,2|2,0:0|0:0,0:0:0:0:
394,125,124776,1,0,0:0:0:0:
394,125,124949,2,0,L|404:217,2,78.7500030040742,8|0|0,0:0|0:0|0:0,0:0:0:0:
480,74,125638,6,0,L|489:190,1,105.000004005432,2|2,0:0|0:0,0:0:0:0:
460,261,126156,1,0,0:0:0:0:
460,261,126328,2,0,B|417:242|417:242|340:258,1,105.000004005432,8|0,0:0|0:0,0:0:0:0:
224,345,127018,6,0,P|166:358|118:332,1,105.000004005432,2|2,0:0|0:0,0:0:0:0:
56,317,127535,2,0,L|66:260,1,52.5000020027161,0|8,0:0|0:0,0:0:0:0:
38,109,128052,1,2,0:0:0:0:
39,109,128397,6,0,P|87:140|141:130,1,105.000004005432,2|2,0:0|0:0,0:0:0:0:
196,84,128914,2,0,L|212:153,1,52.5000020027161,0|8,0:0|0:0,0:0:0:0:
252,265,129431,1,0,0:0:0:0:
390,209,129776,6,0,P|427:199|472:209,1,70,2|0,0:0|0:0,0:0:0:0:
503,267,130293,1,0,0:0:0:0:
503,267,130466,2,0,L|496:334,2,52.5,0|0|0,0:0|0:0|0:0,0:0:0:0:
484,95,131673,5,0,0:0:0:0:
484,95,131845,2,0,P|426:116|405:110,1,70,0|0,0:0|0:0,0:0:0:0:
312,40,132535,1,0,0:0:0:0:
256,192,132621,12,0,135293,0:0:0:0:
