osu file format v14

[General]
AudioFilename: audio.mp3
AudioLeadIn: 0
PreviewTime: 42190
Countdown: 0
SampleSet: Soft
StackLeniency: 0.3
Mode: 0
LetterboxInBreaks: 0
WidescreenStoryboard: 1

[Editor]
Bookmarks: 19257,22188,33222,38740,41498,44257,46326,49085,51843,53912,55291,57360,60119,62878,65636,66326,77360,88395,98050,99429,110464,127016
DistanceSpacing: 1.3
BeatDivisor: 4
GridSize: 4
TimelineZoom: 2.899999

[Metadata]
Title:Lolisquad
TitleUnicode:Lolisquad
Artist:Shadren
ArtistUnicode:Shadren
Creator:Shadren
Version:Djulus' Hard
Source:
Tags:fine lady kawaii drumstep anime dubstep halfstep trap future bass dnb drum and bass loli sweet artcore Djulus Mentai Frey Uta vanucik Error Uta h4d0uk3n -Rmdy
BeatmapID:1517273
BeatmapSetID:716965

[Difficulty]
HPDrainRate:5
CircleSize:3.5
OverallDifficulty:6
ApproachRate:7.8
SliderMultiplier:1.4
SliderTickRate:1

[Events]
//Background and Video events
0,0,"BG.jpg",0,0
//Break Periods
2,22390,29371
2,66528,73509
//Storyboard Layer 0 (Background)
//Storyboard Layer 1 (Fail)
//Storyboard Layer 2 (Pass)
//Storyboard Layer 3 (Foreground)
//Storyboard Sound Samples

[TimingPoints]
11156,344.827586206897,4,2,1,70,1,0
44259,-100,4,3,1,80,0,1
53914,-100,4,3,1,70,0,0
55293,-100,4,3,1,80,0,1
66328,-100,4,3,1,70,0,0
77362,-100,4,2,1,70,0,0
88397,-100,4,3,1,80,0,1
98052,-100,4,3,1,70,0,0
99431,-100,4,3,1,80,0,1
110466,-100,4,2,1,70,0,0

[Colours]
Combo1 : 83,169,255
Combo2 : 252,230,154
Combo3 : 255,176,216
Combo4 : 255,125,125

[HitObjects]
32,100,11156,6,0,P|72:96|108:96,1,70,2|0,0:0|0:0,0:0:0:0:
176,44,11500,2,0,P|220:40|256:36,1,70,10|0,0:0|0:0,0:0:0:0:
424,72,12018,1,0,0:0:0:0:
364,140,12190,2,0,P|360:188|360:240,1,70,2|0,0:0|0:0,0:0:0:0:
336,256,12449,1,0,0:0:0:0:
336,256,12535,6,0,P|260:248|188:252,2,140,2|10|0,0:0|0:0|0:0,0:0:0:0:
464,204,13398,1,8,0:0:0:0:
464,184,13484,1,0,0:0:0:0:
464,168,13570,2,0,L|460:108,3,35,0|0|8|0,0:0|0:0|0:0|0:0,0:0:0:0:
436,96,13914,6,0,P|368:92|284:80,1,140,2|10,0:0|0:0,0:0:0:0:
28,40,14776,1,0,0:0:0:0:
92,104,14949,2,0,P|96:160|92:196,1,70,2|0,0:0|0:0,0:0:0:0:
64,204,15207,1,0,0:0:0:0:
64,204,15293,6,0,P|52:264|64:356,2,140,2|10|0,0:0|0:0|0:0,0:0:0:0:
188,144,16156,1,8,0:0:0:0:
188,172,16242,1,0,0:0:0:0:
188,196,16328,2,0,L|180:260,3,35,0|0|8|0,0:0|0:0|0:0|0:0,0:0:0:0:
184,276,16673,6,0,P|232:276|340:280,1,140,2|10,0:0|0:0,0:0:0:0:
488,60,17535,1,0,0:0:0:0:
420,120,17707,2,0,P|384:124|328:116,1,70,2|0,0:0|0:0,0:0:0:0:
312,96,17966,1,0,0:0:0:0:
312,96,18052,6,0,P|248:84|156:124,2,140,2|10|0,0:0|0:0|0:0,0:0:0:0:
412,192,18914,1,8,0:0:0:0:
408,212,19001,1,0,0:0:0:0:
404,232,19087,2,0,L|400:288,3,35,0|0|8|0,0:0|0:0|0:0|0:0,0:0:0:0:
392,324,19431,6,0,P|312:320|240:324,1,140,2|10,0:0|0:0,0:0:0:0:
44,144,20293,1,0,0:0:0:0:
128,184,20466,2,0,P|160:180|212:172,1,70,2|0,0:0|0:0,0:0:0:0:
232,148,20724,1,0,0:0:0:0:
232,148,20811,6,0,P|332:136|380:144,2,140,2|10|0,0:0|0:0|0:0,0:0:0:0:
120,224,21673,1,8,0:0:0:0:
124,244,21759,1,0,0:0:0:0:
128,264,21845,2,0,L|128:328,3,35,0|0|8|0,0:0|0:0|0:0|0:0,0:0:0:0:
104,340,22190,5,4,1:0:0:0:
256,192,30121,12,0,33052,0:0:0:0:
224,340,33224,6,0,L|152:328,1,70,4|0,1:0|0:0,0:0:0:0:
64,304,33569,1,2,0:0:0:0:
64,304,33742,2,0,P|56:256|56:156,1,140,0|2,0:0|0:0,0:0:0:0:
88,80,34259,1,2,0:0:0:0:
172,116,34431,1,0,0:0:0:0:
252,72,34604,6,0,L|340:68,1,70,2|0,0:0|0:0,0:0:0:0:
344,156,34949,2,0,P|292:160|256:160,1,70,2|0,0:0|0:0,0:0:0:0:
196,204,35293,2,0,B|176:276|216:272|200:356,1,140,0|0,0:0|0:0,0:0:0:0:
292,320,35811,1,0,0:0:0:0:
380,340,35983,6,0,L|472:336,1,70,2|0,0:0|0:0,0:0:0:0:
488,252,36328,1,2,0:0:0:0:
420,192,36500,2,0,P|416:144|408:40,1,140,0|2,0:0|0:0,0:0:0:0:
320,24,37018,1,2,0:0:0:0:
240,68,37190,1,0,0:0:0:0:
240,68,37276,1,0,0:0:0:0:
240,68,37362,6,0,P|184:72|152:72,1,70,2|0,0:0|0:0,0:0:0:0:
88,32,37707,2,0,P|76:80|96:120,1,70,2|0,0:0|0:0,0:0:0:0:
152,156,38052,2,0,P|160:212|132:312,1,140,0|0,0:0|0:0,0:0:0:0:
88,368,38569,1,8,0:0:0:0:
192,368,38742,6,0,P|228:360|280:352,1,70,10|0,0:0|0:0,0:0:0:0:
312,276,39087,2,0,P|312:228|320:180,1,70,10|0,0:0|0:0,0:0:0:0:
456,68,39604,1,2,0:0:0:0:
476,164,39776,2,0,L|476:220,3,35,10|0|0|0,0:0|0:0|0:0|0:0,0:0:0:0:
456,244,40121,6,0,L|472:324,1,70,10|0,0:0|0:0,0:0:0:0:
384,356,40466,2,0,P|320:336|240:356,1,140,10|8,0:0|0:0,0:0:0:0:
152,360,40983,1,0,0:0:0:0:
152,360,41069,1,0,0:0:0:0:
152,360,41156,2,0,L|136:296,3,35,8|0|0|0,0:0|0:0|0:0|0:0,0:0:0:0:
164,280,41500,6,0,P|164:232|168:188,1,70,10|0,0:0|0:0,0:0:0:0:
212,132,41845,1,10,0:0:0:0:
280,192,42018,2,0,P|280:248|292:336,1,140,0|2,0:0|0:0,0:0:0:0:
376,360,42535,2,0,P|380:308|380:276,1,70,10|0,0:0|0:0,0:0:0:0:
460,244,42880,6,0,L|452:180,3,35,6|8|8|8,0:0|0:0|0:0|0:0,0:0:0:0:
416,184,43224,2,0,L|408:136,3,35,6|8|8|8,0:0|0:0|0:0|0:0,0:0:0:0:
448,128,43569,2,0,L|448:80,3,35,6|8|8|8,0:0|0:0|0:0|0:0,0:0:0:0:
404,76,43914,2,0,L|400:32,3,35,6|8|8|8,0:0|0:0|0:0|0:0,0:0:0:0:
360,24,44259,6,0,P|300:24|260:28,1,70,4|0,0:1|0:0,0:0:0:0:
228,84,44604,2,0,P|172:76|80:72,1,140,6|0,0:0|0:0,0:0:0:0:
24,136,45121,1,0,0:0:0:0:
104,176,45293,2,0,P|108:224|104:272,1,70,6|0,0:0|0:0,0:0:0:0:
72,332,45638,6,0,P|120:332|168:328,1,70,4|0,0:0|0:0,0:0:0:0:
208,268,45983,2,0,P|284:256|344:284,1,140,6|8,0:0|0:0,0:0:0:0:
400,352,46500,1,8,0:0:0:0:
468,288,46673,2,0,P|468:240|472:204,1,70,8|8,0:0|0:0,0:0:0:0:
404,156,47018,6,0,P|344:152|248:144,1,140,4|6,0:0|0:0,0:0:0:0:
188,196,47535,1,0,0:0:0:0:
256,256,47707,2,0,P|260:308|264:356,1,70,0|0,0:0|0:0,0:0:0:0:
176,356,48052,2,0,L|176:280,1,70,6|0,0:0|0:0,0:0:0:0:
96,244,48397,6,0,P|80:280|92:328,1,70,4|0,0:0|0:0,0:0:0:0:
176,356,48742,2,0,L|256:348,1,70,6|0,0:0|0:0,0:0:0:0:
336,352,49087,2,0,B|300:288|356:280|324:212,2,140,2|2|4,0:0|0:0|0:1,0:0:0:0:
428,360,49949,5,0,0:0:0:0:
480,288,50121,1,6,0:0:0:0:
424,216,50293,2,0,P|408:152|420:72,1,140,0|0,0:0|0:0,0:0:0:0:
336,32,50811,2,0,P|324:76|328:112,1,70,6|0,0:0|0:0,0:0:0:0:
332,192,51156,6,0,P|252:180|232:176,1,70,4|0,0:0|0:0,0:0:0:0:
216,104,51500,2,0,L|120:108,1,70,6|0,0:0|0:0,0:0:0:0:
68,156,51845,1,8,0:0:0:0:
68,156,52018,1,8,0:0:0:0:
120,232,52190,1,8,0:0:0:0:
120,232,52362,1,8,0:0:0:0:
68,308,52535,6,0,B|152:304|116:352|216:328,1,140,4|6,0:0|0:0,0:0:0:0:
276,280,53052,1,0,0:0:0:0:
276,280,53138,1,0,0:0:0:0:
276,280,53224,2,0,P|332:268|368:276,1,70,0|0,0:0|0:0,0:0:0:0:
404,340,53569,1,2,0:0:0:0:
472,276,53742,1,0,0:0:0:0:
456,188,53914,6,0,P|460:136|456:96,1,70,2|2,0:0|0:0,0:0:0:0:
372,96,54259,2,0,P|368:156|368:184,1,70,2|2,0:0|0:0,0:0:0:0:
296,220,54604,2,0,L|244:216,3,35,8|0|8|0,0:0|0:0|0:0|0:0,0:0:0:0:
220,196,54949,2,0,L|168:200,3,35,8|0|8|0,0:0|0:0|0:0|0:0,0:0:0:0:
160,164,55293,6,0,P|124:156|79:155,1,70,4|0,0:1|0:0,0:0:0:0:
28,220,55638,1,4,0:0:0:0:
80,296,55811,2,0,P|164:296|224:304,1,140,0|0,0:0|0:0,0:0:0:0:
292,360,56328,1,4,0:0:0:0:
380,336,56500,1,0,0:0:0:0:
380,336,56587,1,0,0:0:0:0:
380,336,56673,6,0,P|432:332|456:328,1,70,4|0,0:0|0:0,0:0:0:0:
460,240,57018,2,0,P|400:240|372:240,1,70,4|0,0:0|0:0,0:0:0:0:
300,260,57362,1,10,0:2:0:0:
300,260,57535,1,0,0:0:0:0:
212,240,57707,2,0,P|144:232|64:236,1,140,8|4,0:0|0:0,0:0:0:0:
80,144,58224,5,0,0:0:0:0:
136,72,58397,1,4,0:0:0:0:
136,72,58569,2,0,P|200:84|224:88,1,70,0|8,0:0|0:2,0:0:0:0:
292,56,58914,1,0,0:0:0:0:
292,56,59000,1,0,0:0:0:0:
292,56,59087,2,0,L|340:60,3,35,4|0|0|0,0:0|0:0|0:0|0:0,0:0:0:0:
372,48,59431,6,0,P|364:88|368:140,1,70,4|0,0:0|0:0,0:0:0:0:
440,172,59776,2,0,P|440:224|436:268,1,70,4|0,0:0|0:0,0:0:0:0:
380,312,60121,1,10,0:2:0:0:
292,292,60293,1,2,0:0:0:0:
292,292,60466,2,0,P|224:280|148:284,1,140,8|4,0:0|0:1,0:0:0:0:
88,344,60983,5,0,0:0:0:0:
48,260,61156,1,4,0:0:0:0:
48,260,61328,2,0,P|72:216|56:116,1,140,0|0,0:0|0:0,0:0:0:0:
16,52,61845,2,0,P|64:48|96:56,1,70,4|0,0:0|0:0,0:0:0:0:
164,100,62190,6,0,L|252:92,1,70,4|0,0:0|0:0,0:0:0:0:
268,180,62535,2,0,L|264:260,1,70,4|0,0:0|0:0,0:0:0:0:
292,340,62880,1,8,0:2:0:0:
292,340,63052,1,8,0:0:0:0:
388,332,63224,1,8,0:0:0:0:
388,332,63397,6,0,P|408:288|412:248,1,70,8|4,0:0|0:0,0:0:0:0:
424,176,63742,1,0,0:0:0:0:
344,128,63914,2,0,P|316:184|312:220,1,70,4|0,0:0|0:0,0:0:0:0:
308,280,64259,1,8,0:2:0:0:
216,280,64431,1,0,0:0:0:0:
216,280,64518,1,0,0:0:0:0:
216,280,64604,2,0,L|156:280,3,35,4|0|0|0,0:0|0:0|0:0|0:0,0:0:0:0:
136,284,64949,6,0,L|136:192,1,70,4|0,0:0|0:0,0:0:0:0:
76,144,65293,2,0,L|72:60,1,70,4|0,0:0|0:0,0:0:0:0:
160,52,65638,2,0,L|216:64,3,35,2|0|2|0,0:0|0:0|0:0|0:0,0:0:0:0:
236,40,65983,2,0,L|292:36,3,35,2|0|2|0,0:0|0:0|0:0|0:0,0:0:0:0:
308,64,66328,5,4,1:0:0:0:
256,192,74259,12,4,77362,0:1:0:0:
92,64,77535,5,0,0:0:0:0:
92,64,77707,2,0,L|112:144,1,70,2|0,0:0|0:0,0:0:0:0:
296,332,78397,2,0,L|396:328,1,70,2|0,0:0|0:0,0:0:0:0:
452,296,78742,2,0,P|440:244|460:152,1,140,2|2,0:0|0:0,0:0:0:0:
284,104,79431,1,0,0:0:0:0:
212,160,79604,1,0,0:0:0:0:
212,160,79690,1,0,0:0:0:0:
212,160,79776,2,0,L|136:156,1,70,0|0,0:0|0:0,0:0:0:0:
64,204,80121,6,0,P|60:252|64:296,1,70,2|0,0:0|0:0,0:0:0:0:
144,316,80466,2,0,P|192:316|240:320,1,70,2|0,0:0|0:0,0:0:0:0:
396,304,80983,1,2,0:0:0:0:
352,224,81156,2,0,L|352:168,3,35,2|0|0|0,0:0|0:0|0:0|0:0,0:0:0:0:
384,156,81500,2,0,L|392:80,1,70,2|0,0:0|0:0,0:0:0:0:
304,56,81845,2,0,L|296:136,1,70,2|0,0:0|0:0,0:0:0:0:
236,196,82190,2,0,B|204:176|204:176|164:180|164:180|140:160|104:180,1,140,0|0,0:0|0:0,0:0:0:0:
32,236,82707,1,8,0:0:0:0:
88,308,82880,6,0,P|152:320|228:324,1,140,10|10,0:0|0:0,0:0:0:0:
300,272,83397,1,0,0:0:0:0:
356,344,83569,2,0,L|444:336,1,70,8|2,0:0|0:0,0:0:0:0:
464,256,83914,2,0,L|460:200,3,35,10|0|0|0,0:0|0:0|0:0|0:0,0:0:0:0:
464,176,84259,2,0,P|412:176|376:168,1,70,10|0,0:0|0:0,0:0:0:0:
324,112,84604,2,0,P|256:104|236:104,1,70,10|0,0:0|0:0,0:0:0:0:
72,124,85121,1,0,0:0:0:0:
76,144,85207,1,0,0:0:0:0:
80,160,85293,2,0,L|68:208,3,35,8|0|0|0,0:0|0:0|0:0|0:0,0:0:0:0:
40,224,85638,6,0,P|48:272|44:308,1,70,10|0,0:0|0:0,0:0:0:0:
124,344,85983,2,0,L|204:340,1,70,10|0,0:0|0:0,0:0:0:0:
264,280,86328,1,8,0:0:0:0:
352,336,86500,1,2,0:0:0:0:
352,336,86587,1,0,0:0:0:0:
352,336,86673,2,0,L|400:328,3,35,10|0|0|0,0:0|0:0|0:0|0:0,0:0:0:0:
424,304,87018,6,0,L|416:248,3,35,6|8|8|8,0:0|0:0|0:0|0:0,0:0:0:0:
452,236,87362,2,0,L|460:192,3,35,6|8|8|8,0:0|0:0|0:0|0:0,0:0:0:0:
416,184,87707,2,0,L|404:120,3,35,6|8|8|8,0:0|0:0|0:0|0:0,0:0:0:0:
444,120,88052,2,0,L|448:72,3,35,6|8|8|8,0:0|0:0|0:0|0:0,0:0:0:0:
408,60,88397,6,0,P|368:60|328:56,1,70,4|0,0:1|0:0,0:0:0:0:
260,100,88742,2,0,P|208:92|100:92,1,140,6|0,0:0|0:0,0:0:0:0:
36,124,89259,1,4,0:0:0:0:
100,188,89431,2,0,P|104:240|96:284,1,70,6|0,0:0|0:0,0:0:0:0:
52,336,89776,2,0,P|96:352|140:340,1,70,4|0,0:0|0:0,0:0:0:0:
196,300,90121,2,0,P|232:292|336:328,1,140,6|8,0:0|0:0,0:0:0:0:
408,368,90638,1,8,0:0:0:0:
464,296,90811,2,0,L|464:224,1,70,8|8,0:0|0:0,0:0:0:0:
428,144,91156,6,0,P|368:144|272:132,1,140,4|6,0:0|0:0,0:0:0:0:
196,136,91673,1,0,0:0:0:0:
244,212,91845,2,0,P|252:260|256:292,1,70,0|4,0:0|0:0,0:0:0:0:
164,292,92190,2,0,L|160:216,1,70,6|0,0:0|0:0,0:0:0:0:
116,144,92535,2,0,L|120:52,1,70,4|0,0:0|0:0,0:0:0:0:
28,92,92880,2,0,L|20:176,1,70,6|0,0:0|0:0,0:0:0:0:
68,240,93224,6,0,P|52:320|52:384,2,140,2|2|4,0:0|0:0|0:1,0:0:0:0:
160,222,94087,1,0,0:0:0:0:
220,288,94259,1,6,0:0:0:0:
296,240,94431,2,0,P|368:232|448:236,1,140,0|4,0:0|0:0,0:0:0:0:
504,172,94949,2,0,L|496:92,1,70,6|0,0:0|0:0,0:0:0:0:
412,72,95293,6,0,L|328:60,1,70,4|0,0:0|0:0,0:0:0:0:
256,96,95638,2,0,L|168:96,1,70,6|0,0:0|0:0,0:0:0:0:
104,140,95983,1,8,0:0:0:0:
104,140,96156,1,8,0:0:0:0:
132,224,96328,1,8,0:0:0:0:
132,224,96500,1,8,0:0:0:0:
52,268,96673,6,0,B|120:264|88:324|188:324,1,140,4|6,0:0|0:0,0:0:0:0:
264,376,97190,1,0,0:0:0:0:
264,376,97276,1,0,0:0:0:0:
264,376,97362,2,0,P|272:320|260:288,1,70,0|4,0:0|0:0,0:0:0:0:
236,224,97707,1,2,0:0:0:0:
300,160,97880,1,0,0:0:0:0:
224,112,98052,6,0,L|228:36,1,70,2|2,0:0|0:0,0:0:0:0:
136,60,98397,2,0,L|132:132,1,70,2|2,0:0|0:0,0:0:0:0:
176,212,98742,2,0,L|224:208,3,35,8|0|8|0,0:0|0:0|0:0|0:0,0:0:0:0:
244,240,99087,2,0,L|304:236,3,35,8|0|8|0,0:0|0:0|0:0|0:0,0:0:0:0:
320,260,99431,6,0,P|364:256|412:264,1,70,4|0,0:1|0:0,0:0:0:0:
460,320,99776,1,4,0:0:0:0:
484,232,99949,2,0,P|472:176|468:80,1,140,0|0,0:0|0:0,0:0:0:0:
408,24,100466,1,4,0:0:0:0:
332,72,100638,5,0,0:0:0:0:
332,72,100724,1,0,0:0:0:0:
332,72,100811,2,0,P|272:64|240:60,1,70,4|0,0:0|0:0,0:0:0:0:
188,116,101156,2,0,L|108:104,1,70,4|0,0:0|0:0,0:0:0:0:
52,164,101500,1,10,0:2:0:0:
52,164,101673,1,0,0:0:0:0:
72,252,101845,6,0,P|144:248|220:256,1,140,8|4,0:0|0:0,0:0:0:0:
276,320,102362,1,0,0:0:0:0:
276,320,102535,2,0,P|304:264|296:232,1,70,4|0,0:0|0:0,0:0:0:0:
272,172,102880,2,0,L|284:100,1,70,8|0,0:2|0:0,0:0:0:0:
372,76,103224,2,0,L|424:80,3,35,4|0|0|0,0:0|0:0|0:0|0:0,0:0:0:0:
452,80,103569,6,0,P|444:136|440:168,1,70,4|0,0:0|0:0,0:0:0:0:
480,232,103914,2,0,L|472:316,1,70,4|0,0:0|0:0,0:0:0:0:
392,344,104259,2,0,P|288:336|240:336,1,140,10|10,0:2|0:0,0:0:0:0:
164,356,104776,1,0,0:0:0:0:
84,312,104949,6,0,L|96:232,1,70,4|0,0:1|0:0,0:0:0:0:
72,156,105293,2,0,P|124:144|152:144,1,70,4|0,0:0|0:0,0:0:0:0:
228,176,105638,2,0,P|280:168|324:160,1,70,8|0,0:2|0:0,0:0:0:0:
360,96,105983,1,4,0:0:0:0:
420,184,106156,5,0,0:0:0:0:
420,184,106242,1,0,0:0:0:0:
420,184,106328,2,0,P|428:232|412:264,1,70,4|0,0:0|0:0,0:0:0:0:
356,312,106673,2,0,L|276:312,1,70,4|0,0:0|0:0,0:0:0:0:
200,336,107018,5,8,0:2:0:0:
200,336,107190,1,8,0:0:0:0:
112,320,107362,1,8,0:0:0:0:
112,320,107535,2,0,P|104:296|88:236,1,70,8|4,0:0|0:0,0:0:0:0:
36,180,107880,1,0,0:0:0:0:
76,100,108052,1,4,0:0:0:0:
156,144,108224,6,0,P|220:144|300:136,1,140,0|0,0:0|0:0,0:0:0:0:
356,68,108742,1,4,0:0:0:0:
444,124,108914,1,0,0:0:0:0:
444,124,109000,1,0,0:0:0:0:
444,124,109087,2,0,P|448:192|448:216,1,70,4|0,0:0|0:0,0:0:0:0:
376,248,109431,2,0,P|368:296|368:340,1,70,4|0,0:0|0:0,0:0:0:0:
280,340,109776,2,0,L|228:328,3,35,0|0|0|0,0:0|0:0|0:0|0:0,0:0:0:0:
212,300,110121,2,0,L|160:296,3,35,0|0|0|0,0:0|0:0|0:0|0:0,0:0:0:0:
136,316,110466,6,0,L|56:304,1,70,4|0,0:1|0:0,0:0:0:0:
20,228,110811,1,0,0:0:0:0:
88,168,110983,2,0,P|88:116|104:20,1,140,2|2,0:0|0:0,0:0:0:0:
184,64,111500,1,2,0:0:0:0:
272,44,111673,5,0,0:0:0:0:
272,44,111759,1,0,0:0:0:0:
272,44,111845,2,0,L|356:48,1,70,2|0,0:0|0:0,0:0:0:0:
344,140,112190,2,0,L|260:132,1,70,2|0,0:0|0:0,0:0:0:0:
200,184,112535,1,8,0:0:0:0:
200,184,112880,1,0,0:0:0:0:
200,184,113224,6,0,L|184:268,1,70,2|0,0:0|0:0,0:0:0:0:
228,336,113569,1,2,0:0:0:0:
316,312,113742,2,0,P|376:296|464:300,1,140,2|2,0:0|0:0,0:0:0:0:
504,220,114259,1,2,0:0:0:0:
456,144,114431,5,0,0:0:0:0:
456,144,114518,1,0,0:0:0:0:
456,144,114604,2,0,L|460:68,1,70,2|0,0:0|0:0,0:0:0:0:
368,60,114949,2,0,L|360:132,1,70,2|0,0:0|0:0,0:0:0:0:
288,188,115293,1,8,0:0:0:0:
288,188,115638,1,0,0:0:0:0:
288,188,115983,6,0,L|208:188,1,70,2|0,0:0|0:0,0:0:0:0:
144,240,116328,1,2,0:0:0:0:
56,216,116500,2,0,P|68:148|68:64,1,140,2|2,0:0|0:0,0:0:0:0:
144,28,117018,1,2,0:0:0:0:
228,68,117190,5,0,0:0:0:0:
228,68,117276,1,0,0:0:0:0:
228,68,117362,2,0,L|216:144,1,70,2|0,0:0|0:0,0:0:0:0:
292,188,117707,2,0,L|296:264,1,70,2|0,0:0|0:0,0:0:0:0:
232,320,118052,1,8,0:0:0:0:
232,320,118397,1,0,0:0:0:0:
232,320,118742,6,0,L|132:304,1,70,2|0,0:0|0:0,0:0:0:0:
108,236,119087,1,2,0:0:0:0:
172,172,119259,2,0,P|244:160|328:148,1,140,2|2,0:0|0:0,0:0:0:0:
380,208,119776,1,2,0:0:0:0:
400,120,119949,5,0,0:0:0:0:
400,120,120035,1,0,0:0:0:0:
400,120,120121,2,0,P|360:80|336:76,1,70,2|0,0:0|0:0,0:0:0:0:
264,48,120466,2,0,L|180:40,1,70,2|0,0:0|0:0,0:0:0:0:
124,100,120811,2,0,L|48:140,1,70,8|0,0:0|0:0,0:0:0:0:
60,224,121156,1,0,0:0:0:0:
60,224,121500,6,0,L|64:316,1,70,4|0,0:1|0:0,0:0:0:0:
136,348,121845,1,2,0:0:0:0:
220,312,122018,1,0,0:0:0:0:
292,364,122190,2,0,P|364:352|452:332,1,140,8|2,0:0|0:0,0:0:0:0:
480,264,122707,1,0,0:0:0:0:
480,172,122880,6,0,L|484:92,1,70,2|0,0:0|0:0,0:0:0:0:
392,112,123224,2,0,L|392:192,1,70,2|0,0:0|0:0,0:0:0:0:
308,220,123569,1,8,0:0:0:0:
308,220,123914,1,0,0:0:0:0:
308,220,124259,6,0,L|224:232,1,70,2|0,0:0|0:0,0:0:0:0:
176,296,124604,1,2,0:0:0:0:
92,260,124776,1,0,0:0:0:0:
16,312,124949,2,0,P|8:248|36:160,1,140,8|2,0:0|0:0,0:0:0:0:
84,104,125466,1,0,0:0:0:0:
160,152,125638,6,0,L|240:144,1,70,2|0,0:0|0:0,0:0:0:0:
268,64,125983,2,0,L|364:64,1,70,2|0,0:0|0:0,0:0:0:0:
404,128,126328,1,8,0:0:0:0:
404,128,126673,1,0,0:0:0:0:
404,128,127018,6,0,L|412:208,1,70,2|0,0:0|0:0,0:0:0:0:
476,260,127362,1,2,0:0:0:0:
436,344,127535,1,0,0:0:0:0:
348,328,127707,2,0,P|256:320|196:328,1,140,8|2,0:0|0:0,0:0:0:0:
124,360,128224,1,0,0:0:0:0:
64,288,128397,6,0,L|64:192,1,70,2|0,0:0|0:0,0:0:0:0:
144,176,128742,2,0,L|160:268,1,70,2|0,0:0|0:0,0:0:0:0:
240,204,129087,1,8,0:0:0:0:
240,204,129431,1,0,0:0:0:0:
240,204,129776,6,0,L|320:208,1,70,2|0,0:0|0:0,0:0:0:0:
384,260,130121,1,0,0:0:0:0:
468,224,130293,1,0,0:0:0:0:
452,136,130466,2,0,L|448:56,1,70,0|0,0:0|0:0,0:0:0:0:
360,92,130811,1,0,0:0:0:0:
272,68,130983,5,0,0:0:0:0:
272,68,131069,1,0,0:0:0:0:
272,68,131156,2,0,L|188:64,1,70,0|0,0:0|0:0,0:0:0:0:
172,152,131500,2,0,L|268:148,1,70,0|0,0:0|0:0,0:0:0:0:
240,240,131845,1,0,0:0:0:0:
240,240,132190,1,0,0:0:0:0:
80,324,132535,5,4,0:1:0:0:
