osu file format v14

[General]
AudioFilename: audio.mp3
AudioLeadIn: 0
PreviewTime: 42929
Countdown: 0
SampleSet: Soft
StackLeniency: 0.7
Mode: 0
LetterboxInBreaks: 0
EpilepsyWarning: 1
WidescreenStoryboard: 1

[Editor]
Bookmarks: 11213,33282,44316,66385,88454,88627,88799,88972,89144,89316,89489,89661,89834,90006,90179,90351,90523,90696,90868,91041,91213,91385,91558,91730,91903,92075,92247,92420,92592,92765,92937,93110,93282,93454,93627,93799,93972,94144,94316,94489,94661,94834,95006,95179,95351,95523,95696,95868,96041,96213,96385,96558,96730,96903,97075,97247,97420,97592,97765,97937,98110,98282,98454,98627,98799,98972,99144,99316,99489,110523,132592,143627,154661,165696,176599
DistanceSpacing: 1.1
BeatDivisor: 4
GridSize: 32
TimelineZoom: 1.900001

[Metadata]
Title:Froskya
TitleUnicode:Froskya
Artist:Shadren
ArtistUnicode:Shadren
Creator:Froskya
Version:Normal (feat. Ryxliee)
Source:Russian Community Beatmapping Contest #3
Tags:shadren ryxliee tachibana_ vitas2222 aphestra announcerf leominexd leomine baack jojajim revialink electronic instrumental future bass drum and dnb d n b d'n'b lo-fi lofi hip-hop hip hop breaks vocal vocals female japanese chops vibe featured artist fa osu! rbc beat mapping
BeatmapID:4155784
BeatmapSetID:1999098

[Difficulty]
HPDrainRate:3
CircleSize:3.2
OverallDifficulty:4
ApproachRate:5.5
SliderMultiplier:0.999999999999999
SliderTickRate:1

[Events]
//Background and Video events
0,0,"bg.png",0,0
//Break Periods
2,88646,98281
//Storyboard Layer 0 (Background)
//Storyboard Layer 1 (Fail)
//Storyboard Layer 2 (Pass)
//Storyboard Layer 3 (Foreground)
Sprite,Foreground,Centre,"sb\circle.png",0,0 C,0,132584,,255,217,102 M,3,132584,133956,380,74,380,-176 F,2,132584,133956,1,0 S,3,132584,133956,0.1,0.02 P,0,132584,133956,A
Sprite,Foreground,Centre,"sb\circle.png",0,0 C,0,132929,,255,217,102 M,3,132929,134473,486,99,486,-151 F,2,132929,134473,1,0 S,3,132929,134473,0.1,0.02 P,0,132929,134473,A
Sprite,Foreground,Centre,"sb\circle.png",0,0 C,0,133446,,255,217,102 M,3,133446,134990,406,229,406,-21 F,2,133446,134990,1,0 S,3,133446,134990,0.1,0.02 P,0,133446,134990,A
Sprite,Foreground,Centre,"sb\circle.png",0,0 C,0,133964,,255,217,102 M,3,133964,135164,489,360,489,110 F,2,133964,135164,1,0 S,3,133964,135164,0.1,0.02 P,0,133964,135164,A
Sprite,Foreground,Centre,"sb\circle.png",0,0 C,0,134308,,255,217,102 M,3,134308,135508,407.9936,433.9936,407.9936,183.9936 F,2,134308,135508,1,0 S,3,134308,135508,0.1,0.02 P,0,134308,135508,A
Sprite,Foreground,Centre,"sb\circle.png",0,0 C,0,134481,,255,217,102 M,3,134481,135681,412,438,412,188 F,2,134481,135681,1,0 S,3,134481,135681,0.1,0.02 P,0,134481,135681,A
Sprite,Foreground,Centre,"sb\circle.png",0,0 C,0,134826,,255,217,102 M,3,134826,136370,322,373,322,123 F,2,134826,136370,1,0 S,3,134826,136370,0.1,0.02 P,0,134826,136370,A
Sprite,Foreground,Centre,"sb\circle.png",0,0 C,0,135343,,209,163,163 M,3,135343,136543,170,440,170,190 F,2,135343,136543,1,0 S,3,135343,136543,0.1,0.02 P,0,135343,136543,A
Sprite,Foreground,Centre,"sb\circle.png",0,0 C,0,135687,,209,163,163 M,3,135687,136887,83.9936,369.9936,83.9936,119.9936 F,2,135687,136887,1,0 S,3,135687,136887,0.1,0.02 P,0,135687,136887,A
Sprite,Foreground,Centre,"sb\circle.png",0,0 C,0,135860,,209,163,163 M,3,135860,137060,88,374,88,124 F,2,135860,137060,1,0 S,3,135860,137060,0.1,0.02 P,0,135860,137060,A
Sprite,Foreground,Centre,"sb\circle.png",0,0 C,0,136205,,209,163,163 M,3,136205,137749,158,289,158,39 F,2,136205,137749,1,0 S,3,136205,137749,0.1,0.02 P,0,136205,137749,A
Sprite,Foreground,Centre,"sb\circle.png",0,0 C,0,136722,,183,250,133 M,3,136722,138094,117,165,117,-85 F,2,136722,138094,1,0 S,3,136722,138094,0.1,0.02 P,0,136722,138094,A
Sprite,Foreground,Centre,"sb\circle.png",0,0 C,0,137067,,183,250,133 M,3,137067,138611,160,64,160,-186 F,2,137067,138611,1,0 S,3,137067,138611,0.1,0.02 P,0,137067,138611,A
Sprite,Foreground,Centre,"sb\circle.png",0,0 C,0,137584,,183,250,133 M,3,137584,138784,309.9936,85.9936,309.9936,-164.0064 F,2,137584,138784,1,0 S,3,137584,138784,0.1,0.02 P,0,137584,138784,A
Sprite,Foreground,Centre,"sb\circle.png",0,0 C,0,137757,,183,250,133 M,3,137757,138957,314,90,314,-160 F,2,137757,138957,1,0 S,3,137757,138957,0.1,0.02 P,0,137757,138957,A
Sprite,Foreground,Centre,"sb\circle.png",0,0 C,0,138102,,249,153,168 M,3,138102,139474,384,174,384,-76 F,2,138102,139474,1,0 S,3,138102,139474,0.1,0.02 P,0,138102,139474,A
Sprite,Foreground,Centre,"sb\circle.png",0,0 C,0,138447,,249,153,168 M,3,138447,139991,311,243,311,-7 F,2,138447,139991,1,0 S,3,138447,139991,0.1,0.02 P,0,138447,139991,A
Sprite,Foreground,Centre,"sb\circle.png",0,0 C,0,138964,,249,153,168 M,3,138964,140508,388,372,388,122 F,2,138964,140508,1,0 S,3,138964,140508,0.1,0.02 P,0,138964,140508,A
Sprite,Foreground,Centre,"sb\circle.png",0,0 C,0,139482,,249,153,168 M,3,139482,140682,536,327,536,77 F,2,139482,140682,1,0 S,3,139482,140682,0.1,0.02 P,0,139482,140682,A
Sprite,Foreground,Centre,"sb\circle.png",0,0 C,0,139826,,249,153,168 M,3,139826,141026,468.9936,238.9936,468.9936,-11.00639 F,2,139826,141026,1,0 S,3,139826,141026,0.1,0.02 P,0,139826,141026,A
Sprite,Foreground,Centre,"sb\circle.png",0,0 C,0,139999,,249,153,168 M,3,139999,141199,473,243,473,-7 F,2,139999,141199,1,0 S,3,139999,141199,0.1,0.02 P,0,139999,141199,A
Sprite,Foreground,Centre,"sb\circle.png",0,0 C,0,140344,,249,153,168 M,3,140344,141888,537,153,537,-97 F,2,140344,141888,1,0 S,3,140344,141888,0.1,0.02 P,0,140344,141888,A
Sprite,Foreground,Centre,"sb\circle.png",0,0 C,0,140860,,255,217,102 M,3,140860,142060,392,88,392,-162 F,2,140860,142060,1,0 S,3,140860,142060,0.1,0.02 P,0,140860,142060,A
Sprite,Foreground,Centre,"sb\circle.png",0,0 C,0,141204,,255,217,102 M,3,141204,142404,298.9936,146.9936,298.9936,-103.0064 F,2,141204,142404,1,0 S,3,141204,142404,0.1,0.02 P,0,141204,142404,A
Sprite,Foreground,Centre,"sb\circle.png",0,0 C,0,141377,,255,217,102 M,3,141377,142577,303,151,303,-99 F,2,141377,142577,1,0 S,3,141377,142577,0.1,0.02 P,0,141377,142577,A
Sprite,Foreground,Centre,"sb\circle.png",0,0 C,0,141722,,255,217,102 M,3,141722,143266,208,94,208,-156 F,2,141722,143266,1,0 S,3,141722,143266,0.1,0.02 P,0,141722,143266,A
Sprite,Foreground,Centre,"sb\circle.png",0,0 C,0,142239,,209,163,163 M,3,142239,143611,144,242,144,-8 F,2,142239,143611,1,0 S,3,142239,143611,0.1,0.02 P,0,142239,143611,A
Sprite,Foreground,Centre,"sb\circle.png",0,0 C,0,142584,,209,163,163 M,3,142584,144128,214,322,214,72 F,2,142584,144128,1,0 S,3,142584,144128,0.1,0.02 P,0,142584,144128,A
Sprite,Foreground,Centre,"sb\circle.png",0,0 C,0,143101,,209,163,163 M,3,143101,144301,358.9936,254.9936,358.9936,4.993607 F,2,143101,144301,1,0 S,3,143101,144301,0.1,0.02 P,0,143101,144301,A
Sprite,Foreground,Centre,"sb\circle.png",0,0 C,0,143274,,209,163,163 M,3,143274,144474,363,259,363,9 F,2,143274,144474,1,0 S,3,143274,144474,0.1,0.02 P,0,143274,144474,A
Sprite,Foreground,Centre,"sb\circle.png",0,0 C,0,143619,,183,250,133 M,3,143619,144991,451,324,451,74 F,2,143619,144991,1,0 S,3,143619,144991,0.1,0.02 P,0,143619,144991,A
Sprite,Foreground,Centre,"sb\circle.png",0,0 C,0,143964,,183,250,133 M,3,143964,145164,404.9936,422.9936,404.9936,172.9936 F,2,143964,145164,1,0 S,3,143964,145164,0.1,0.02 P,0,143964,145164,A
Sprite,Foreground,Centre,"sb\circle.png",0,0 C,0,144136,,183,250,133 M,3,144136,145680,409,427,409,177 F,2,144136,145680,1,0 S,3,144136,145680,0.1,0.02 P,0,144136,145680,A
Sprite,Foreground,Centre,"sb\circle.png",0,0 C,0,144653,,183,250,133 M,3,144653,145853,264,350,264,100 F,2,144653,145853,1,0 S,3,144653,145853,0.1,0.02 P,0,144653,145853,A
Sprite,Foreground,Centre,"sb\circle.png",0,0 C,0,144998,,183,250,133 M,3,144998,146542,173,286,173,36 F,2,144998,146542,1,0 S,3,144998,146542,0.1,0.02 P,0,144998,146542,A
Sprite,Foreground,Centre,"sb\circle.png",0,0 C,0,145515,,183,250,133 M,3,145515,146715,213.9936,248.9936,213.9936,-1.006393 F,2,145515,146715,1,0 S,3,145515,146715,0.1,0.02 P,0,145515,146715,A
Sprite,Foreground,Centre,"sb\circle.png",0,0 C,0,145688,,183,250,133 M,3,145688,147060,218,253,218,3 F,2,145688,147060,1,0 S,3,145688,147060,0.1,0.02 P,0,145688,147060,A
Sprite,Foreground,Centre,"sb\circle.png",0,0 C,0,146033,,183,250,133 M,3,146033,147405,165,160,165,-90 F,2,146033,147405,1,0 S,3,146033,147405,0.1,0.02 P,0,146033,147405,A
Sprite,Foreground,Centre,"sb\circle.png",0,0 C,0,146377,,249,153,168 M,3,146377,147577,221,72,221,-178 F,2,146377,147577,1,0 S,3,146377,147577,0.1,0.02 P,0,146377,147577,A
Sprite,Foreground,Centre,"sb\circle.png",0,0 C,0,146722,,249,153,168 M,3,146722,147922,308.9936,136.9936,308.9936,-113.0064 F,2,146722,147922,1,0 S,3,146722,147922,0.1,0.02 P,0,146722,147922,A
Sprite,Foreground,Centre,"sb\circle.png",0,0 C,0,146895,,249,153,168 M,3,146895,148439,313,141,313,-109 F,2,146895,148439,1,0 S,3,146895,148439,0.1,0.02 P,0,146895,148439,A
Sprite,Foreground,Centre,"sb\circle.png",0,0 C,0,147412,,249,153,168 M,3,147412,148612,463,80,463,-170 F,2,147412,148612,1,0 S,3,147412,148612,0.1,0.02 P,0,147412,148612,A
Sprite,Foreground,Centre,"sb\circle.png",0,0 C,0,147757,,255,217,102 M,3,147757,149129,550,146,550,-104 F,2,147757,149129,1,0 S,3,147757,149129,0.1,0.02 P,0,147757,149129,A
Sprite,Foreground,Centre,"sb\circle.png",0,0 C,0,148102,,255,217,102 M,3,148102,149646,512,248,512,-2 F,2,148102,149646,1,0 S,3,148102,149646,0.1,0.02 P,0,148102,149646,A
Sprite,Foreground,Centre,"sb\circle.png",0,0 C,0,148619,,255,217,102 M,3,148619,149819,367.9936,178.9936,367.9936,-71.00639 F,2,148619,149819,1,0 S,3,148619,149819,0.1,0.02 P,0,148619,149819,A
Sprite,Foreground,Centre,"sb\circle.png",0,0 C,0,148791,,255,217,102 M,3,148791,149991,372,183,372,-67 F,2,148791,149991,1,0 S,3,148791,149991,0.1,0.02 P,0,148791,149991,A
Sprite,Foreground,Centre,"sb\circle.png",0,0 C,0,149136,,209,163,163 M,3,149136,150508,289,255,289,5 F,2,149136,150508,1,0 S,3,149136,150508,0.1,0.02 P,0,149136,150508,A
Sprite,Foreground,Centre,"sb\circle.png",0,0 C,0,149481,,209,163,163 M,3,149481,150681,298.9936,360.9936,298.9936,110.9936 F,2,149481,150681,1,0 S,3,149481,150681,0.1,0.02 P,0,149481,150681,A
Sprite,Foreground,Centre,"sb\circle.png",0,0 C,0,149653,,209,163,163 M,3,149653,151197,303,365,303,115 F,2,149653,151197,1,0 S,3,149653,151197,0.1,0.02 P,0,149653,151197,A
Sprite,Foreground,Centre,"sb\circle.png",0,0 C,0,150170,,209,163,163 M,3,150170,151370,456,369,456,119 F,2,150170,151370,1,0 S,3,150170,151370,0.1,0.02 P,0,150170,151370,A
Sprite,Foreground,Centre,"sb\circle.png",0,0 C,0,150515,,209,163,163 M,3,150515,152059,512,274,512,24 F,2,150515,152059,1,0 S,3,150515,152059,0.1,0.02 P,0,150515,152059,A
Sprite,Foreground,Centre,"sb\circle.png",0,0 C,0,151032,,209,163,163 M,3,151032,152232,473.9936,232.9936,473.9936,-17.00639 F,2,151032,152232,1,0 S,3,151032,152232,0.1,0.02 P,0,151032,152232,A
Sprite,Foreground,Centre,"sb\circle.png",0,0 C,0,151205,,209,163,163 M,3,151205,152577,478,237,478,-13 F,2,151205,152577,1,0 S,3,151205,152577,0.1,0.02 P,0,151205,152577,A
Sprite,Foreground,Centre,"sb\circle.png",0,0 C,0,151550,,209,163,163 M,3,151550,152922,389,295,389,45 F,2,151550,152922,1,0 S,3,151550,152922,0.1,0.02 P,0,151550,152922,A
Sprite,Foreground,Centre,"sb\circle.png",0,0 C,0,151894,,183,250,133 M,3,151894,153094,300,237,300,-13 F,2,151894,153094,1,0 S,3,151894,153094,0.1,0.02 P,0,151894,153094,A
Sprite,Foreground,Centre,"sb\circle.png",0,0 C,0,152239,,183,250,133 M,3,152239,153439,201.9936,286.9936,201.9936,36.99359 F,2,152239,153439,1,0 S,3,152239,153439,0.1,0.02 P,0,152239,153439,A
Sprite,Foreground,Centre,"sb\circle.png",0,0 C,0,152412,,183,250,133 M,3,152412,153956,206,291,206,41 F,2,152412,153956,1,0 S,3,152412,153956,0.1,0.02 P,0,152412,153956,A
Sprite,Foreground,Centre,"sb\circle.png",0,0 C,0,152929,,183,250,133 M,3,152929,154129,270,424,270,174 F,2,152929,154129,1,0 S,3,152929,154129,0.1,0.02 P,0,152929,154129,A
Sprite,Foreground,Centre,"sb\circle.png",0,0 C,0,153274,,249,153,168 M,3,153274,154991,347,360,347,110 F,2,153274,154991,1,0 S,3,153274,154991,0.1,0.02 P,0,153274,154991,A
Sprite,Foreground,Centre,"sb\circle.png",0,0 C,0,153964,,249,153,168 M,3,153964,155508,531,433,531,183 F,2,153964,155508,1,0 S,3,153964,155508,0.1,0.02 P,0,153964,155508,A
Sprite,Foreground,Centre,"sb\credits_bm.png",0,0 F,0,167657,,0,1 S,0,167657,,0.4505 C,0,167657,,71,71,71 P,0,167657,,A M,0,167657,167757,-40,-250,60,207 R,0,167657,167757,-0.4,0 M,0,176722,177122,60,207,60,20 R,0,176722,177122,0,2 F,0,182929,,1,0
Sprite,Foreground,Centre,"sb\Credits_Ryxliee.png",0,0 F,0,167707,,0,1 S,0,167707,,0.3505 C,0,167707,,71,71,71 P,0,167707,,A M,0,167707,167807,-40,-250,150,255 R,0,167707,167807,-0.4,0 F,0,182929,,1,0
//Storyboard Layer 4 (Overlay)
//Storyboard Sound Samples

[TimingPoints]
171,344.827586206897,4,2,10,54,1,0
11205,-111.111111111111,4,2,1,66,0,0
11291,-111.111111111111,4,2,10,66,0,0
16722,-111.111111111111,4,2,1,66,0,0
16808,-111.111111111111,4,2,10,66,0,0
22239,-111.111111111111,4,2,1,66,0,0
22326,-111.111111111111,4,2,10,66,0,0
27757,-111.111111111111,4,2,1,66,0,0
27843,-111.111111111111,4,2,10,66,0,0
33274,-100,4,3,1,60,0,0
33360,-100,4,3,10,60,0,0
38791,-100,4,3,10,60,0,0
42929,-100,4,2,12,60,0,0
43619,-100,4,2,10,60,0,0
44308,-90.9090909090909,4,2,10,72,0,1
55343,-90.9090909090909,4,3,10,66,0,1
64998,-90.9090909090909,4,3,12,66,0,1
65860,-90.9090909090909,4,3,10,66,0,1
66377,-100,4,3,10,69,0,0
77412,-100,4,3,10,69,0,0
87067,-100,4,3,10,69,0,0
88446,-100,4,2,1,60,0,0
88533,-100,4,2,10,60,0,0
99481,-100,4,2,10,60,0,0
104826,-100,4,2,10,57,0,0
104998,-100,4,2,10,57,0,0
107757,-100,4,2,10,54,0,0
109136,-100,4,3,12,60,0,0
109998,-100,4,2,10,60,0,0
110515,-90.9090909090909,4,2,10,66,0,1
121550,-90.9090909090909,4,3,10,63,0,1
131205,-100,4,3,10,63,0,0
132584,-90.9090909090909,4,3,10,69,0,1
153274,-100,4,3,10,69,0,1
154653,-111.111111111111,4,2,10,60,0,0
165688,-111.111111111111,4,2,10,54,0,0
176722,-111.111111111111,4,2,1,54,0,0
180515,-100,4,2,10,54,0,0
180688,-100,4,2,10,54,0,0
180860,-100,4,2,10,54,0,0
181033,-100,4,2,10,54,0,0
181205,-100,4,2,10,54,0,0
181377,-100,4,2,10,54,0,0
181550,-100,4,2,10,54,0,0
181722,-100,4,2,10,54,0,0
181895,-100,4,2,10,54,0,0
182239,-100,4,2,10,5,0,0

[Colours]
Combo1 : 255,217,102
Combo2 : 209,163,163
Combo3 : 183,250,133
Combo4 : 249,153,168

[HitObjects]
256,192,5688,12,2,10515,0:2:0:0:
28,45,11205,6,0,P|78:56|128:70,1,89.999997253418,4|2,1:2|0:2,0:0:0:0:
150,94,11722,2,0,P|182:48|177:-3,2,89.999997253418,2|2|2,1:2|0:2|1:2,0:0:0:0:
120,128,12584,2,0,P|136:182|150:227,1,89.999997253418,0|2,1:2|0:2,0:0:0:0:
186,236,13102,1,2,0:2:0:0:
128,304,13446,1,2,0:2:0:0:
195,372,13791,5,2,0:2:0:0:
195,372,13964,2,0,B|268:355|238:321|309:304,1,134.999995880127,4|0,1:2|1:2,0:0:0:0:
355,319,14653,1,8,0:2:0:0:
355,319,14826,2,0,P|364:345|375:379,2,44.999998626709,2|2|2,0:2|0:2|1:2,0:0:0:0:
382,283,15343,1,2,1:2:0:0:
332,207,15688,1,2,0:2:0:0:
378,129,16033,2,0,P|423:142|502:161,1,89.999997253418,10|2,0:2|0:2,0:0:0:0:
509,230,16722,6,0,P|465:241|422:253,1,89.999997253418,4|2,1:2|0:2,0:0:0:0:
381,274,17239,2,0,P|382:328|424:367,2,89.999997253418,2|2|2,1:2|0:2|1:2,0:0:0:0:
358,234,18102,2,0,P|382:196|379:152,1,89.999997253418,0|2,1:2|0:2,0:0:0:0:
360,112,18619,1,2,0:2:0:0:
277,148,18963,1,2,0:2:0:0:
204,104,19308,5,2,0:2:0:0:
204,104,19481,2,0,B|131:121|161:155|90:172,1,134.999995880127,4|2,1:2|1:2,0:0:0:0:
50,167,20170,1,8,0:2:0:0:
50,167,20344,2,0,P|38:137|28:110,2,44.999998626709,2|2|2,0:2|0:2|1:2,0:0:0:0:
18,198,20861,1,2,1:2:0:0:
83,259,21206,1,2,0:2:0:0:
160,213,21550,2,0,P|144:167|123:103,1,89.999997253418,10|2,1:2|0:2,0:0:0:0:
151,40,22239,6,0,P|196:32|262:76,1,89.999997253418,4|2,1:2|0:2,0:0:0:0:
271,76,22757,1,0,1:2:0:0:
348,30,23102,1,2,0:2:0:0:
431,75,23446,5,2,1:2:0:0:
431,75,23619,2,0,P|417:122|402:189,1,89.999997253418,0|2,1:2|0:2,0:0:0:0:
350,231,24308,1,8,0:2:0:0:
350,231,24481,1,2,0:2:0:0:
412,303,24826,5,2,0:2:0:0:
412,303,24998,2,0,B|365:315|377:333|334:346,1,89.999997253418,4|2,1:2|0:2,0:0:0:0:
263,300,25688,1,8,0:2:0:0:
263,300,25860,2,0,P|249:327|249:352,2,44.999998626709,2|2|2,0:2|0:2|1:2,0:0:0:0:
290,264,26377,1,0,1:2:0:0:
353,199,26722,2,0,P|404:210|452:224,2,89.999997253418,2|10|2,0:2|1:2|0:2,0:0:0:0:
300,125,27757,6,0,P|250:142|189:161,1,89.999997253418,4|2,1:2|0:2,0:0:0:0:
181,184,28275,1,0,1:2:0:0:
103,138,28620,1,2,0:2:0:0:
35,196,28964,5,2,1:2:0:0:
35,196,29136,2,0,P|30:242|62:288,1,89.999997253418,0|2,1:2|0:2,0:0:0:0:
118,346,29826,1,8,0:2:0:0:
118,346,29999,1,2,0:2:0:0:
194,296,30344,5,2,0:2:0:0:
194,296,30515,2,0,B|241:308|229:326|271:339,1,89.999997253418,4|2,1:2|0:2,0:0:0:0:
354,299,31205,1,8,0:2:0:0:
354,299,31377,2,0,P|367:327|365:361,2,44.999998626709,2|2|2,0:2|0:2|1:2,0:0:0:0:
321,268,31894,1,0,1:2:0:0:
249,213,32239,2,0,P|253:168|281:133,2,89.999997253418,2|10|2,0:2|1:2|0:2,0:0:0:0:
320,268,33274,6,0,P|367:252|396:212,1,99.9999999999999,12|8,1:2|0:2,0:0:0:0:
442,188,33791,1,0,0:2:0:0:
442,188,33964,2,0,P|426:141|386:112,1,99.9999999999999,8|8,1:2|0:2,0:0:0:0:
336,25,34653,2,0,P|284:44|226:48,1,99.9999999999999,8|8,1:2|0:2,0:0:0:0:
213,91,35171,2,0,P|161:72|103:68,1,99.9999999999999,0|0,0:2|0:2,0:0:0:0:
81,31,35688,1,8,0:2:0:0:
7,98,36033,6,0,P|26:150|30:208,1,99.9999999999999,8|8,1:2|0:2,0:0:0:0:
73,221,36551,2,0,P|54:273|50:331,1,99.9999999999999,0|0,0:2|0:2,0:0:0:0:
22,359,37068,1,8,0:2:0:0:
120,373,37412,2,0,P|174:356|228:344,1,99.9999999999999,10|10,1:2|0:2,0:0:0:0:
246,306,37929,1,0,0:2:0:0:
246,306,38102,2,0,P|294:317|342:332,1,99.9999999999999,8|8,1:2|0:2,0:0:0:0:
373,237,38791,5,10,1:2:0:0:
373,237,38964,2,0,P|324:225|276:210,1,99.9999999999999,10|10,0:2|0:2,0:0:0:0:
247,169,39481,2,0,P|198:180|150:195,1,99.9999999999999,10|10,1:2|1:2,0:0:0:0:
82,122,40171,2,0,P|55:114|31:107,2,50,10|10|10,1:2|0:2|1:2,0:0:0:0:
117,86,40688,2,0,P|164:70|213:59,1,99.9999999999999,10|8,0:2|0:2,0:0:0:0:
261,46,41205,1,10,1:2:0:0:
340,106,41550,6,0,P|344:134|349:166,1,50,10|10,1:2|1:2,0:0:0:0:
305,183,41895,2,0,P|300:211|296:243,1,50,10|10,1:2|1:2,0:0:0:0:
330,270,42239,1,10,1:2:0:0:
254,336,42584,2,0,P|229:332|204:328,1,50,10|10,1:2|1:2,0:0:0:0:
158,348,42929,2,0,B|125:310|125:310|150:201,1,150,2|2,2:2|2:2,0:0:0:0:
107,182,43619,2,0,L|83:84,1,99.9999999999999,10|4,0:2|0:3,0:0:0:0:
190,60,44308,6,0,L|204:-1,2,55.0000016784668,6|2|2,1:2|0:0|0:2,0:0:0:0:
226,101,44826,1,2,1:2:0:0:
226,101,44998,2,0,P|278:76|340:118,1,110.000003356934,8|2,0:2|0:2,0:0:0:0:
411,160,45688,2,0,P|441:156|472:174,2,55.0000016784668,2|2|2,1:2|0:2|0:2,0:0:0:0:
370,196,46206,1,2,0:2:0:0:
370,196,46378,2,0,P|364:241|353:310,1,110.000003356934,8|2,0:2|0:2,0:0:0:0:
246,328,47067,6,0,L|254:389,2,55.0000016784668,2|2|2,1:2|0:2|0:2,0:0:0:0:
236,278,47584,1,2,1:2:0:0:
236,278,47757,2,0,B|191:283|191:283|174:272|174:272|129:276,1,110.000003356934,8|2,0:2|3:2,0:0:0:0:
75,285,48274,1,2,1:2:0:0:
75,285,48446,2,0,B|51:188|127:231|87:92,1,165.0000050354,6|2,1:2|1:2,0:0:0:0:
95,71,49136,2,0,P|180:64|216:161,1,165.0000050354,6|2,1:2|3:2,0:0:0:0:
248,171,49826,5,6,1:2:0:0:
248,171,49998,2,0,P|320:144|374:148,1,110.000003356934,2|2,0:2|1:2,0:0:0:0:
396,111,50515,1,10,0:2:0:0:
477,184,50860,1,2,0:2:0:0:
411,272,51205,2,0,P|421:302|429:344,2,55.0000016784668,2|2|2,1:2|0:2|0:2,0:0:0:0:
362,246,51722,2,0,B|244:270|316:331|182:340,1,165.0000050354,2|2,0:2|0:2,0:0:0:0:
118,322,52584,6,0,P|107:367|116:385,2,55.0000016784668,6|2|2,1:2|0:2|0:2,0:0:0:0:
150,278,53102,1,2,1:2:0:0:
150,278,53274,2,0,P|168:208|122:163,1,110.000003356934,10|2,0:2|3:2,0:0:0:0:
101,154,53791,1,2,1:2:0:0:
101,154,53964,2,0,B|55:87|55:87|120:6,1,165.0000050354,6|2,1:2|1:2,0:0:0:0:
160,9,54653,2,0,B|215:8|215:8|253:53|253:53|315:51,1,165.0000050354,6|2,1:2|3:2,0:0:0:0:
359,48,55343,5,14,1:2:0:0:
368,157,55688,1,10,0:2:0:0:
478,149,56033,1,8,0:2:0:0:
485,258,56377,1,10,0:2:0:0:
375,269,56722,2,0,L|382:339,1,55.0000016784668,10|2,1:2|0:2,0:0:0:0:
385,382,57067,1,10,0:2:0:0:
385,382,57239,2,0,L|239:357,1,110.000003356934,2|0,0:2|0:2,0:0:0:0:
222,352,57757,1,8,0:2:0:0:
240,244,58102,6,0,L|252:174,1,55.0000016784668,14|2,1:2|0:2,0:0:0:0:
261,139,58446,1,10,0:2:0:0:
261,139,58618,2,0,L|115:163,1,110.000003356934,2|2,1:2|0:2,0:0:0:0:
98,169,59136,1,10,0:2:0:0:
79,60,59481,2,0,L|241:33,1,165.0000050354,14|2,1:2|1:2,0:0:0:0:
296,25,60171,2,0,L|458:-1,1,165.0000050354,14|10,1:2|0:2,0:0:0:0:
470,52,60860,5,14,1:2:0:0:
470,52,61033,2,0,L|446:198,1,110.000003356934,10|10,0:2|0:2,0:0:0:0:
443,215,61550,1,10,1:2:0:0:
335,192,61895,1,10,1:2:0:0:
310,298,62239,2,0,L|240:286,1,55.0000016784668,14|10,1:2|0:2,0:0:0:0:
201,279,62584,1,10,1:2:0:0:
201,279,62757,2,0,L|177:133,1,110.000003356934,10|8,0:2|0:2,0:0:0:0:
174,116,63274,1,10,1:2:0:0:
153,7,63619,6,0,L|83:19,1,55.0000016784668,14|10,1:2|1:2,0:0:0:0:
44,26,63964,2,0,L|56:96,1,55.0000016784668,10|10,1:2|1:2,0:0:0:0:
64,133,64308,1,10,1:2:0:0:
174,116,64653,1,10,1:2:0:0:
192,224,64998,2,0,B|320:232|253:318|376:308,1,165.0000050354,0|0,0:2|0:2,0:0:0:0:
365,345,65688,2,0,P|418:344|449:302,1,110.000003356934,2|10,0:2|0:2,0:0:0:0:
432,202,66377,6,0,L|318:170,2,99.9999999999999,4|8|12,1:1|0:3|0:2,0:0:0:0:
510,139,67412,1,2,0:2:0:0:
469,47,67757,2,0,L|355:15,2,99.9999999999999,2|8|12,1:2|0:3|0:2,0:0:0:0:
430,243,69136,5,2,1:2:0:0:
365,319,69481,2,0,P|298:313|269:275,1,99.9999999999999,8|12,0:3|0:2,0:0:0:0:
136,150,70515,2,0,L|168:34,1,99.9999999999999,4|8,1:1|0:3,0:0:0:0:
199,19,71033,1,0,0:0:0:0:
199,19,71205,2,0,B|251:35|232:53|291:76,1,99.9999999999999,4|0,1:1|0:2,0:0:0:0:
355,140,71895,6,0,P|403:109|456:117,2,99.9999999999999,4|8|14,1:1|0:3|0:2,0:0:0:0:
310,229,72929,1,2,0:2:0:0:
391,286,73274,2,0,P|440:286|480:258,2,99.9999999999999,2|8|12,1:2|0:3|0:2,0:0:0:0:
270,126,74653,5,2,1:2:0:0:
201,52,74998,2,0,L|84:86,1,99.9999999999999,8|14,0:3|0:2,0:0:0:0:
6,254,76033,2,0,P|4:303|33:342,1,99.9999999999999,4|8,1:1|0:3,0:0:0:0:
80,371,76551,1,0,0:0:0:0:
80,371,76723,2,0,L|190:336,1,99.9999999999999,4|0,1:1|1:2,0:0:0:0:
255,281,77412,6,0,B|308:295|292:311|364:331,2,99.9999999999999,4|8|12,1:1|0:3|0:2,0:0:0:0:
183,210,78446,1,2,0:2:0:0:
111,140,78791,2,0,B|58:154|74:170|2:190,2,99.9999999999999,2|8|12,1:2|0:3|0:2,0:0:0:0:
280,33,80171,5,2,1:2:0:0:
361,91,80515,2,0,P|365:139|335:177,1,99.9999999999999,8|12,0:3|0:2,0:0:0:0:
164,282,81550,2,0,L|47:256,1,99.9999999999999,4|8,1:1|0:3,0:0:0:0:
29,235,82068,1,0,0:0:0:0:
29,235,82240,2,0,P|19:193|57:137,1,99.9999999999999,4|0,1:1|1:2,0:0:0:0:
133,98,82929,6,0,L|104:-12,2,99.9999999999999,4|8|14,1:1|0:3|0:2,0:0:0:0:
220,147,83964,1,2,0:2:0:0:
295,213,84308,2,0,L|269:309,2,99.9999999999999,2|8|12,1:2|0:3|0:2,0:0:0:0:
467,110,85688,5,2,1:2:0:0:
401,34,86033,2,0,B|349:47|356:63|306:79,1,99.9999999999999,8|14,0:3|0:2,0:0:0:0:
115,37,87067,2,0,L|144:141,1,99.9999999999999,2|0,1:2|0:0,0:0:0:0:
223,191,87757,2,0,L|194:295,1,99.9999999999999,2|2,1:2|1:2,0:0:0:0:
117,349,88446,5,4,1:2:0:0:
125,325,99481,5,4,1:2:0:0:
180,241,99826,2,0,B|286:253|246:312|332:310,1,150,2|2,1:2|1:2,0:0:0:0:
350,336,100515,2,0,P|379:327|410:324,1,50,2|2,1:2|0:2,0:0:0:0:
430,285,100860,1,0,1:2:0:0:
365,212,101205,2,0,P|390:137|407:58,1,150,2|2,0:2|0:2,0:0:0:0:
378,25,101895,2,0,P|350:18|321:6,1,50,2|2,1:2|1:2,0:0:0:0:
287,36,102239,1,0,1:2:0:0:
193,0,102584,6,0,B|155:37|155:37|181:138,1,150,2|2,0:2|0:2,0:0:0:0:
137,159,103274,2,0,L|121:224,1,50,2|2,1:2|1:2,0:0:0:0:
152,249,103619,1,0,1:2:0:0:
91,328,103964,2,0,L|42:316,2,50,2|2|10,0:2|1:2|0:2,0:0:0:0:
129,368,104481,1,2,0:2:0:0:
129,368,104653,2,0,L|177:356,1,50,0|10,0:2|1:2,0:0:0:0:
225,341,104998,1,10,1:2:0:0:
272,252,105343,6,0,P|311:279|359:269,1,99.9999999999999,10|8,1:2|0:2,0:0:0:0:
389,229,105860,1,10,1:2:0:0:
389,229,106033,2,0,P|381:199|377:154,1,50,10|10,1:2|0:2,0:0:0:0:
410,142,106377,1,8,1:2:0:0:
354,58,106722,2,0,B|315:47|315:47|306:32|306:32|265:19,1,99.9999999999999,10|8,0:2|0:2,0:0:0:0:
224,45,107239,1,10,0:2:0:0:
224,45,107412,2,0,P|232:75|236:120,1,50,10|10,1:2|1:2,0:0:0:0:
245,142,107757,1,8,3:2:0:0:
167,204,108102,6,0,L|116:194,1,50,10|8,3:2|1:2,0:0:0:0:
86,155,108446,2,0,L|36:164,1,50,8|10,3:2|3:2,0:0:0:0:
7,205,108791,2,0,L|16:254,1,50,10|10,3:2|3:2,0:0:0:0:
25,303,109136,2,0,B|123:287|123:287|159:323,1,150,2|2,0:2|0:2,0:0:0:0:
212,334,109826,2,0,L|197:383,2,50,2|10|10,0:2|0:2|0:2,0:0:0:0:
295,262,110515,6,0,L|356:276,2,55.0000016784668,4|0|0,1:2|0:0|0:2,0:0:0:0:
275,215,111033,1,0,1:2:0:0:
275,215,111205,2,0,L|158:240,1,110.000003356934,8|2,0:2|0:2,0:0:0:0:
79,304,111895,2,0,P|80:331|92:355,2,55.0000016784668,2|2|2,1:2|0:2|0:2,0:0:0:0:
42,270,112413,1,2,0:2:0:0:
42,270,112585,2,0,P|66:227|59:156,1,110.000003356934,8|2,0:2|0:2,0:0:0:0:
52,58,113274,6,0,L|-1:71,2,55.0000016784668,0|2|2,1:2|0:2|0:2,0:0:0:0:
93,21,113791,1,2,1:2:0:0:
93,21,113964,2,0,B|217:48,1,110.000003356934,8|2,0:2|3:2,0:0:0:0:
253,74,114481,1,2,1:2:0:0:
253,74,114653,2,0,B|276:58|280:28|280:28|302:138,1,165.0000050354,6|2,1:2|1:2,0:0:0:0:
349,163,115343,2,0,P|321:235|232:252,1,165.0000050354,6|2,1:2|3:2,0:0:0:0:
203,294,116033,5,6,1:2:0:0:
203,294,116205,2,0,P|157:278|81:261,1,110.000003356934,2|2,0:2|1:2,0:0:0:0:
43,251,116722,1,10,0:2:0:0:
111,164,117067,1,2,0:2:0:0:
53,69,117412,2,0,P|26:75|0:84,2,55.0000016784668,2|2|2,1:2|0:2|0:2,0:0:0:0:
91,29,117929,2,0,B|187:45|134:88|228:109,1,165.0000050354,2|2,0:2|3:2,0:0:0:0:
328,63,118791,6,0,P|322:35|313:-2,2,55.0000016784668,2|2|2,1:2|0:2|0:2,0:0:0:0:
373,103,119309,1,2,1:2:0:0:
373,103,119481,2,0,P|355:163|342:216,1,110.000003356934,10|2,0:2|3:2,0:0:0:0:
297,235,119998,1,2,1:2:0:0:
297,235,120171,2,0,P|322:319|409:334,1,165.0000050354,6|2,1:2|1:2,0:0:0:0:
442,351,120860,2,0,P|457:273|481:168,1,165.0000050354,6|2,1:2|3:2,0:0:0:0:
505,143,121550,5,10,1:2:0:0:
439,54,121895,1,8,0:2:0:0:
344,111,122240,1,8,0:2:0:0:
267,32,122584,1,10,0:2:0:0:
170,84,122929,2,0,L|189:158,1,55.0000016784668,10|2,1:2|0:2,0:0:0:0:
238,163,123274,1,10,0:2:0:0:
238,163,123446,2,0,L|213:309,1,110.000003356934,2|2,0:2|1:2,0:0:0:0:
179,310,123964,1,10,0:2:0:0:
260,384,124309,6,0,L|332:363,1,55.0000016784668,14|2,1:2|0:2,0:0:0:0:
335,321,124653,1,10,0:2:0:0:
335,321,124825,2,0,L|478:357,1,110.000003356934,2|2,1:2|0:2,0:0:0:0:
496,339,125343,1,10,0:2:0:0:
434,247,125688,2,0,P|399:183|428:99,1,165.0000050354,14|2,1:2|1:2,0:0:0:0:
477,78,126377,2,0,P|395:60|315:44,1,165.0000050354,14|2,1:2|0:2,0:0:0:0:
284,5,127067,5,14,1:2:0:0:
284,5,127240,2,0,L|155:42,1,110.000003356934,10|10,0:2|0:2,0:0:0:0:
151,83,127757,1,10,1:2:0:0:
59,21,128102,1,10,1:2:0:0:
2,115,128446,2,0,P|5:147|34:178,1,55.0000016784668,14|10,1:2|0:2,0:0:0:0:
40,221,128791,1,10,1:2:0:0:
40,221,128964,2,0,L|145:190,1,110.000003356934,10|8,0:2|0:2,0:0:0:0:
182,150,129481,1,10,1:2:0:0:
277,205,129826,6,0,P|273:232|259:255,1,55.0000016784668,14|10,1:2|1:2,0:0:0:0:
267,310,130171,2,0,P|241:320|214:319,1,55.0000016784668,10|10,1:2|1:2,0:0:0:0:
164,342,130515,1,10,1:2:0:0:
83,267,130860,1,10,1:2:0:0:
2,326,131205,1,2,1:2:0:0:
316,18,132584,6,0,P|353:25|394:65,1,55.0000016784668,4|0,1:1|1:2,0:0:0:0:
422,43,132929,2,0,P|403:103|384:189,1,110.000003356934,8|0,0:2|0:2,0:0:0:0:
342,173,133446,2,0,P|361:224|379:284,1,110.000003356934,8|2,0:2|0:2,0:0:0:0:
425,304,133964,1,2,1:2:0:0:
348,382,134308,1,10,0:2:0:0:
348,382,134481,1,2,1:2:0:0:
258,317,134826,2,0,B|197:331|220:346|152:363,1,110.000003356934,10|2,0:2|0:2,0:0:0:0:
106,384,135343,5,2,1:2:0:0:
24,318,135687,1,10,0:2:0:0:
24,318,135860,1,2,1:2:0:0:
94,233,136205,2,0,P|118:185|90:120,1,110.000003356934,10|2,0:2|0:2,0:0:0:0:
53,109,136722,6,0,P|61:83|75:41,1,55.0000016784668,2|2,1:2|1:2,0:0:0:0:
96,8,137067,2,0,B|157:22|134:37|202:54,1,110.000003356934,10|2,0:2|0:2,0:0:0:0:
250,34,137584,1,10,0:2:0:0:
250,34,137757,1,2,1:2:0:0:
320,118,138102,6,0,P|306:151|289:207,1,55.0000016784668,6|0,1:2|1:2,0:0:0:0:
247,187,138447,2,0,P|265:235|349:259,1,110.000003356934,8|2,0:2|0:2,0:0:0:0:
324,316,138964,2,0,P|374:324|437:263,1,110.000003356934,10|2,0:2|0:2,0:0:0:0:
472,271,139482,1,2,1:2:0:0:
409,187,139826,1,10,0:2:0:0:
409,187,139999,1,2,1:2:0:0:
473,97,140344,2,0,P|420:83|337:67,1,110.000003356934,8|2,0:2|0:2,0:0:0:0:
328,32,140860,5,2,1:2:0:0:
239,95,141204,1,10,0:2:0:0:
239,95,141377,1,2,1:2:0:0:
144,38,141722,2,0,P|128:93|114:160,1,110.000003356934,10|2,0:2|0:2,0:0:0:0:
80,186,142239,6,0,P|94:204|129:221,1,55.0000016784668,2|2,1:2|1:2,0:0:0:0:
150,266,142584,2,0,P|203:230|287:241,1,110.000003356934,10|2,0:2|0:2,0:0:0:0:
299,203,143101,1,10,0:2:0:0:
299,203,143274,1,2,1:2:0:0:
387,268,143619,6,0,P|377:298|367:329,1,55.0000016784668,4|2,1:1|1:2,0:0:0:0:
345,371,143964,1,8,0:2:0:0:
345,371,144136,2,0,B|284:357|307:342|239:325,1,110.000003356934,2|10,0:2|0:2,0:0:0:0:
200,294,144653,1,2,0:2:0:0:
109,230,144998,2,0,P|85:244|58:248,2,55.0000016784668,2|2|10,1:2|0:2|0:2,0:0:0:0:
154,197,145515,1,2,1:2:0:0:
154,197,145688,2,0,P|146:165|138:130,1,55.0000016784668,0|10,0:2|0:2,0:0:0:0:
101,104,146033,2,0,P|109:72|117:37,1,55.0000016784668,2|2,0:2|1:2,0:0:0:0:
157,16,146377,5,2,1:2:0:0:
249,85,146722,1,10,0:2:0:0:
249,85,146895,2,0,P|303:71|373:54,1,110.000003356934,2|10,1:2|0:2,0:0:0:0:
399,24,147412,1,2,0:2:0:0:
486,90,147757,6,0,P|479:125|433:166,1,55.0000016784668,2|2,1:2|1:2,0:0:0:0:
448,192,148102,2,0,P|394:178|324:161,1,110.000003356934,10|2,0:2|1:2,0:0:0:0:
308,127,148619,1,10,0:2:0:0:
308,127,148791,1,2,1:2:0:0:
225,199,149136,6,0,P|226:229|257:264,1,55.0000016784668,6|0,1:2|1:2,0:0:0:0:
239,309,149481,1,10,0:2:0:0:
239,309,149653,2,0,P|286:335|359:296,1,110.000003356934,2|10,0:2|0:2,0:0:0:0:
392,313,150170,1,2,0:2:0:0:
448,218,150515,2,0,P|476:221|504:242,2,55.0000016784668,2|2|10,1:2|0:2|0:2,0:0:0:0:
414,181,151032,1,2,1:2:0:0:
414,181,151205,2,0,P|384:190|362:197,1,55.0000016784668,0|8,0:2|0:2,0:0:0:0:
325,239,151550,2,0,P|295:230|273:223,1,55.0000016784668,2|2,1:2|1:2,0:0:0:0:
236,181,151894,5,2,1:2:0:0:
142,235,152239,1,10,0:2:0:0:
142,235,152412,2,0,P|137:296|188:339,1,110.000003356934,2|10,1:2|0:2,0:0:0:0:
206,368,152929,1,2,0:2:0:0:
283,304,153274,6,0,P|366:325|443:365,1,150,2|2,1:2|0:2,0:0:0:0:
467,377,153964,2,0,P|437:336|437:265,1,99.9999999999999,2|8,0:2|0:2,0:0:0:0:
490,220,154653,5,4,1:1:0:0:
501,130,154998,2,0,L|412:112,1,89.999997253418,2|8,0:2|0:2,0:0:0:0:
368,102,155515,2,0,L|375:57,2,44.999998626709,2|2|2,0:2|0:2|1:2,0:0:0:0:
359,146,156033,1,0,1:2:0:0:
334,232,156377,6,0,P|290:238|257:208,1,89.999997253418,2|8,0:2|0:2,0:0:0:0:
222,182,156895,2,0,P|198:193|175:198,2,44.999998626709,2|2|2,0:2|0:2|0:2,0:0:0:0:
244,142,157412,1,0,1:2:0:0:
233,52,157757,6,0,B|169:63|205:84|124:102,1,89.999997253418,2|8,0:2|0:2,0:0:0:0:
110,87,158274,2,0,L|117:42,2,44.999998626709,2|2|2,0:2|0:2|1:2,0:0:0:0:
76,117,158792,1,0,1:2:0:0:
3,170,159136,6,0,L|15:222,1,44.999998626709,2|2,0:2|0:2,0:0:0:0:
54,223,159481,2,0,L|42:275,1,44.999998626709,10|2,1:2|0:2,0:0:0:0:
13,300,159826,2,0,L|25:352,1,44.999998626709,2|2,0:2|0:2,0:0:0:0:
63,363,160171,5,4,1:2:0:0:
133,307,160515,2,0,P|189:319|241:341,1,89.999997253418,2|8,0:2|0:2,0:0:0:0:
264,337,161033,2,0,P|276:371|277:395,2,44.999998626709,2|2|2,0:2|0:2|1:2,0:0:0:0:
294,303,161550,1,0,1:2:0:0:
235,234,161895,6,0,B|212:192|212:192|242:143,1,89.999997253418,2|8,0:2|0:2,0:0:0:0:
266,124,162412,2,0,L|256:76,2,44.999998626709,2|2|2,0:2|0:2|0:2,0:0:0:0:
309,137,162929,1,4,1:2:0:0:
379,81,163274,6,0,P|425:96|444:145,1,89.999997253418,2|8,0:2|0:2,0:0:0:0:
469,167,163791,2,0,P|489:158|510:150,2,44.999998626709,2|2|2,0:2|0:2|1:2,0:0:0:0:
452,209,164308,1,0,1:2:0:0:
386,271,164653,6,0,P|365:262|344:254,1,44.999998626709,2|2,0:2|0:2,0:0:0:0:
313,223,164998,2,0,P|291:230|271:239,1,44.999998626709,10|2,1:2|0:2,0:0:0:0:
247,277,165343,2,0,P|226:268|205:260,1,44.999998626709,2|2,0:2|0:2,0:0:0:0:
181,222,165688,5,6,1:2:0:0:
90,231,166033,1,2,0:2:0:0:
90,231,166205,2,0,P|102:179|113:131,1,89.999997253418,2|2,0:2|0:2,0:0:0:0:
81,58,166895,5,0,1:2:0:0:
81,58,167067,1,2,1:2:0:0:
180,30,167412,1,2,0:2:0:0:
180,30,167584,2,0,B|238:48|214:67|260:76,1,89.999997253418,2|2,0:2|0:2,0:0:0:0:
301,59,168102,1,2,0:2:0:0:
370,110,168446,6,0,P|353:161|336:215,1,89.999997253418,6|2,1:2|0:2,0:0:0:0:
294,203,168964,2,0,P|311:254|328:308,1,89.999997253418,2|2,1:2|0:2,0:0:0:0:
406,341,169653,1,2,1:2:0:0:
406,341,169826,1,0,1:2:0:0:
464,267,170171,5,2,0:2:0:0:
464,267,170343,2,0,P|477:224|491:181,1,89.999997253418,2|2,0:2|0:2,0:0:0:0:
509,137,170860,1,2,0:2:0:0:
433,79,171205,6,0,P|384:59|323:91,1,89.999997253418,4|2,1:2|0:2,0:0:0:0:
324,108,171722,2,0,P|285:127|241:119,1,89.999997253418,2|2,1:2|0:2,0:0:0:0:
169,45,172412,5,0,1:2:0:0:
169,45,172584,1,2,1:2:0:0:
96,104,172929,1,2,0:2:0:0:
96,104,173102,2,0,B|122:130|122:130|100:218,1,89.999997253418,2|2,0:2|0:2,0:0:0:0:
73,212,173619,1,2,0:2:0:0:
104,301,173964,6,0,P|152:285|204:277,1,89.999997253418,6|0,1:2|0:2,0:0:0:0:
219,241,174481,1,0,1:2:0:0:
219,241,174653,2,0,P|267:257|319:265,1,89.999997253418,10|0,0:2|0:2,0:0:0:0:
380,321,175343,6,0,P|405:285|399:241,1,89.999997253418,2|0,1:2|0:2,0:0:0:0:
437,212,175860,1,2,0:2:0:0:
437,212,176033,2,0,P|429:169|394:142,1,89.999997253418,8|2,1:2|0:2,0:0:0:0:
304,171,176722,1,4,0:2:0:0:
256,192,177067,12,0,182239,0:0:0:0:
