osu file format v14

[General]
AudioFilename: audio.mp3
AudioLeadIn: 0
PreviewTime: 42929
Countdown: 0
SampleSet: Soft
StackLeniency: 0.7
Mode: 0
LetterboxInBreaks: 0
EpilepsyWarning: 1
WidescreenStoryboard: 1

[Editor]
Bookmarks: 11213,33282,44316,66385,88454,88627,88799,88972,89144,89316,89489,89661,89834,90006,90179,90351,90523,90696,90868,91041,91213,91385,91558,91730,91903,92075,92247,92420,92592,92765,92937,93110,93282,93454,93627,93799,93972,94144,94316,94489,94661,94834,95006,95179,95351,95523,95696,95868,96041,96213,96385,96558,96730,96903,97075,97247,97420,97592,97765,97937,98110,98282,98454,98627,98799,98972,99144,99316,99489,110523,132592,143627,154661,165696,176599
DistanceSpacing: 1.1
BeatDivisor: 4
GridSize: 32
TimelineZoom: 0.9000001

[Metadata]
Title:Froskya
TitleUnicode:Froskya
Artist:Shadren
ArtistUnicode:Shadren
Creator:Froskya
Version:Easy (feat. Shadren)
Source:Russian Community Beatmapping Contest #3
Tags:shadren ryxliee tachibana_ vitas2222 aphestra announcerf leominexd leomine baack jojajim revialink electronic instrumental future bass drum and dnb d n b d'n'b lo-fi lofi hip-hop hip hop breaks vocal vocals female japanese chops vibe featured artist fa osu! rbc beat mapping
BeatmapID:4155781
BeatmapSetID:1999098

[Difficulty]
HPDrainRate:2
CircleSize:3
OverallDifficulty:2
ApproachRate:3
SliderMultiplier:0.799999999999999
SliderTickRate:1

[Events]
//Background and Video events
0,0,"bg.png",0,0
//Break Periods
2,88646,98041
//Storyboard Layer 0 (Background)
//Storyboard Layer 1 (Fail)
//Storyboard Layer 2 (Pass)
//Storyboard Layer 3 (Foreground)
Sprite,Foreground,Centre,"sb\circle.png",0,0 C,0,132584,,209,163,163 M,3,132584,133784,474,131,474,-119 F,2,132584,133784,1,0 S,3,132584,133784,0.1,0.02 P,0,132584,133784,A
Sprite,Foreground,Centre,"sb\circle.png",0,0 C,0,132929,,209,163,163 M,3,132929,134646,424,203,424,-47 F,2,132929,134646,1,0 S,3,132929,134646,0.1,0.02 P,0,132929,134646,A
Sprite,Foreground,Centre,"sb\circle.png",0,0 C,0,133964,,209,163,163 M,3,133964,135164,363,411,363,161 F,2,133964,135164,1,0 S,3,133964,135164,0.1,0.02 P,0,133964,135164,A
Sprite,Foreground,Centre,"sb\circle.png",0,0 C,0,134308,,209,163,163 M,3,134308,136025,293,357,293,107 F,2,134308,136025,1,0 S,3,134308,136025,0.1,0.02 P,0,134308,136025,A
Sprite,Foreground,Centre,"sb\circle.png",0,0 C,0,135343,,209,163,163 M,3,135343,136543,107,207,107,-43 F,2,135343,136543,1,0 S,3,135343,136543,0.1,0.02 P,0,135343,136543,A
Sprite,Foreground,Centre,"sb\circle.png",0,0 C,0,135688,,209,163,163 M,3,135688,137405,156,134,156,-116 F,2,135688,137405,1,0 S,3,135688,137405,0.1,0.02 P,0,135688,137405,A
Sprite,Foreground,Centre,"sb\circle.png",0,0 C,0,136722,,183,250,133 M,3,136722,138266,375,78,375,-172 F,2,136722,138266,1,0 S,3,136722,138266,0.1,0.02 P,0,136722,138266,A
Sprite,Foreground,Centre,"sb\circle.png",0,0 C,0,137412,,183,250,133 M,3,137412,138956,327,210,327,-40 F,2,137412,138956,1,0 S,3,137412,138956,0.1,0.02 P,0,137412,138956,A
Sprite,Foreground,Centre,"sb\circle.png",0,0 C,0,138102,,249,153,168 M,3,138102,140681,374,342,374,92 F,2,138102,140681,1,0 S,3,138102,140681,0.1,0.02 P,0,138102,140681,A
Sprite,Foreground,Centre,"sb\circle.png",0,0 C,0,139826,,249,153,168 M,3,139826,141026,437,403,437,153 F,2,139826,141026,1,0 S,3,139826,141026,0.1,0.02 P,0,139826,141026,A
Sprite,Foreground,Centre,"sb\circle.png",0,0 C,0,140171,,249,153,168 M,3,140171,141715,512,357,512,107 F,2,140171,141715,1,0 S,3,140171,141715,0.1,0.02 P,0,140171,141715,A
Sprite,Foreground,Centre,"sb\circle.png",0,0 C,0,140860,,255,217,102 M,3,140860,142749,563,197,563,-53 F,2,140860,142749,1,0 S,3,140860,142749,0.1,0.02 P,0,140860,142749,A
Sprite,Foreground,Centre,"sb\circle.png",0,0 C,0,141895,,255,217,102 M,3,141895,143095,347,174,347,-76 F,2,141895,143095,1,0 S,3,141895,143095,0.1,0.02 P,0,141895,143095,A
Sprite,Foreground,Centre,"sb\circle.png",0,0 C,0,142239,,255,217,102 M,3,142239,143783,289,107,289,-143 F,2,142239,143783,1,0 S,3,142239,143783,0.1,0.02 P,0,142239,143783,A
Sprite,Foreground,Centre,"sb\circle.png",0,0 C,0,142929,,255,217,102 M,3,142929,144473,122,79,122,-171 F,2,142929,144473,1,0 S,3,142929,144473,0.1,0.02 P,0,142929,144473,A
Sprite,Foreground,Centre,"sb\circle.png",0,0 C,0,143619,,209,163,163 M,3,143619,145853,146,236,146,-14 F,2,143619,145853,1,0 S,3,143619,145853,0.1,0.02 P,0,143619,145853,A
Sprite,Foreground,Centre,"sb\circle.png",0,0 C,0,144998,,209,163,163 M,3,144998,146542,211,176,211,-74 F,2,144998,146542,1,0 S,3,144998,146542,0.1,0.02 P,0,144998,146542,A
Sprite,Foreground,Centre,"sb\circle.png",0,0 C,0,145688,,209,163,163 M,3,145688,147232,366,192,366,-58 F,2,145688,147232,1,0 S,3,145688,147232,0.1,0.02 P,0,145688,147232,A
Sprite,Foreground,Centre,"sb\circle.png",0,0 C,0,146377,,183,250,133 M,3,146377,147577,528,198,528,-52 F,2,146377,147577,1,0 S,3,146377,147577,0.1,0.02 P,0,146377,147577,A
Sprite,Foreground,Centre,"sb\circle.png",0,0 C,0,146722,,183,250,133 M,3,146722,148439,566,276,566,26 F,2,146722,148439,1,0 S,3,146722,148439,0.1,0.02 P,0,146722,148439,A
Sprite,Foreground,Centre,"sb\circle.png",0,0 C,0,147757,,183,250,133 M,3,147757,149301,430,422,430,172 F,2,147757,149301,1,0 S,3,147757,149301,0.1,0.02 P,0,147757,149301,A
Sprite,Foreground,Centre,"sb\circle.png",0,0 C,0,148446,,183,250,133 M,3,148446,149990,280,357,280,107 F,2,148446,149990,1,0 S,3,148446,149990,0.1,0.02 P,0,148446,149990,A
Sprite,Foreground,Centre,"sb\circle.png",0,0 C,0,149136,,249,153,168 M,3,149136,150336,122,335,122,85 F,2,149136,150336,1,0 S,3,149136,150336,0.1,0.02 P,0,149136,150336,A
Sprite,Foreground,Centre,"sb\circle.png",0,0 C,0,149481,,249,153,168 M,3,149481,151198,81,256,81,6 F,2,149481,151198,1,0 S,3,149481,151198,0.1,0.02 P,0,149481,151198,A
Sprite,Foreground,Centre,"sb\circle.png",0,0 C,0,150515,,249,153,168 M,3,150515,152749,221,99,221,-151 F,2,150515,152749,1,0 S,3,150515,152749,0.1,0.02 P,0,150515,152749,A
Sprite,Foreground,Centre,"sb\circle.png",0,0 C,0,151895,,255,217,102 M,3,151895,153095,249,182,249,-68 F,2,151895,153095,1,0 S,3,151895,153095,0.1,0.02 P,0,151895,153095,A
Sprite,Foreground,Centre,"sb\circle.png",0,0 C,0,152239,,255,217,102 M,3,152239,153956,298,254,298,4 F,2,152239,153956,1,0 S,3,152239,153956,0.1,0.02 P,0,152239,153956,A
Sprite,Foreground,Centre,"sb\circle.png",0,0 C,0,153274,,255,217,102 M,3,153274,154818,167,419,167,169 F,2,153274,154818,1,0 S,3,153274,154818,0.1,0.02 P,0,153274,154818,A
Sprite,Foreground,Centre,"sb\circle.png",0,0 C,0,153964,,255,217,102 M,3,153964,155508,70,326,70,76 F,2,153964,155508,1,0 S,3,153964,155508,0.1,0.02 P,0,153964,155508,A
Sprite,Foreground,Centre,"sb\credits_bm.png",0,0 F,0,167657,,0,1 S,0,167657,,0.4505 C,0,167657,,71,71,71 P,0,167657,,A M,0,167657,167757,-40,-250,60,207 R,0,167657,167757,-0.4,0 M,0,176722,177122,60,207,60,20 R,0,176722,177122,0,2 F,0,182929,,1,0
Sprite,Foreground,Centre,"sb\Credits_Shadren.png",0,0 F,0,167707,,0,1 S,0,167707,,0.3505 C,0,167707,,71,71,71 P,0,167707,,A M,0,167707,167807,-40,-250,150,255 R,0,167707,167807,-0.4,0 F,0,182929,,1,0
//Storyboard Layer 4 (Overlay)
//Storyboard Sound Samples

[TimingPoints]
171,344.827586206897,4,2,10,54,1,0
11205,-100,4,2,1,66,0,0
11291,-100,4,2,10,66,0,0
16722,-100,4,2,1,66,0,0
16808,-100,4,2,10,66,0,0
22239,-100,4,2,1,66,0,0
22326,-100,4,2,10,66,0,0
27757,-100,4,2,1,66,0,0
27843,-100,4,2,10,66,0,0
33274,-100,4,3,1,60,0,0
33360,-100,4,3,10,60,0,0
38791,-100,4,3,10,60,0,0
42929,-100,4,2,12,60,0,0
43619,-100,4,2,10,60,0,0
44308,-100,4,2,10,72,0,1
55343,-100,4,3,10,66,0,1
64998,-100,4,3,12,66,0,1
65860,-100,4,3,10,66,0,1
66377,-100,4,3,10,69,0,0
77412,-100,4,3,10,69,0,0
87067,-100,4,3,10,69,0,0
88446,-100,4,2,1,60,0,0
88533,-100,4,2,10,60,0,0
99481,-100,4,2,10,60,0,0
104826,-100,4,2,10,57,0,0
104998,-100,4,2,10,57,0,0
107757,-100,4,2,10,54,0,0
109136,-100,4,3,12,60,0,0
109998,-100,4,2,10,60,0,0
110515,-100,4,2,10,66,0,1
121550,-100,4,3,10,63,0,1
131205,-100,4,3,10,63,0,0
132584,-100,4,3,10,69,0,1
153274,-100,4,3,10,69,0,1
154653,-100,4,2,10,60,0,0
165688,-100,4,2,10,54,0,0
176722,-100,4,2,1,54,0,0
180515,-100,4,2,10,54,0,0
180688,-100,4,2,10,54,0,0
180860,-100,4,2,10,54,0,0
181033,-100,4,2,10,54,0,0
181205,-100,4,2,10,54,0,0
181377,-100,4,2,10,54,0,0
181550,-100,4,2,10,54,0,0
181895,-100,4,2,10,54,0,0
182239,-100,4,2,10,5,0,0

[Colours]
Combo1 : 255,217,102
Combo2 : 209,163,163
Combo3 : 183,250,133
Combo4 : 249,153,168

[HitObjects]
256,192,5688,12,2,9826,3:2:0:0:
42,286,11205,6,0,B|151:256|103:301|218:281,1,160,4|8,1:2|0:2,0:0:0:0:
272,235,12239,1,2,0:2:0:0:
315,158,12584,2,0,P|298:81|205:38,1,160,0|8,1:2|0:2,0:0:0:0:
85,136,13964,6,0,B|78:188|78:188|98:298,1,160,4|8,1:2|0:2,0:0:0:0:
167,346,14998,1,2,0:2:0:0:
245,307,15343,2,0,P|287:294|328:298,1,79.9999999999999,2|2,1:2|0:2,0:0:0:0:
395,345,16033,2,0,P|435:360|483:356,1,79.9999999999999,10|2,0:2|0:2,0:0:0:0:
447,274,16722,6,0,B|423:238|439:192|439:192|462:142|438:100,1,160,4|8,1:2|0:2,0:0:0:0:
383,57,17757,1,2,0:2:0:0:
297,37,18102,2,0,B|206:22|246:67|125:51,1,160,0|8,1:2|0:2,0:0:0:0:
37,195,19481,6,0,P|84:247|181:213,1,160,4|8,1:2|0:2,0:0:0:0:
218,161,20515,1,2,0:2:0:0:
296,120,20860,2,0,P|336:124|385:137,1,79.9999999999999,2|2,1:2|0:2,0:0:0:0:
435,196,21550,2,0,B|441:237|441:237|433:284,1,79.9999999999999,10|2,1:2|0:2,0:0:0:0:
397,354,22239,6,0,P|313:344|237:338,1,160,4|8,1:2|0:2,0:0:0:0:
155,370,23274,1,0,0:2:0:0:
84,317,23619,2,0,P|44:323|4:330,2,79.9999999999999,0|2|8,1:2|0:2|0:2,0:0:0:0:
135,245,24653,1,0,0:0:0:0:
204,304,24998,6,0,B|240:292|287:306|287:306|329:318|374:301,2,160,4|8|0,1:2|0:2|1:2,0:0:0:0:
135,245,26722,2,0,P|140:192|158:138,1,79.9999999999999,2|10,0:2|1:2,0:0:0:0:
302,83,27757,6,0,P|297:39|285:0,2,79.9999999999999,4|2|8,1:2|0:2|0:2,0:0:0:0:
282,167,28791,1,0,0:2:0:0:
206,211,29136,2,0,L|37:198,1,160,0|8,1:2|0:2,0:0:0:0:
2,275,30171,1,0,0:0:0:0:
46,350,30515,6,0,B|89:363|89:363|214:341,1,160,4|8,1:2|0:2,0:0:0:0:
278,298,31550,1,2,0:2:0:0:
295,211,31895,2,0,P|302:155|307:129,1,79.9999999999999,0|2,1:2|0:2,0:0:0:0:
242,71,32584,1,10,1:2:0:0:
106,179,33274,6,0,B|114:239|114:239|105:296|105:296|115:349,1,160,12|8,1:2|1:2,0:0:0:0:
197,361,34308,1,8,0:2:0:0:
275,321,34653,2,0,L|365:322,1,79.9999999999999,8|8,1:2|0:2,0:0:0:0:
388,240,35343,2,0,L|308:239,1,79.9999999999999,8|8,1:2|0:2,0:0:0:0:
256,167,36033,6,0,P|283:81|351:62,1,160,8|8,1:2|1:2,0:0:0:0:
426,89,37067,1,8,0:2:0:0:
475,161,37412,2,0,P|473:196|464:265,2,79.9999999999999,10|10|8,1:2|0:2|1:2,0:0:0:0:
426,89,38446,1,8,0:2:0:0:
338,97,38791,6,0,B|299:104|299:104|259:94,1,79.9999999999999,10|8,1:2|1:2,0:0:0:0:
174,73,39481,2,0,B|134:63|134:63|95:70,1,79.9999999999999,10|10,1:2|1:2,0:0:0:0:
42,140,40171,2,0,P|31:180|30:224,1,79.9999999999999,10|10,1:2|1:2,0:0:0:0:
109,254,40860,2,0,P|120:286|128:349,1,79.9999999999999,8|10,1:2|1:2,0:0:0:0:
211,358,41550,6,0,P|250:365|290:366,1,79.9999999999999,10|10,1:2|1:2,0:0:0:0:
374,342,42239,1,10,1:2:0:0:
434,277,42584,1,10,1:2:0:0:
446,189,42929,2,0,P|427:103|365:70,1,160,2|10,2:2|0:2,0:0:0:0:
191,55,44308,5,6,1:2:0:0:
129,117,44653,1,2,0:2:0:0:
49,78,44998,1,8,0:2:0:0:
93,248,45688,5,2,1:2:0:0:
173,209,46033,1,2,0:2:0:0:
235,271,46378,1,8,0:2:0:0:
403,320,47067,5,2,1:2:0:0:
364,240,47412,1,2,0:2:0:0:
426,178,47757,1,8,0:2:0:0:
263,109,48446,6,0,P|211:116|160:125,1,79.9999999999999,6|2,1:2|3:2,0:0:0:0:
170,33,49136,2,0,P|209:26|249:21,1,79.9999999999999,6|2,1:2|3:2,0:0:0:0:
336,11,49826,6,0,P|372:81|462:75,1,160,6|10,1:2|0:2,0:0:0:0:
487,256,51205,2,0,P|413:226|333:215,1,160,2|8,1:2|0:2,0:0:0:0:
166,268,52584,2,0,B|127:224|127:224|137:185|149:125,1,160,6|10,1:2|0:2,0:0:0:0:
320,139,53964,6,0,P|336:181|330:224,1,79.9999999999999,6|2,1:2|3:2,0:0:0:0:
259,264,54653,2,0,P|243:306|249:349,1,79.9999999999999,6|2,1:2|3:2,0:0:0:0:
323,382,55343,6,0,P|358:364|398:361,2,79.9999999999999,14|10|8,1:2|0:2|0:2,0:0:0:0:
231,231,56722,2,0,P|167:210|129:216,2,79.9999999999999,10|10|8,1:2|0:2|0:2,0:0:0:0:
347,98,58102,2,0,P|382:80|422:77,2,79.9999999999999,14|10|8,1:2|0:2|0:2,0:0:0:0:
320,272,59481,6,0,P|372:265|423:256,1,79.9999999999999,14|10,1:2|0:2,0:0:0:0:
413,348,60171,2,0,P|373:354|333:359,1,79.9999999999999,14|10,1:2|0:2,0:0:0:0:
256,192,60860,12,0,64998,0:2:0:0:
163,115,66377,6,0,B|145:162|145:162|162:280,1,160,4|12,1:1|0:2,0:0:0:0:
316,353,67757,2,0,B|334:306|334:306|317:188,1,160,2|12,1:2|0:2,0:0:0:0:
188,78,69136,2,0,L|16:69,1,160,2|12,1:2|0:2,0:0:0:0:
13,245,70515,6,0,L|19:335,1,79.9999999999999,4|8,1:1|0:3,0:0:0:0:
104,342,71205,2,0,L|98:252,1,79.9999999999999,4|0,1:1|0:2,0:0:0:0:
159,198,71895,6,0,B|247:227|226:174|331:202,1,160,4|14,1:1|0:2,0:0:0:0:
398,229,72929,1,2,0:2:0:0:
468,176,73274,2,0,P|474:130|474:88,2,79.9999999999999,2|8|12,1:2|0:3|0:2,0:0:0:0:
344,301,74653,6,0,B|296:318|296:318|176:293,1,160,2|14,1:2|0:2,0:0:0:0:
48,189,76033,2,0,P|49:138|61:87,1,79.9999999999999,4|8,1:1|0:3,0:0:0:0:
126,59,76722,2,0,P|165:60|215:71,1,79.9999999999999,4|0,1:1|1:2,0:0:0:0:
271,126,77412,6,0,P|328:184|420:170,1,160,4|12,1:1|0:2,0:0:0:0:
466,121,78446,1,2,0:2:0:0:
501,201,78791,2,0,B|506:243|506:243|479:361,1,160,2|12,1:2|0:2,0:0:0:0:
393,376,79826,1,0,0:2:0:0:
309,347,80171,2,0,L|208:353,2,79.9999999999999,2|8|12,1:2|0:3|0:2,0:0:0:0:
381,186,81550,6,0,P|390:136|388:92,1,79.9999999999999,4|8,1:1|0:3,0:0:0:0:
328,43,82239,2,0,P|286:35|221:35,1,79.9999999999999,4|0,1:1|1:2,0:0:0:0:
184,94,82929,2,0,B|141:113|101:96|101:96|51:78|19:98,1,160,4|14,1:1|0:2,0:0:0:0:
60,175,83964,1,2,0:2:0:0:
92,256,84308,2,0,P|90:295|80:343,2,79.9999999999999,2|8|12,1:2|0:3|0:2,0:0:0:0:
198,115,85688,6,0,B|247:110|247:110|306:122|306:122|371:111,1,160,2|14,1:2|0:2,0:0:0:0:
493,223,87067,2,0,P|495:261|485:316,1,79.9999999999999,2|0,1:2|0:0,0:0:0:0:
411,345,87757,2,0,P|361:327|309:320,1,79.9999999999999,2|2,1:2|1:2,0:0:0:0:
247,333,88446,5,4,1:2:0:0:
247,333,99481,5,4,1:2:0:0:
184,270,99826,2,0,P|130:297|53:301,2,120,2|2|0,1:2|1:2|1:2,0:0:0:0:
206,184,101205,2,0,P|179:130|175:53,2,120,2|2|0,0:2|0:2|1:2,0:0:0:0:
267,247,102584,2,0,P|321:274|398:278,2,120,2|2|0,0:2|0:2|1:2,0:0:0:0:
206,184,103964,2,0,P|244:160|284:164,2,79.9999999999999,2|10|0,0:2|0:2|0:2,0:0:0:0:
184,270,104998,5,10,1:2:0:0:
119,210,105343,2,0,L|-16:223,2,120,10|10|8,1:2|1:2|1:2,0:0:0:0:
177,144,106722,2,0,L|312:131,2,120,10|10|8,0:2|0:2|3:2,0:0:0:0:
134,66,108102,2,0,L|-1:79,2,120,10|10|2,3:2|3:2|0:2,0:0:0:0:
413,65,110515,6,0,B|428:109|428:109|411:234,1,160,4|8,1:2|0:2,0:0:0:0:
360,292,111550,1,2,0:2:0:0:
274,271,111895,2,0,B|217:267|217:267|164:280|164:280|99:273,1,160,2|8,1:2|0:2,0:0:0:0:
62,205,112929,1,2,0:2:0:0:
37,120,113274,6,0,B|27:38,2,79.9999999999999,0|2|8,1:2|0:2|0:2,0:0:0:0:
211,141,114653,2,0,L|205:220,1,79.9999999999999,6|2,1:2|3:2,0:0:0:0:
124,253,115343,2,0,L|130:351,1,79.9999999999999,6|2,1:2|3:2,0:0:0:0:
215,351,116033,6,0,B|258:359|258:359|377:334,1,160,6|10,1:2|0:2,0:0:0:0:
435,274,117067,1,2,0:2:0:0:
422,186,117412,2,0,P|426:142|440:99,2,79.9999999999999,2|2|8,1:2|0:2|0:2,0:0:0:0:
435,274,118446,1,2,3:2:0:0:
373,337,118791,6,0,P|293:325|200:322,1,160,2|10,1:2|0:2,0:0:0:0:
129,348,119826,1,2,3:2:0:0:
75,278,120171,2,0,B|67:234|67:234|74:183,1,79.9999999999999,6|2,1:2|3:2,0:0:0:0:
131,134,120860,2,0,B|135:99|135:99|127:55,1,79.9999999999999,6|2,1:2|3:2,0:0:0:0:
211,26,121550,6,0,L|302:21,2,79.9999999999999,10|8|8,1:2|0:2|0:2,0:0:0:0:
127,55,122584,1,10,0:2:0:0:
57,109,122929,2,0,P|46:153|42:212,1,79.9999999999999,10|10,1:2|0:2,0:0:0:0:
114,238,123619,2,0,P|123:272|126:327,1,79.9999999999999,10|10,0:2|0:2,0:0:0:0:
202,360,124308,6,0,B|299:372|263:331|370:352,1,160,14|8,1:2|0:2,0:0:0:0:
446,367,125343,1,10,0:2:0:0:
485,288,125688,2,0,L|472:187,1,79.9999999999999,14|10,1:2|0:2,0:0:0:0:
404,155,126377,2,0,L|413:47,1,79.9999999999999,14|10,1:2|0:2,0:0:0:0:
256,192,127067,12,2,131205,1:2:0:0:
410,75,132584,5,4,1:1:0:0:
360,147,132929,2,0,P|381:191|390:294,1,120,8|8,0:2|0:2,0:0:0:0:
299,355,133964,1,2,1:2:0:0:
229,301,134308,2,0,B|182:289|182:289|167:271|167:271|111:257,1,120,10|10,0:2|0:2,0:0:0:0:
43,151,135343,1,2,1:2:0:0:
92,78,135688,2,0,P|142:106|198:89,1,120,10|10,0:2|0:2,0:0:0:0:
311,22,136722,6,0,P|330:56|329:95,1,79.9999999999999,2|10,1:2|0:2,0:0:0:0:
263,154,137412,2,0,P|243:188|244:227,1,79.9999999999999,2|2,0:2|1:2,0:0:0:0:
310,286,138102,6,0,P|257:270|195:352,2,160,6|2|2,1:2|0:2|1:2,0:0:0:0:
373,347,139826,1,10,0:2:0:0:
448,301,140171,2,0,P|455:262|474:207,1,79.9999999999999,0|2,0:2|0:2,0:0:0:0:
499,141,140860,6,0,B|402:137|446:82|329:68,1,160,2|2,1:2|0:2,0:0:0:0:
283,118,141895,1,2,0:2:0:0:
225,51,142239,2,0,L|126:33,1,79.9999999999999,2|10,1:2|0:2,0:0:0:0:
58,23,142929,2,0,L|43:101,1,79.9999999999999,2|2,0:2|1:2,0:0:0:0:
82,180,143619,6,0,B|92:221|92:221|81:304,2,120,4|2|2,1:1|0:2|0:2,0:0:0:0:
147,120,144998,2,0,P|204:99|234:98,1,79.9999999999999,2|10,1:2|0:2,0:0:0:0:
302,136,145688,2,0,P|349:155|392:160,1,79.9999999999999,0|2,0:2|0:2,0:0:0:0:
464,142,146377,5,2,1:2:0:0:
502,220,146722,2,0,B|487:259|487:259|496:345,1,120,10|10,0:2|0:2,0:0:0:0:
366,366,147757,2,0,P|324:357|284:354,1,79.9999999999999,2|10,1:2|0:2,0:0:0:0:
216,301,148446,2,0,P|179:311|122:318,1,79.9999999999999,2|2,1:2|1:2,0:0:0:0:
58,279,149136,5,6,1:2:0:0:
17,200,149481,2,0,B|13:161|13:161|31:82,1,120,10|10,0:2|0:2,0:0:0:0:
157,43,150515,2,0,B|229:29|211:62|276:51,2,120,2|2|2,1:2|1:2|1:2,0:0:0:0:
185,126,151895,5,2,1:2:0:0:
234,198,152239,2,0,B|241:238|241:238|222:343,1,120,10|10,0:2|0:2,0:0:0:0:
103,363,153274,2,0,L|14:357,1,79.9999999999999,2|8,1:2|0:2,0:0:0:0:
6,270,153964,2,0,L|85:275,1,79.9999999999999,2|8,0:2|0:2,0:0:0:0:
102,188,154653,6,0,P|158:139|229:171,1,160,4|8,1:1|0:2,0:0:0:0:
314,324,156033,2,0,P|382:355|440:306,1,160,0|8,1:2|0:2,0:0:0:0:
510,143,157412,2,0,P|453:167|405:176,1,79.9999999999999,0|2,1:2|0:2,0:0:0:0:
379,239,158102,1,8,0:2:0:0:
228,170,158791,2,0,B|161:193|161:193|144:222|144:222|79:248,1,160,0|10,1:2|1:2,0:0:0:0:
79,155,159826,1,2,0:2:0:0:
73,67,160171,6,0,L|232:20,1,160,4|8,1:2|0:2,0:0:0:0:
245,197,161550,2,0,L|86:244,1,160,0|8,1:2|0:2,0:0:0:0:
248,321,162929,2,0,P|286:318|322:289,1,79.9999999999999,4|2,1:2|0:2,0:0:0:0:
392,245,163619,1,8,0:2:0:0:
332,89,164308,2,0,P|258:110|195:66,1,160,0|10,1:2|1:2,0:0:0:0:
106,70,165343,1,2,0:2:0:0:
61,145,165688,6,0,P|116:198|96:274,1,160,6|8,1:2|0:2,0:0:0:0:
255,348,167067,2,0,P|293:335|348:334,1,79.9999999999999,2|2,1:2|0:2,0:0:0:0:
394,268,167757,2,0,P|432:282|483:287,1,79.9999999999999,8|2,0:2|0:2,0:0:0:0:
509,207,168446,6,0,P|491:113|489:40,1,160,6|8,1:2|0:2,0:0:0:0:
406,16,169481,1,2,0:2:0:0:
331,57,169826,2,0,P|292:58|240:39,1,79.9999999999999,0|2,1:2|0:2,0:0:0:0:
189,107,170515,2,0,P|148:107|96:122,1,79.9999999999999,8|2,0:2|0:2,0:0:0:0:
37,169,171205,6,0,B|72:203|72:203|69:259|53:331,1,160,4|8,1:2|0:2,0:0:0:0:
230,331,172584,2,0,P|229:291|238:237,1,79.9999999999999,2|2,1:2|0:2,0:0:0:0:
175,185,173274,2,0,P|186:146|188:101,1,79.9999999999999,8|2,0:2|0:2,0:0:0:0:
235,32,173964,6,0,B|331:37|289:90|388:96,1,160,6|10,1:2|0:2,0:0:0:0:
458,62,174998,1,0,0:2:0:0:
498,140,175343,2,0,L|504:226,1,79.9999999999999,2|0,1:2|0:2,0:0:0:0:
419,243,176033,2,0,L|425:323,1,79.9999999999999,8|2,1:2|0:2,0:0:0:0:
339,342,176722,1,4,0:2:0:0:
256,192,177412,12,0,182239,0:0:0:0:
