osu file format v14

[General]
AudioFilename: audio.mp3
AudioLeadIn: 0
PreviewTime: 24106
Countdown: 1
SampleSet: Soft
StackLeniency: 0.7
Mode: 0
LetterboxInBreaks: 0
WidescreenStoryboard: 1

[Editor]
Bookmarks: 15200,22700,32075,47075,53168
DistanceSpacing: 0.8
BeatDivisor: 4
GridSize: 4
TimelineZoom: 1

[Metadata]
Title:Bassboosted
TitleUnicode:Bassboosted
Artist:Shadren
ArtistUnicode:Shadren
Creator:Flashtop
Version:Ensi's Normal
Source:
Tags:progressive house flashtop _ensi_ asuka_- shadren celektus
BeatmapID:1359679
BeatmapSetID:641126

[Difficulty]
HPDrainRate:4
CircleSize:3
OverallDifficulty:2
ApproachRate:5
SliderMultiplier:1.4
SliderTickRate:2

[Events]
//Background and Video events
0,0,"orange.jpg",0,0
//Break Periods
//Storyboard Layer 0 (Background)
//Storyboard Layer 1 (Fail)
//Storyboard Layer 2 (Pass)
//Storyboard Layer 3 (Foreground)
//Storyboard Sound Samples

[TimingPoints]
200,468.75,4,2,1,60,1,0
7700,-100,4,3,1,60,0,0
22700,-100,4,1,1,60,0,0
24575,-100,4,3,1,60,0,1
39575,-100,4,2,1,60,0,0
54575,-100,4,2,1,60,0,0
56450,-100,4,2,1,5,0,0

[HitObjects]
67,315,200,5,2,0:2:0:0:
177,329,668,2,0,P|164:260|112:212,1,140,0|2,0:2|0:2,0:0:0:0:
13,168,1606,2,0,P|56:118|134:101,1,140,0|2,0:2|0:2,0:0:0:0:
222,157,2543,2,0,P|274:148|307:108,1,70,0|0,0:2|0:2,0:0:0:0:
329,102,3012,2,0,P|397:92|459:122,2,140,2|2|2,0:2|0:2|0:2,0:0:0:0:
379,202,4418,6,0,P|389:278|406:353,1,140,0|2,0:2|0:2,0:0:0:0:
305,283,5356,2,0,P|233:317|176:299,1,140,0|2,0:2|0:2,0:0:0:0:
79,247,6293,2,0,P|83:212|89:177,1,70,0|0,0:2|0:2,0:0:0:0:
129,138,6762,2,0,P|66:168|-1:158,2,140,2|2|6,0:2|0:2|1:1,0:0:0:0:
194,69,8168,5,8,3:1:0:0:
250,69,8403,1,0,3:1:0:0:
297,39,8637,1,2,1:1:0:0:
403,72,9106,1,8,0:1:0:0:
459,72,9340,1,0,0:1:0:0:
506,102,9575,5,2,1:1:0:0:
441,193,10043,2,0,B|428:239|428:239|449:357,1,140,8|2,0:1|1:1,0:0:0:0:
394,303,10746,1,0,0:1:0:0:
338,288,10981,2,0,P|303:281|269:281,1,70,10|0,0:1|0:1,0:0:0:0:
224,314,11450,5,2,1:1:0:0:
121,269,11918,2,0,P|127:303|131:338,2,70,8|0|2,0:1|0:1|1:1,0:0:0:0:
25,212,12856,2,0,P|29:177|35:142,2,70,8|0|2,0:1|0:1|1:1,0:0:0:0:
125,162,13793,2,0,P|116:88|104:15,1,140,8|2,0:1|1:1,0:0:0:0:
155,45,14496,1,0,0:1:0:0:
206,66,14731,2,0,P|240:62|275:56,1,70,10|0,0:1|0:1,0:0:0:0:
321,24,15200,5,2,1:1:0:0:
411,75,15668,1,8,0:1:0:0:
408,131,15903,1,0,0:1:0:0:
406,186,16137,1,2,1:1:0:0:
298,216,16606,1,8,0:1:0:0:
301,271,16841,1,0,0:1:0:0:
303,327,17075,5,2,1:1:0:0:
217,254,17543,2,0,P|145:249|89:298,2,140,8|10|10,0:1|0:2|0:1,0:0:0:0:
303,327,18950,5,2,1:1:0:0:
305,215,19418,2,0,P|309:180|315:145,2,70,8|0|2,0:1|0:1|1:1,0:0:0:0:
215,146,20356,2,0,P|211:111|205:76,2,70,8|0|2,0:1|0:1|1:1,0:0:0:0:
165,246,21293,2,0,B|87:264|110:198|8:222,2,140,8|2|10,0:1|1:1|0:1,0:0:0:0:
277,238,22700,1,0,1:1:0:0:
263,261,24575,5,6,1:0:0:0:
335,345,25043,1,8,0:1:0:0:
382,315,25277,1,2,0:3:0:0:
438,315,25512,1,2,1:0:0:0:
365,229,25981,1,8,0:1:0:0:
365,173,26215,1,2,0:3:0:0:
378,118,26450,5,2,1:1:0:0:
304,33,26918,2,0,P|236:54|158:23,2,140,8|2|10,0:1|1:0|1:0,0:0:0:0:
275,141,28325,5,2,1:1:0:0:
214,234,28793,1,8,0:1:0:0:
158,241,29028,1,2,0:3:0:0:
103,253,29262,1,2,1:1:0:0:
58,135,29731,1,8,0:1:0:0:
113,143,29966,1,2,0:3:0:0:
168,144,30200,5,2,1:1:0:0:
275,141,30668,2,0,P|245:204|255:271,2,140,8|2|10,0:1|1:0|0:1,0:0:0:0:
380,101,32075,5,2,1:1:0:0:
439,195,32543,2,0,P|445:229|449:264,2,70,8|2|2,0:1|0:3|1:1,0:0:0:0:
361,276,33481,2,0,P|356:310|352:345,2,70,8|2|2,0:1|0:3|1:1,0:0:0:0:
252,308,34418,2,0,P|258:342|262:377,2,70,8|2|2,0:1|0:3|1:0,0:0:0:0:
216,264,35121,1,2,0:3:0:0:
173,226,35356,2,0,P|138:229|103:236,1,70,10|2,0:1|0:3,0:0:0:0:
49,250,35825,5,2,1:1:0:0:
42,138,36293,2,0,P|37:103|33:68,2,70,8|2|2,0:1|0:3|1:1,0:0:0:0:
153,125,37231,2,0,P|150:159|144:194,2,70,8|2|2,0:1|0:3|1:1,0:0:0:0:
265,124,38168,2,0,P|260:89|256:54,2,70,8|2|2,0:1|0:3|1:1,0:0:0:0:
278,178,38871,1,2,0:3:0:0:
315,220,39106,2,0,P|349:215|384:211,1,70,10|2,0:1|0:3,0:0:0:0:
439,199,39575,5,6,0:2:0:0:
501,291,40043,2,0,B|452:310|452:310|356:298,1,140,0|2,0:0|0:2,0:0:0:0:
254,279,40981,1,0,0:0:0:0:
198,279,41215,1,0,0:0:0:0:
143,292,41450,5,2,0:2:0:0:
34,266,41918,2,0,P|25:196|10:128,2,140,0|2|2,0:0|0:2|0:2,0:0:0:0:
116,192,43325,5,2,0:2:0:0:
204,264,43793,2,0,P|213:194|228:126,1,140,0|2,0:0|0:2,0:0:0:0:
340,116,44731,1,0,0:0:0:0:
344,171,44965,1,0,0:0:0:0:
352,228,45200,5,2,0:2:0:0:
371,343,45668,2,0,P|439:328|508:319,2,140,0|2|2,0:0|0:2|0:2,0:0:0:0:
260,324,47075,5,2,0:2:0:0:
166,261,47543,1,0,0:0:0:0:
110,261,47778,1,0,0:0:0:0:
63,291,48012,1,2,0:2:0:0:
77,179,48481,1,0,0:0:0:0:
77,123,48715,1,0,0:0:0:0:
64,68,48950,5,2,0:2:0:0:
169,106,49418,2,0,P|237:121|306:129,2,140,0|2|2,0:0|0:2|0:2,0:0:0:0:
259,39,50825,5,2,0:2:0:0:
370,32,51293,2,0,P|366:66|363:101,2,70,0|0|2,0:0|0:0|0:2,0:0:0:0:
453,107,52231,2,0,P|458:141|461:176,2,70,0|0|2,0:0|0:0|0:2,0:0:0:0:
376,189,53168,2,0,B|324:176|315:236|238:221,2,140,0|2|0,0:0|0:2|0:0,0:0:0:0:
440,280,54575,5,6,0:2:0:0:
256,192,54809,12,0,56450,0:0:0:0:
