osu file format v14

[General]
AudioFilename: audio.mp3
AudioLeadIn: 0
PreviewTime: 24106
Countdown: 1
SampleSet: Normal
StackLeniency: 0.7
Mode: 0
LetterboxInBreaks: 0
WidescreenStoryboard: 1

[Editor]
Bookmarks: 7700,15200,22700,32075,47075,53168
DistanceSpacing: 1.1
BeatDivisor: 4
GridSize: 4
TimelineZoom: 1

[Metadata]
Title:Bassboosted
TitleUnicode:Bassboosted
Artist:Shadren
ArtistUnicode:Shadren
Creator:Flashtop
Version:Asuka_-'s Advanced
Source:
Tags:progressive house flashtop _ensi_ asuka_- shadren celektus
BeatmapID:1361318
BeatmapSetID:641126

[Difficulty]
HPDrainRate:5
CircleSize:3.5
OverallDifficulty:4
ApproachRate:5.5
SliderMultiplier:1.5
SliderTickRate:1

[Events]
//Background and Video events
0,0,"orange.jpg",0,0
//Break Periods
//Storyboard Layer 0 (Background)
//Storyboard Layer 1 (Fail)
//Storyboard Layer 2 (Pass)
//Storyboard Layer 3 (Foreground)
//Storyboard Sound Samples

[TimingPoints]
200,468.75,4,1,1,60,1,0
24575,-100,4,1,1,60,0,1
39575,-100,4,1,1,60,0,0
54575,-100,4,1,1,20,0,0
56450,-100,4,1,1,5,0,0

[HitObjects]
0,341,200,5,2,0:2:0:0:
136,249,668,2,0,P|132:210|118:149,2,75,0|0|2,0:2|0:2|0:2,0:0:0:0:
293,301,1606,2,0,P|284:336|276:375,2,75,0|0|2,0:2|0:2|0:2,0:0:0:0:
443,232,2543,2,0,P|439:188|430:145,1,75,0|0,0:2|0:2,0:0:0:0:
387,88,3012,1,2,0:2:0:0:
310,118,3246,1,0,0:2:0:0:
243,68,3481,2,0,P|213:64|154:62,1,75,2|0,0:2|0:2,0:0:0:0:
101,110,3950,5,2,0:2:0:0:
27,257,4418,2,0,P|20:296|17:337,2,75,0|0|2,0:2|0:2|0:2,0:0:0:0:
190,232,5356,2,0,P|184:196|174:150,2,75,0|0|2,0:2|0:2|0:2,0:0:0:0:
303,352,6293,2,0,P|309:306|318:257,1,75,0|0,0:2|0:2,0:0:0:0:
376,223,6762,1,2,0:2:0:0:
318,164,6996,1,0,0:2:0:0:
390,124,7231,2,0,P|396:90|394:41,1,75,2|0,0:2|0:2,0:0:0:0:
325,5,7700,5,6,1:1:0:0:
218,130,8168,2,0,P|183:141|137:143,1,75,8|0,3:1|3:1,0:0:0:0:
66,118,8637,1,2,1:1:0:0:
47,282,9106,2,0,P|82:293|128:295,1,75,8|0,0:1|0:1,0:0:0:0:
199,272,9575,1,2,1:1:0:0:
339,357,10043,2,0,P|346:319|357:277,1,75,8|0,0:1|0:1,0:0:0:0:
406,218,10512,1,2,1:1:0:0:
423,137,10746,1,0,0:1:0:0:
392,59,10981,1,10,0:1:0:0:
315,29,11215,1,0,0:1:0:0:
233,43,11450,5,2,1:1:0:0:
105,147,11918,2,0,P|108:191|114:241,1,75,8|0,0:1|0:1,0:0:0:0:
143,297,12387,1,2,1:1:0:0:
306,275,12856,2,0,P|310:241|312:183,1,75,8|0,0:1|0:1,0:0:0:0:
282,123,13325,1,2,1:1:0:0:
424,39,13793,2,0,P|425:85|432:142,1,75,8|0,0:1|0:1,0:0:0:0:
456,191,14262,1,2,1:1:0:0:
470,272,14496,1,0,0:1:0:0:
429,344,14731,1,10,0:1:0:0:
348,363,14965,1,0,0:1:0:0:
272,329,15200,5,2,1:1:0:0:
179,192,15668,2,0,P|185:152|197:102,1,75,8|0,0:1|0:1,0:0:0:0:
252,60,16137,1,2,1:1:0:0:
405,120,16606,2,0,P|415:166|420:216,1,75,8|0,0:1|0:1,0:0:0:0:
387,270,17075,1,2,1:1:0:0:
245,354,17543,2,0,P|205:355|154:348,1,75,8|8,0:1|0:2,0:0:0:0:
94,318,18012,1,10,0:2:0:0:
33,262,18246,1,8,0:2:0:0:
10,182,18481,1,10,0:1:0:0:
26,101,18715,1,0,0:1:0:0:
68,30,18950,5,2,1:1:0:0:
183,146,19418,2,0,P|217:155|279:148,1,75,8|0,0:1|0:1,0:0:0:0:
329,115,19887,1,2,1:1:0:0:
461,16,20356,2,0,P|452:64|448:121,1,75,8|0,0:1|0:1,0:0:0:0:
483,165,20825,1,2,1:1:0:0:
456,327,21293,2,0,P|409:320|373:316,1,75,8|0,0:1|0:1,0:0:0:0:
299,304,21762,1,2,1:1:0:0:
223,338,21996,1,0,0:1:0:0:
142,356,22231,1,10,0:1:0:0:
62,333,22465,1,0,0:1:0:0:
14,265,22700,5,0,1:1:0:0:
159,188,23168,1,0,1:1:0:0:
74,46,23637,2,0,P|38:51|-9:64,2,75,0|0|0,1:1|1:1|1:1,0:0:0:0:
156,54,24340,1,0,1:1:0:0:
237,68,24575,6,0,P|275:70|332:62,1,75,6|2,1:0|0:3,0:0:0:0:
384,27,25043,2,0,P|424:30|468:40,1,75,8|2,0:1|0:3,0:0:0:0:
509,102,25512,2,0,P|506:143|492:195,1,75,2|2,1:0|0:3,0:0:0:0:
436,230,25981,2,0,P|388:228|340:214,1,75,8|2,0:1|0:3,0:0:0:0:
291,179,26450,2,0,P|250:179|209:190,1,75,2|2,1:1|0:3,0:0:0:0:
157,243,26918,2,0,P|106:243|61:233,1,75,8|2,0:1|0:3,0:0:0:0:
11,197,27387,1,2,1:0:0:0:
0,112,27621,1,2,0:3:0:0:
37,38,27856,1,10,1:0:0:0:
116,15,28090,1,2,0:3:0:0:
198,22,28325,6,0,P|245:26|288:40,1,75,2|2,1:1|0:3,0:0:0:0:
337,83,28793,2,0,P|346:131|344:177,1,75,8|2,0:1|0:3,0:0:0:0:
289,217,29262,2,0,P|281:263|280:299,1,75,2|2,1:1|0:3,0:0:0:0:
338,349,29731,2,0,P|377:348|417:346,1,75,8|2,0:1|0:3,0:0:0:0:
484,305,30200,2,0,P|491:262|494:222,1,75,2|2,1:1|0:3,0:0:0:0:
481,149,30668,2,0,P|472:103|457:67,1,75,8|2,0:1|0:3,0:0:0:0:
394,29,31137,1,2,1:0:0:0:
311,22,31371,1,2,0:3:0:0:
246,74,31606,1,10,0:1:0:0:
229,154,31840,1,2,0:3:0:0:
264,228,32075,6,0,P|305:242|357:243,1,75,2|2,1:1|0:3,0:0:0:0:
418,238,32543,2,0,P|425:204|430:151,1,75,8|2,0:1|0:3,0:0:0:0:
417,82,33012,2,0,P|370:75|326:74,1,75,2|2,1:1|0:3,0:0:0:0:
271,116,33481,2,0,P|232:124|171:126,1,75,8|2,0:1|0:3,0:0:0:0:
139,67,33950,2,0,P|108:60|64:60,1,75,2|2,1:1|0:3,0:0:0:0:
11,122,34418,2,0,P|3:167|-1:216,1,75,8|2,0:1|0:3,0:0:0:0:
13,277,34887,1,2,1:0:0:0:
61,343,35121,1,2,0:3:0:0:
140,365,35356,1,10,0:1:0:0:
218,340,35590,1,2,0:3:0:0:
278,283,35825,6,0,P|289:246|297:197,1,75,2|2,1:1|0:3,0:0:0:0:
241,147,36293,2,0,P|234:111|232:53,1,75,8|2,0:1|0:3,0:0:0:0:
296,22,36762,2,0,P|332:14|383:9,1,75,2|2,1:1|0:3,0:0:0:0:
448,34,37231,2,0,P|459:74|466:120,1,75,8|2,0:1|0:3,0:0:0:0:
475,189,37700,2,0,P|463:244|448:288,1,75,2|2,1:1|0:3,0:0:0:0:
407,327,38168,2,0,P|366:339|315:341,1,75,8|2,0:1|0:3,0:0:0:0:
252,330,38637,1,2,1:1:0:0:
182,285,38871,1,2,0:3:0:0:
154,205,39106,1,10,0:1:0:0:
175,125,39340,1,2,0:3:0:0:
235,68,39575,5,6,0:2:0:0:
359,176,40043,2,0,P|394:182|462:182,1,75,0|0,0:0|0:0,0:0:0:0:
502,137,40512,1,2,0:2:0:0:
502,302,40981,2,0,P|463:314|429:319,1,75,0|0,0:0|0:0,0:0:0:0:
354,283,41450,1,2,0:2:0:0:
219,378,41918,2,0,P|215:336|205:290,1,75,0|0,0:0|0:0,0:0:0:0:
149,245,42387,2,0,P|149:198|157:145,1,75,2|0,0:2|0:0,0:0:0:0:
202,105,42856,1,2,0:2:0:0:
283,93,43090,1,0,0:0:0:0:
353,136,43325,5,2,0:2:0:0:
370,299,43793,2,0,P|333:296|292:290,1,75,0|0,0:0|0:0,0:0:0:0:
232,237,44262,1,2,0:2:0:0:
115,354,44731,2,0,P|114:310|105:257,1,75,0|0,0:0|0:0,0:0:0:0:
65,209,45200,1,2,0:2:0:0:
122,54,45668,2,0,P|158:48|214:45,1,75,0|0,0:0|0:0,0:0:0:0:
278,38,46137,2,0,P|290:89|287:129,1,75,2|0,0:2|0:0,0:0:0:0:
281,193,46606,1,2,0:2:0:0:
229,257,46840,1,0,0:0:0:0:
146,253,47075,5,2,0:2:0:0:
18,148,47543,2,0,P|15:109|9:71,2,75,0|0|2,0:0|0:0|0:2,0:0:0:0:
146,253,48481,2,0,P|142:290|134:340,2,75,0|0|2,0:0|0:0|0:2,0:0:0:0:
304,208,49418,2,0,P|309:168|315:123,1,75,0|0,0:0|0:0,0:0:0:0:
352,60,49887,1,2,0:2:0:0:
429,31,50121,1,0,0:0:0:0:
505,62,50356,2,0,P|511:111|509:153,1,75,2|0,0:2|0:0,0:0:0:0:
468,208,50825,5,2,0:2:0:0:
326,292,51293,2,0,P|318:333|310:391,2,75,0|0|2,0:0|0:0|0:2,0:0:0:0:
177,222,52231,2,0,P|181:184|188:147,2,75,0|0|2,0:0|0:0|0:2,0:0:0:0:
50,328,53168,2,0,P|43:290|38:245,1,75,0|0,0:0|0:0,0:0:0:0:
39,171,53637,1,2,0:2:0:0:
65,92,53871,1,0,0:0:0:0:
123,34,54106,2,0,P|167:24|215:33,1,75,2|0,0:2|0:0,0:0:0:0:
266,70,54575,5,6,0:2:0:0:
256,192,54809,12,0,56450,0:0:0:0:
