osu file format v14

[General]
AudioFilename: audio.mp3
AudioLeadIn: 0
PreviewTime: 24106
Countdown: 1
SampleSet: None
StackLeniency: 0.7
Mode: 0
LetterboxInBreaks: 0
WidescreenStoryboard: 0

[Editor]
DistanceSpacing: 1.6
BeatDivisor: 4
GridSize: 32
TimelineZoom: 2.1

[Metadata]
Title:Bassboosted
TitleUnicode:Bassboosted
Artist:Shadren
ArtistUnicode:Shadren
Creator:Flashtop
Version:808
Source:
Tags:progressive house flashtop _ensi_ asuka_- shadren celektus
BeatmapID:1359598
BeatmapSetID:641126

[Difficulty]
HPDrainRate:7
CircleSize:4
OverallDifficulty:7.7
ApproachRate:8.2
SliderMultiplier:1.8
SliderTickRate:1

[Events]
//Background and Video events
0,0,"orange.jpg",0,0
//Break Periods
//Storyboard Layer 0 (Background)
//Storyboard Layer 1 (Fail)
//Storyboard Layer 2 (Pass)
//Storyboard Layer 3 (Foreground)
//Storyboard Sound Samples

[TimingPoints]
200,468.75,4,2,1,60,1,0
7700,-100,4,3,1,60,0,0
22700,-100,4,1,1,60,0,0
24575,-83.3333333333333,4,3,1,60,0,1
39575,-100,4,2,1,60,0,0
54575,-100,4,2,1,60,0,0
56450,-100,4,2,1,5,0,0

[HitObjects]
109,133,200,5,2,0:2:0:0:
176,318,668,2,0,P|222:315|272:304,1,90,0|0,0:2|0:2,0:2:0:0:
350,256,1137,1,2,0:2:0:0:
368,239,1606,2,0,P|364:192|351:138,1,90,0|0,0:2|0:2,0:2:0:0:
212,89,2075,5,2,0:2:0:0:
105,255,2543,2,0,P|93:303|90:356,1,90,0|0,0:2|0:2,0:2:0:0:
239,291,3012,2,0,P|235:244|226:196,1,90,2|0,0:2|0:2,0:2:0:0:
64,131,3481,1,2,0:2:0:0:
120,234,3715,1,0,0:2:0:0:
199,47,3950,5,2,0:2:0:0:
224,34,4418,2,0,P|269:36|313:43,1,90,0|0,0:2|0:2,0:2:0:0:
395,99,4887,1,2,0:2:0:0:
413,117,5356,2,0,P|409:168|404:224,1,90,0|0,0:2|0:2,0:2:0:0:
336,334,5825,5,2,0:2:0:0:
159,245,6293,2,0,P|108:248|61:258,1,90,0|0,0:2|0:2,0:2:0:0:
227,164,6762,2,0,P|266:173|319:177,1,90,2|0,0:2|0:2,0:2:0:0:
475,121,7231,1,2,0:2:0:0:
360,62,7465,1,0,0:2:0:0:
437,207,7700,6,0,P|446:260|447:318,1,90,6|0,1:1|3:1,0:1:0:0:
304,221,8168,2,0,P|306:174|312:123,1,90,8|0,3:1|3:1,0:1:0:0:
164,60,8637,2,0,P|174:104|176:172,1,90,2|0,1:1|3:1,0:1:0:0:
137,285,9106,1,8,0:1:0:0:
34,219,9340,1,0,0:1:0:0:
26,193,9457,1,0,0:1:0:0:
18,168,9575,6,0,P|25:120|45:78,1,90,2|0,1:1|0:1,0:1:0:0:
192,60,10043,2,0,P|219:97|235:155,1,90,8|0,0:1|0:1,0:1:0:0:
179,310,10512,1,2,1:1:0:0:
119,179,10746,1,0,0:1:0:0:
298,264,10981,1,10,0:1:0:0:
233,138,11215,1,0,0:1:0:0:
233,138,11332,1,0,0:1:0:0:
233,138,11450,6,0,P|243:80|262:44,1,90,2|0,1:1|0:1,0:1:0:0:
101,6,11918,2,0,P|118:47|124:91,1,90,2|0,1:1|0:1,0:1:0:0:
53,227,12387,2,0,P|56:273|62:329,1,90,2|0,1:1|0:1,0:1:0:0:
189,367,12856,1,8,0:1:0:0:
292,310,13090,1,0,0:1:0:0:
310,294,13207,1,0,0:1:0:0:
328,278,13325,6,0,P|326:229|314:168,1,90,2|0,1:1|0:1,0:1:0:0:
237,52,13793,1,8,0:1:0:0:
383,100,14028,1,0,0:1:0:0:
219,171,14262,1,2,1:1:0:0:
407,219,14496,1,0,0:1:0:0:
232,316,14731,1,10,0:1:0:0:
391,357,14965,1,0,0:1:0:0:
391,357,15082,1,0,0:1:0:0:
391,357,15200,6,0,P|441:360|502:335,1,90,2|0,1:1|0:1,0:1:0:0:
511,205,15668,2,0,P|506:155|490:100,1,90,8|0,0:1|0:1,0:1:0:0:
350,109,16137,2,0,P|304:114|257:122,1,90,2|0,1:1|0:1,0:1:0:0:
102,34,16606,2,0,P|146:42|201:45,1,90,8|0,0:1|0:1,0:1:0:0:
214,36,16957,1,0,0:1:0:0:
242,24,17075,6,0,P|289:15|345:17,1,90,2|0,1:1|0:1,0:1:0:0:
437,142,17543,1,8,0:1:0:0:
350,109,17778,1,8,0:2:0:0:
512,83,18012,1,10,0:2:0:0:
426,227,18246,1,8,0:2:0:0:
487,354,18481,1,10,0:1:0:0:
346,331,18715,1,0,0:1:0:0:
322,324,18832,1,0,0:1:0:0:
297,319,18950,6,0,P|247:315|198:317,1,90,2|0,1:1|0:1,0:1:0:0:
48,270,19418,2,0,P|95:268|154:254,1,90,8|0,0:1|0:1,0:1:0:0:
197,180,19887,2,0,B|199:135|199:135|187:83,1,90,2|0,1:1|0:1,0:1:0:0:
318,28,20356,2,0,B|307:71|307:71|310:118,1,90,8|0,0:1|0:1,0:1:0:0:
324,143,20707,1,0,0:1:0:0:
340,163,20825,6,0,P|393:152|444:150,1,90,2|0,1:1|0:1,0:1:0:0:
499,218,21293,1,8,0:1:0:0:
438,296,21528,1,0,0:1:0:0:
342,269,21762,2,0,P|286:280|244:297,1,90,2|0,1:1|0:1,0:1:0:0:
188,364,22231,1,10,0:1:0:0:
96,325,22465,1,0,0:1:0:0:
205,187,22700,5,0,1:1:0:0:
399,151,23168,1,0,1:1:0:0:
240,31,23637,2,0,P|186:37|149:49,1,90,0|0,1:1|1:1,1:1:0:0:
69,102,24106,2,0,L|73:153,3,45,0|0|0|0,1:1|1:1|1:1|1:1,1:1:0:0:
139,192,24575,6,0,P|152:240|156:307,1,107.999996704102,6|2,1:0|0:3,0:0:0:0:
150,325,24926,1,2,0:3:0:0:
142,353,25043,2,0,P|201:335|259:335,1,107.999996704102,8|2,0:1|0:3,0:0:0:0:
330,354,25512,2,0,P|377:358|443:354,1,107.999996704102,2|2,1:0|0:3,0:0:0:0:
461,341,25864,1,2,0:3:0:0:
478,323,25981,2,0,P|483:272|477:211,1,107.999996704102,8|2,0:1|0:3,0:0:0:0:
386,187,26450,6,0,P|381:140|381:74,1,107.999996704102,2|2,1:1|0:3,0:0:0:0:
381,56,26801,1,2,0:3:0:0:
389,31,26918,2,0,L|271:28,1,107.999996704102,8|2,0:1|0:3,0:0:0:0:
136,88,27387,1,2,1:0:0:0:
196,0,27621,1,2,0:3:0:0:
11,113,27856,1,10,1:0:0:0:
222,156,28090,1,2,0:3:0:0:
52,226,28325,6,0,P|41:275|41:340,1,107.999996704102,2|2,1:1|0:3,0:0:0:0:
59,348,28676,1,2,0:3:0:0:
82,364,28793,2,0,P|125:362|190:342,1,107.999996704102,8|2,0:1|0:3,0:0:0:0:
248,291,29262,2,0,B|299:293|357:306,1,107.999996704102,2|2,1:1|0:3,0:0:0:0:
373,320,29614,1,2,0:3:0:0:
396,332,29731,2,0,P|446:327|505:308,1,107.999996704102,8|2,0:1|0:3,0:0:0:0:
512,203,30200,6,0,P|507:153|489:98,1,107.999996704102,2|2,1:1|0:3,0:0:0:0:
467,79,30551,1,2,0:3:0:0:
443,66,30668,2,0,P|388:72|332:93,1,107.999996704102,8|2,0:1|0:3,0:0:0:0:
235,187,31137,1,2,1:0:0:0:
249,80,31371,1,2,0:3:0:0:
325,282,31606,1,10,0:1:0:0:
121,209,31840,1,2,0:3:0:0:
329,150,32075,6,0,P|375:143|436:142,1,107.999996704102,2|2,1:1|0:3,0:0:0:0:
454,158,32426,1,2,0:3:0:0:
469,175,32543,2,0,P|477:225|481:286,1,107.999996704102,8|2,0:1|0:3,0:0:0:0:
346,380,33012,2,0,P|350:326|366:263,1,107.999996704102,2|2,1:1|0:3,0:0:0:0:
375,249,33364,1,2,0:3:0:0:
392,227,33481,2,0,L|281:218,1,107.999996704102,8|2,0:1|0:3,0:0:0:0:
96,205,33950,6,0,P|148:196|204:173,1,107.999996704102,2|2,1:1|0:3,0:0:0:0:
224,159,34301,1,2,0:3:0:0:
249,141,34418,2,0,P|256:86|254:26,1,107.999996704102,8|2,0:1|0:3,0:0:0:0:
156,45,34887,1,2,1:0:0:0:
338,102,35121,1,2,0:3:0:0:
173,165,35356,1,10,0:1:0:0:
319,221,35590,1,2,0:3:0:0:
177,322,35825,6,0,P|122:330|69:331,1,107.999996704102,2|2,1:1|0:3,0:0:0:0:
40,319,36176,1,2,0:3:0:0:
15,305,36293,2,0,B|11:258|11:258|21:195,1,107.999996704102,8|2,0:1|0:3,0:0:0:0:
117,180,36762,2,0,B|122:137|122:137|113:67,1,107.999996704102,2|2,1:1|0:3,0:0:0:0:
95,52,37114,1,2,0:3:0:0:
77,31,37231,2,0,P|128:25|186:28,1,107.999996704102,8|2,0:1|0:3,0:0:0:0:
272,81,37700,6,0,P|317:87|384:82,1,107.999996704102,2|2,1:1|0:3,0:0:0:0:
407,76,38051,1,2,0:3:0:0:
434,66,38168,2,0,P|426:120|426:193,1,107.999996704102,8|2,0:1|0:3,0:0:0:0:
484,318,38637,1,2,1:1:0:0:
507,221,38871,1,2,0:3:0:0:
390,348,39106,1,10,0:1:0:0:
310,199,39340,1,2,0:3:0:0:
179,299,39575,6,0,P|132:309|81:314,1,90,6|0,0:2|0:0,0:0:0:0:
63,313,39926,1,0,0:0:0:0:
37,305,40043,2,0,B|27:261|27:261|33:198,1,90,0|0,0:0|0:0,0:0:0:0:
75,127,40512,1,2,0:2:0:0:
163,170,40746,1,0,0:0:0:0:
163,170,40864,1,0,0:0:0:0:
163,170,40981,2,0,P|214:164|255:153,1,90,0|0,0:0|0:0,0:0:0:0:
368,75,41450,6,0,P|419:78|467:89,1,90,2|0,0:2|0:0,0:0:0:0:
482,102,41801,1,0,0:0:0:0:
495,129,41918,2,0,P|494:171|488:223,1,90,0|0,0:0|0:0,0:0:0:0:
408,349,42387,1,2,0:2:0:0:
505,298,42621,1,0,0:0:0:0:
357,256,42856,1,2,0:2:0:0:
411,169,43090,1,0,0:0:0:0:
282,72,43325,6,0,P|234:77|182:96,1,90,2|0,0:2|0:0,0:0:0:0:
171,106,43676,1,0,0:0:0:0:
147,122,43793,2,0,P|97:122|54:114,1,90,0|0,0:0|0:0,0:0:0:0:
2,251,44262,2,0,P|52:232|95:225,1,90,2|0,0:2|0:0,0:0:0:0:
116,230,44614,1,0,0:0:0:0:
145,238,44731,2,0,P|194:242|237:238,1,90,0|0,0:0|0:0,0:0:0:0:
383,203,45200,5,2,0:2:0:0:
334,99,45434,1,0,0:0:0:0:
334,99,45551,1,0,0:0:0:0:
334,99,45668,2,0,P|340:48|356:11,1,90,0|0,0:0|0:0,0:0:0:0:
230,139,46137,2,0,P|249:183|261:228,1,90,2|0,0:2|0:0,0:0:0:0:
206,306,46606,2,0,B|161:316|161:316|106:311,1,90,2|0,0:2|0:0,0:0:0:0:
300,321,47075,6,0,P|344:311|405:310,1,90,2|0,0:2|0:0,0:0:0:0:
415,315,47426,1,0,0:0:0:0:
442,324,47543,2,0,L|447:223,1,90
470,154,48012,2,0,B|474:104|474:104|467:56|466:56,1,90,2|0,0:2|0:0,0:0:0:0:
452,42,48364,1,0,0:0:0:0:
428,27,48481,2,0,P|370:31|319:46,1,90,0|0,0:0|0:0,0:0:0:0:
218,126,48950,6,0,P|170:122|114:113,1,90,2|0,0:2|0:0,0:0:0:0:
103,102,49301,1,0,0:0:0:0:
83,85,49418,2,0,L|88:179,1,90,0|0,0:0|0:0,0:0:0:0:
115,299,49887,1,2,0:2:0:0:
17,252,50121,1,0,0:0:0:0:
188,224,50356,1,2,0:2:0:0:
11,148,50590,1,0,0:0:0:0:
134,120,50825,6,0,P|185:127|235:139,1,90,2|0,0:2|0:0,0:0:0:0:
245,151,51176,1,0,0:0:0:0:
271,163,51293,2,0,P|320:159|364:149,1,90,0|0,0:0|0:0,0:0:0:0:
512,228,51762,2,0,P|457:218|411:215,1,90,2|0,0:2|0:0,0:0:0:0:
351,262,52114,1,0,0:0:0:0:
325,277,52231,2,0,B|278:286|278:286|229:282,1,90,0|0,0:0|0:0,0:0:0:0:
147,230,52700,6,0,P|89:237|46:252,1,90,2|0,0:2|0:0,0:0:0:0:
35,263,53051,1,0,0:0:0:0:
13,281,53168,2,0,L|20:186,1,90,0|0,0:0|0:0,0:0:0:0:
83,61,53637,2,0,P|94:110|95:160,1,90,2|0,0:2|0:0,0:0:0:0:
176,269,54106,2,0,P|185:222|198:174,1,90,2|0,0:2|0:0,0:0:0:0:
307,89,54575,5,6,0:2:0:0:
256,192,54692,12,0,56450,0:0:0:0:
