osu file format v14

[General]
AudioFilename: audio.mp3
AudioLeadIn: 0
PreviewTime: 24106
Countdown: 1
SampleSet: Soft
StackLeniency: 0.7
Mode: 0
LetterboxInBreaks: 0
WidescreenStoryboard: 1

[Editor]
Bookmarks: 7700,15200,22700,32075,47075,53168
DistanceSpacing: 1
BeatDivisor: 4
GridSize: 4
TimelineZoom: 1

[Metadata]
Title:Bassboosted
TitleUnicode:Bassboosted
Artist:Shadren
ArtistUnicode:Shadren
Creator:Flashtop
Version:Easy
Source:
Tags:progressive house flashtop _ensi_ asuka_- shadren celektus
BeatmapID:1360795
BeatmapSetID:641126

[Difficulty]
HPDrainRate:4
CircleSize:2.5
OverallDifficulty:2
ApproachRate:3
SliderMultiplier:1
SliderTickRate:1

[Events]
//Background and Video events
0,0,"orange.jpg",0,0
//Break Periods
//Storyboard Layer 0 (Background)
//Storyboard Layer 1 (Fail)
//Storyboard Layer 2 (Pass)
//Storyboard Layer 3 (Foreground)
//Storyboard Sound Samples

[TimingPoints]
200,468.75,4,2,1,60,1,0
7700,-100,4,3,1,60,0,0
22700,-100,4,1,1,60,0,0
24575,-100,4,3,1,60,0,1
39575,-100,4,2,1,60,0,0
54575,-100,4,2,1,60,0,0
56450,-100,4,2,1,5,0,0

[HitObjects]
44,78,200,6,0,P|92:62|144:22,1,100,2|0,0:2|0:2,0:0:0:0:
212,93,1137,2,0,P|261:100|306:121,1,100,2|0,0:2|0:2,0:0:0:0:
379,190,2075,1,2,0:2:0:0:
301,252,2543,2,0,B|299:293|299:293|307:359,1,100,0|2,0:2|0:2,0:0:0:0:
212,315,3481,1,2,0:2:0:0:
112,301,3950,6,0,P|61:307|-1:338,1,100,2|0,0:2|0:2,0:0:0:0:
40,228,4887,2,0,B|42:187|42:187|34:121,1,100,2|0,0:2|0:2,0:0:0:0:
12,32,5825,1,2,0:2:0:0:
108,64,6293,2,0,B|207:104|187:15|315:56,1,200,0|2,0:2|0:2,0:0:0:0:
380,112,7700,6,0,P|382:161|397:209,1,100,6|8,1:1|3:1,0:0:0:0:
460,298,8637,2,0,B|415:292|353:304,1,100,2|8,1:1|0:1,0:0:0:0:
265,270,9575,1,2,1:1:0:0:
180,323,10043,2,0,B|135:307|96:310|96:310|127:271|120:196,1,200,8|10,0:1|0:1,0:0:0:0:
52,127,11450,6,0,P|101:124|149:109,1,100,2|8,1:1|0:1,0:0:0:0:
211,31,12387,2,0,P|258:46|308:48,1,100,2|8,1:1|0:1,0:0:0:0:
405,24,13325,1,2,1:1:0:0:
493,70,13793,2,0,P|466:153|378:105,1,200,8|10,0:1|0:1,0:0:0:0:
296,64,15200,6,0,B|298:105|298:105|290:171,1,100,2|8,1:1|0:1,0:0:0:0:
213,226,16137,2,0,B|211:267|211:267|218:325,1,100,2|8,1:1|0:1,0:0:0:0:
314,297,17075,1,2,1:1:0:0:
407,333,17543,2,0,P|482:297|501:184,1,200,8|10,0:1|0:1,0:0:0:0:
478,92,18950,6,0,B|437:85|437:85|377:87,1,100,2|8,1:1|0:1,0:0:0:0:
302,147,19887,2,0,B|261:149|261:149|202:141,1,100,2|8,1:1|0:1,0:0:0:0:
123,203,20825,1,2,1:1:0:0:
40,147,21293,2,0,P|48:66|159:70,1,200,8|10,0:1|0:1,0:0:0:0:
202,141,22700,5,0,1:1:0:0:
292,98,24575,6,0,P|350:99|392:100,1,100,6|8,1:0|0:1,0:0:0:0:
479,51,25512,2,0,B|483:84|483:84|480:123|480:123|485:164,1,100,2|8,1:0|0:1,0:0:0:0:
504,248,26450,1,2,1:1:0:0:
408,218,26918,2,0,P|337:242|339:368,1,200,8|10,0:1|1:0,0:0:0:0:
248,292,28325,6,0,P|199:294|151:309,1,100,2|8,1:1|0:1,0:0:0:0:
56,344,29262,2,0,P|71:296|73:246,1,100,2|8,1:1|0:1,0:0:0:0:
36,152,30200,1,2,1:1:0:0:
65,56,30668,2,0,B|110:51|110:51|225:65|225:65|285:57,1,200,8|10,0:1|0:1,0:0:0:0:
360,30,32075,6,0,P|344:77|342:127,1,100,2|8,1:1|0:1,0:0:0:0:
425,184,33012,2,0,B|427:225|427:225|420:283,1,100,2|8,1:1|0:1,0:0:0:0:
336,227,33950,1,2,1:1:0:0:
237,243,34418,2,0,B|174:244|110:231|110:231|109:271|119:312,1,200,8|10,0:1|0:1,0:0:0:0:
205,350,35825,6,0,P|250:330|300:325,1,100,2|8,1:1|0:1,0:0:0:0:
398,344,36762,2,0,P|378:298|373:248,1,100,2|8,1:1|0:1,0:0:0:0:
451,187,37700,2,0,P|446:136|337:177,1,200,2|2,1:1|1:1,0:0:0:0:
277,242,39106,1,10,0:1:0:0:
203,173,39575,6,0,P|153:178|107:197,1,100,6|0,0:2|0:0,0:0:0:0:
67,288,40512,1,2,0:2:0:0:
266,334,41450,5,2,0:2:0:0:
405,190,42387,2,0,P|454:195|500:214,1,100,2|2,0:2|0:2,0:0:0:0:
483,115,43325,5,2,0:2:0:0:
296,185,44262,1,2,0:2:0:0:
463,294,45200,1,2,0:2:0:0:
426,97,46137,2,0,B|385:99|327:92,1,100,2|2,0:2|0:2,0:0:0:0:
228,67,47075,5,2,0:2:0:0:
70,189,48012,1,2,0:2:0:0:
266,229,48950,1,2,0:2:0:0:
92,328,49887,2,0,B|133:326|191:333,1,100,2|2,0:2|0:2,0:0:0:0:
288,357,50825,5,2,0:2:0:0:
176,191,51762,1,2,0:2:0:0:
375,206,52700,1,2,0:2:0:0:
459,152,53168,2,0,P|472:59|387:20,1,200,0|2,0:0|0:2,0:0:0:0:
306,79,54575,1,0,0:0:0:0:
256,192,55043,12,0,56450,0:0:0:0:
