osu file format v14

[General]
AudioFilename: audio.mp3
AudioLeadIn: 0
PreviewTime: 15
Countdown: 0
SampleSet: Soft
StackLeniency: 0.7
Mode: 0
LetterboxInBreaks: 0
WidescreenStoryboard: 1

[Editor]
Bookmarks: 12841,25641,38441,51241,51341,51441,51541,51641,51741,51841,51941,52041,52141,52241,52341,52441,52541,52641,52741,52841,52941,53041,53141,53241,53341,53441,53541,53641,64041,64141,64241,64341,64441,64541,64641,64741,64841,64941,65041,65141,65241,65341,65441,65541,65641,65741,65841,65941,66041,66141,66241,66341,66441,66541,66641,66741,66841,66941,67041,67141,67241,67341,67441,67541,67641,67741,67841,67941,68041,68141,68241,68341,68441,68541,68641,68741,68841,68941,69041,69141,69241,69341,69441,69541,69641,69741,69841,69941,70041,70141,70241,70341,70441,70541,70641,70741,70841,70941,71041,71141,71241,71341,71441,71541,71641,71741,71841,71941,72041,72141,72241,72341,72441,72541,72641,72741,72841,72941,73041,73141,73241,73341,73441,73541,73641,73741,73841,73941,74041,74141,74241,74341,74441,74541,74641,74741,74841,74941,75041,75141,75241,75341,75441,75541,75641,75741,75841,75941,76041,76141,76241,76341,76441,76541,76641,76741,76841,89641,102441,102541,102641,102741,102841,102941,103041,103141,103241,103341,103441,103541,103641,103741,103841,103941,104041,104141,104241,104341,104441,104541,104641,104741,104841,115241,115341,115441,115541,115641,115741,115841,115941,116041,116141,116241,116341,116441,116541,116641,116741,116841,116941,117041,117141,117241,117341,117441,117541,117641,117741,117841,117941,118041,118141,118241,118341,118441,118541,118641,118741,118841,118941,119041,119141,119241,119341,119441,119541,119641,119741,119841,119941,120041,120141,120241,120341,120441,120541,120641,120741,120841,120941,121041,121141,121241,121341,121441,121541,121641,121741,121841,121941,122041,122141,122241,122341,122441,122541,122641,122741,122841,122941,123041,123141,123241,123341,123441,123541,123641,123741,123841,123941,124041,124141,124241,124341,124441,124541,124641,124741,124841,124941,125041,125141,125241,125341,125441,125541,125641,125741,125841,125941,126041,126141,126241,126341,126441,126541,126641,126741,126841,126941,127041,127141,127241,127341,127441,127541,127641,127741,127841,127941,128041,140841,153641,153741,153841,153941,154041,154141,154241,154341,154441,154541,154641,154741,154841,154941,155041,155141,155241,155341,155441,155541,155641,155741,155841,155941,156041,166441,179241
DistanceSpacing: 0.8
BeatDivisor: 4
GridSize: 32
TimelineZoom: 0.9

[Metadata]
Title:Agleam (feat. Asperatus)
TitleUnicode:Agleam (feat. Asperatus)
Artist:Shadren
ArtistUnicode:Shadren
Creator:M a r v o l l o
Version:Normal
Source:
Tags:shmiklak marvollo m_a_r_v_o_l_l_o daycore electronic english Future bass male vocal chops lyrics love zerss z_e_r_s_s riffy bakari Guitar Bells Chiptune
BeatmapID:4112275
BeatmapSetID:1926857

[Difficulty]
HPDrainRate:3
CircleSize:3
OverallDifficulty:3.5
ApproachRate:4.5
SliderMultiplier:1.2
SliderTickRate:1

[Events]
//Background and Video events
0,0,"Untitled-1.jpg",0,0
//Break Periods
2,51440,53181
2,64241,75581
2,102641,104381
2,115441,126781
2,153840,155581
//Storyboard Layer 0 (Background)
//Storyboard Layer 1 (Fail)
//Storyboard Layer 2 (Pass)
//Storyboard Layer 3 (Foreground)
//Storyboard Layer 4 (Overlay)
//Storyboard Sound Samples

[TimingPoints]
41,400,4,2,1,60,1,0
25641,-90.9090909090909,4,2,1,80,0,0
36841,-90.9090909090909,4,2,1,50,0,0
37641,-90.9090909090909,4,2,1,80,0,0
37741,-90.9090909090909,4,2,1,75,0,0
37841,-90.9090909090909,4,2,1,70,0,0
37941,-90.9090909090909,4,2,1,65,0,0
38041,-90.9090909090909,4,2,1,60,0,0
38141,-90.9090909090909,4,2,1,55,0,0
38241,-90.9090909090909,4,2,1,50,0,0
38441,-100,4,2,2,70,0,0
51241,-100,4,2,1,60,0,0
54441,-100,4,2,2,70,0,0
64041,-100,4,2,2,50,0,0
76841,-100,4,2,1,70,0,0
83241,-90.9090909090909,4,2,1,70,0,0
89641,-100,4,2,2,70,0,0
102441,-100,4,2,1,60,0,0
105641,-100,4,2,2,70,0,0
128041,-111.111111111111,4,2,2,50,0,0
140841,-111.111111111111,4,2,2,55,0,0
153641,-111.111111111111,4,2,2,60,0,0
156041,-111.111111111111,4,2,1,60,0,0
156841,-100,4,2,2,70,0,0
166441,-100,4,2,2,80,0,0
179241,-100,4,2,2,60,0,0

[Colours]
Combo1 : 251,130,113
Combo2 : 18,184,159
Combo3 : 132,175,255
Combo4 : 247,106,233

[HitObjects]
388,329,12841,6,0,P|448:340|515:326,2,120,2|2|2,0:2|0:2|0:2,0:0:0:0:
348,313,13841,1,2,0:2:0:0:
348,313,14041,2,0,P|305:320|285:332,1,60,2|2,0:2|0:2,0:0:0:0:
266,370,14441,1,0,0:0:0:0:
266,370,14641,2,0,P|223:363|203:351,1,60,2|2,0:2|0:2,0:0:0:0:
149,279,15241,1,2,0:2:0:0:
176,187,15641,1,2,0:2:0:0:
133,100,16041,6,0,L|57:106,2,60,0|2|2,0:0|0:2|0:2,0:0:0:0:
210,41,16841,1,2,0:2:0:0:
210,41,17041,1,2,0:2:0:0:
210,41,17241,2,0,L|286:51,2,60,2|2|0,0:2|0:2|0:0,0:0:0:0:
133,100,18041,2,0,P|157:155|207:334,1,240,2|2,0:2|0:2,0:0:0:0:
299,348,19241,6,0,B|354:325|354:325|426:351,2,120,2|2|2,0:2|0:2|0:2,0:0:0:0:
259,372,20241,1,2,0:2:0:0:
259,372,20441,2,0,P|216:365|196:353,1,60,2|2,0:2|0:2,0:0:0:0:
186,317,20841,1,0,0:0:0:0:
186,317,21041,2,0,P|193:274|205:254,1,60,2|2,0:2|0:2,0:0:0:0:
277,201,21641,1,2,0:2:0:0:
368,228,22041,1,2,0:2:0:0:
450,179,22441,6,0,L|456:103,2,60,0|2|2,0:0|0:2|0:2,0:0:0:0:
406,267,23241,1,2,0:2:0:0:
406,267,23441,1,2,0:2:0:0:
406,267,23641,2,0,L|416:343,2,60,2|2|0,0:2|0:2|0:0,0:0:0:0:
355,184,24441,2,0,P|300:208|121:258,1,240,2|2,0:2|0:2,0:0:0:0:
76,164,25641,6,0,L|95:60,2,99.0000030212403,6|2|2,3:2|0:0|0:0,0:0:0:0:
36,199,26441,2,0,B|50:253|50:253|42:271|42:271|57:331,1,132.00000402832,2|10,3:2|0:0,0:0:0:0:
158,352,27241,2,0,P|199:335|255:326,2,99.0000030212403,2|2|2,3:2|0:0|0:0,0:0:0:0:
112,378,28041,1,10,3:1:0:0:
249,217,28841,6,0,L|362:236,2,99.0000030212403,8|2|2,3:1|0:0|0:0,0:0:0:0:
210,180,29641,2,0,B|157:191|157:191|139:182|139:182|76:198,1,132.00000402832,2|10,3:2|0:0,0:0:0:0:
106,93,30441,2,0,L|222:77,2,99.0000030212403,2|2|2,3:2|0:0|0:0,0:0:0:0:
60,65,31241,1,2,3:2:0:0:
30,274,32041,6,0,P|82:252|171:263,1,132.00000402832,6|8,3:2|3:2,0:0:0:0:
181,309,32641,1,2,0:0:0:0:
181,309,32841,2,0,P|215:306|253:295,1,66.0000020141602,10|10,3:1|0:1,0:0:0:0:
296,283,33241,2,0,P|332:286|365:300,1,66.0000020141602,10|8,3:1|0:1,0:0:0:0:
408,317,33641,2,0,L|398:202,2,99.0000030212403,2|2|2,3:2|0:0|0:0,0:0:0:0:
441,358,34441,1,10,3:1:0:0:
482,150,35241,6,0,P|438:127|339:133,1,132.00000402832,10|8,3:1|3:1,0:0:0:0:
317,160,35841,1,10,3:1:0:0:
317,160,36041,2,0,L|250:149,1,66.0000020141602,10|10,3:1|3:1,0:0:0:0:
214,112,36441,2,0,L|145:125,1,66.0000020141602,10|8,3:1|3:1,0:0:0:0:
109,159,36841,2,0,P|60:145|4:143,2,99.0000030212403,2|2|2,3:2|0:0|0:0,0:0:0:0:
137,203,37641,1,2,0:0:0:0:
281,329,38441,6,0,P|337:333|403:301,2,120,6|8|8,3:2|0:0|0:1,0:0:0:0:
251,298,39441,1,2,0:0:0:0:
251,298,39641,2,0,P|206:283|177:285,1,60,2|2,0:2|0:2,0:0:0:0:
148,298,40041,2,0,P|94:297|42:249,1,120,2|0,0:2|3:2,0:0:0:0:
23,213,40641,2,0,L|36:152,1,60,2|8,0:0|0:2,0:0:0:0:
90,75,41241,1,2,0:2:0:0:
173,121,41641,6,0,P|227:127|300:106,1,120,2|8,3:2|0:0,0:0:0:0:
335,91,42241,1,2,3:2:0:0:
335,91,42441,2,0,P|386:87|448:140,1,120,8|2,0:1|0:2,0:0:0:0:
444,221,43241,2,0,L|315:198,1,120,10|0,0:0|0:0,0:0:0:0:
300,240,43841,2,0,L|171:263,1,120,2|2,3:2|3:2,0:0:0:0:
158,302,44441,2,0,L|95:292,1,60,2|2,0:2|0:2,0:0:0:0:
56,315,44841,1,2,3:2:0:0:
290,365,45841,6,0,P|320:351|355:345,1,60,2|2,0:0|0:2,0:0:0:0:
374,307,46241,1,2,0:2:0:0:
374,307,46441,2,0,L|350:187,1,120,2|0,0:2|3:2,0:0:0:0:
267,140,47241,2,0,L|243:257,1,120,8|2,0:2|0:2,0:0:0:0:
212,294,47841,1,2,0:2:0:0:
212,294,48041,2,0,P|176:286|147:286,1,60,2|0,3:2|0:0,0:0:0:0:
110,307,48441,2,0,P|59:298|43:229,2,120,8|8|2,0:0|0:1|0:2,0:0:0:0:
179,373,49641,6,0,L|302:359,1,120,10|0,0:0|0:0,0:0:0:0:
338,333,50241,1,2,3:2:0:0:
422,284,50641,1,2,3:2:0:0:
422,284,50841,2,0,L|488:288,2,60,2|2|6,0:2|0:2|0:2,0:0:0:0:
422,284,54441,6,0,P|410:227|402:156,1,120,6|8,3:2|0:0,0:0:0:0:
314,127,55241,2,0,P|306:186|294:245,1,120,8|2,0:1|0:2,0:0:0:0:
265,283,55841,1,0,0:2:0:0:
265,283,56041,2,0,P|216:294|147:275,1,120,10|0,0:0|0:0,0:0:0:0:
112,245,56641,1,2,3:2:0:0:
112,245,56841,2,0,P|101:204|104:179,1,60,8|2,0:1|3:2,0:0:0:0:
129,147,57241,2,0,P|140:106|137:81,1,60,2|2,0:2|0:2,0:0:0:0:
117,45,57641,6,0,L|244:27,1,120,2|8,3:2|0:0,0:0:0:0:
317,78,58441,2,0,L|444:96,1,120,8|2,0:1|0:2,0:0:0:0:
467,185,59241,2,0,L|348:201,1,120,2|2,0:2|3:2,0:0:0:0:
319,240,59841,1,2,0:2:0:0:
319,240,60041,2,0,L|251:230,1,60,10|0,0:2|0:0,0:0:0:0:
216,209,60441,2,0,L|148:219,1,60,2|2,0:2|0:2,0:0:0:0:
123,252,60841,6,0,P|73:258|4:227,1,120,2|8,3:2|0:0,0:0:0:0:
6,136,61641,2,0,P|59:111|119:116,1,120,8|2,0:1|0:2,0:0:0:0:
203,70,62441,2,0,L|187:3,2,60,10|0|0,0:0|3:2|0:0,0:0:0:0:
245,103,63041,1,2,3:2:0:0:
245,103,63241,2,0,P|282:100|308:93,1,60,8|0,0:1|3:2,0:0:0:0:
331,55,63641,2,0,P|368:58|394:65,1,60,2|2,0:2|3:2,0:0:0:0:
427,93,64041,1,2,0:2:0:0:
356,50,76841,6,0,L|471:36,2,90,14|2|10,0:0|0:0|0:2,0:0:0:0:
309,131,78441,6,0,L|424:145,2,90,10|2|10,0:0|0:0|0:0,0:0:0:0:
353,234,80041,6,0,L|468:220,2,90,10|2|10,0:0|0:0|0:0,0:0:0:0:
306,315,81641,6,0,L|421:329,2,90,10|2|10,0:0|0:0|0:0,0:0:0:0:
123,159,83241,6,0,P|104:125|87:52,2,99.0000030212403,10|2|2,0:0|0:0|0:0,0:0:0:0:
169,184,84041,2,0,L|252:169,1,66.0000020141602,8|2,0:0|0:0,0:0:0:0:
272,136,84441,2,0,L|357:146,1,66.0000020141602,10|2,0:0|0:0,0:0:0:0:
367,187,84841,2,0,L|468:169,2,99.0000030212403,10|2|2,0:0|0:0|0:0,0:0:0:0:
335,229,85641,1,8,0:0:0:0:
158,344,86441,6,0,P|124:363|57:375,2,99.0000030212403,10|2|10,0:0|0:0|0:0,0:0:0:0:
185,298,87241,2,0,L|172:214,1,66.0000020141602,8|8,0:0|0:0,0:0:0:0:
144,189,87641,2,0,L|157:101,1,66.0000020141602,8|8,0:0|0:0,0:0:0:0:
189,84,88041,2,0,L|305:64,2,99.0000030212403,10|10|10,0:0|0:0|0:0,0:0:0:0:
121,314,89641,6,0,P|176:353|243:346,1,120,6|8,3:2|0:0,0:0:0:0:
273,335,90241,1,2,3:2:0:0:
273,335,90441,2,0,L|402:350,1,120,8|2,0:1|0:2,0:0:0:0:
461,282,91241,2,0,L|447:162,1,120,2|0,0:2|3:0,0:0:0:0:
397,80,92041,2,0,P|355:65|330:62,1,60,10|2,0:2|0:2,0:0:0:0:
294,78,92441,2,0,P|279:120|276:145,1,60,2|2,0:2|0:2,0:0:0:0:
276,183,92841,6,0,P|245:209|157:190,1,120,2|8,3:2|0:0,0:0:0:0:
131,172,93441,1,2,3:2:0:0:
131,172,93641,2,0,L|151:43,1,120,8|2,0:1|0:2,0:0:0:0:
60,17,94441,2,0,L|41:135,1,120,2|0,0:2|0:0,0:0:0:0:
17,228,95241,2,0,P|18:262|24:292,1,60,10|2,0:2|0:2,0:0:0:0:
58,320,95641,2,0,P|94:319|122:313,1,60,2|2,0:2|0:2,0:0:0:0:
154,284,96041,6,0,P|205:300|284:302,1,120,2|8,3:2|0:0,0:0:0:0:
313,281,96641,1,2,3:2:0:0:
313,281,96841,2,0,P|297:230|295:151,1,120,8|2,0:1|0:2,0:0:0:0:
334,76,97641,2,0,P|393:78|451:95,1,120,2|0,0:2|3:0,0:0:0:0:
495,180,98441,2,0,L|481:241,1,60,10|2,0:2|0:2,0:0:0:0:
447,272,98841,2,0,L|461:333,1,60,2|2,0:2|0:2,0:0:0:0:
423,361,99241,6,0,P|359:369|293:344,1,120,10|8,3:2|0:0,0:0:0:0:
270,321,99841,1,2,3:2:0:0:
270,321,100041,2,0,P|206:313|140:338,1,120,8|2,0:1|0:2,0:0:0:0:
73,276,100841,2,0,P|100:221|117:162,1,120,2|0,0:2|0:0,0:0:0:0:
123,69,101641,2,0,L|178:44,1,60,10|2,0:2|3:2,0:0:0:0:
219,66,102041,2,0,L|278:56,1,60,2|2,0:2|0:2,0:0:0:0:
321,77,102441,1,2,0:0:0:0:
5,76,105641,6,0,P|36:50|124:69,1,120,6|8,3:2|0:0,0:0:0:0:
147,96,106241,1,2,3:2:0:0:
147,96,106441,2,0,L|127:225,1,120,8|2,0:1|0:0,0:0:0:0:
182,294,107241,2,0,L|176:354,2,60,2|0|0,0:0|3:2|0:0,0:0:0:0:
250,226,108041,2,0,P|284:227|314:233,1,60,8|2,0:1|3:2,0:0:0:0:
348,260,108441,2,0,P|384:259|412:253,1,60,2|2,0:0|0:0,0:0:0:0:
445,224,108841,6,0,P|463:167|454:108,1,120,2|8,3:2|0:0,0:0:0:0:
427,76,109441,1,2,3:2:0:0:
427,76,109641,2,0,P|376:92|297:94,1,120,8|2,0:1|0:0,0:0:0:0:
228,146,110441,2,0,L|144:132,2,60,2|0|2,0:0|3:2|3:2,0:0:0:0:
279,227,111241,2,0,P|274:263|265:285,1,60,8|2,0:1|0:0,0:0:0:0:
230,317,111641,2,0,P|206:316|159:294,1,60,2|2,0:0|0:0,0:0:0:0:
128,282,112041,6,0,L|111:152,1,120,2|8,3:2|0:0,0:0:0:0:
131,121,112641,1,2,0:0:0:0:
131,121,112841,2,0,L|261:104,1,120,8|2,0:1|0:0,0:0:0:0:
333,57,113641,2,0,L|347:-9,2,60,2|0|0,0:0|3:2|0:0,0:0:0:0:
392,132,114441,2,0,P|392:168|383:204,1,60,10|2,0:0|3:2,0:0:0:0:
357,229,114841,2,0,P|357:265|366:301,1,60,2|2,0:0|0:0,0:0:0:0:
389,327,115241,1,6,0:0:0:0:
265,83,128041,6,0,P|370:50|481:42,2,215.999993408203,4|0|2,3:2|0:0|0:0,0:0:0:0:
206,198,130241,2,0,L|218:313,2,107.999996704102,2|2|2,0:0|0:0|0:0,0:0:0:0:
206,198,132441,1,2,0:0:0:0:
277,246,132841,2,0,L|454:207,1,161.999995056153,2|2,0:0|0:0,0:0:0:0:
510,253,133841,1,2,0:0:0:0:
467,328,134241,2,0,P|407:344|189:301,1,269.999991760254,2|0,0:0|0:0,0:0:0:0:
205,310,136241,6,0,P|224:260|204:133,1,161.999995056153,2|2,0:0|0:0,0:0:0:0:
275,93,137241,2,0,L|394:115,1,107.999996704102,2|0,0:0|0:0,0:0:0:0:
452,63,138041,1,2,0:0:0:0:
452,63,139241,2,0,L|473:281,1,215.999993408203,2|0,0:0|0:0,0:0:0:0:
413,340,140441,1,0,0:0:0:0:
341,292,140841,2,0,P|291:264|125:289,1,215.999993408203,2|0,0:0|0:0,0:0:0:0:
79,342,142041,5,2,0:0:0:0:
38,265,142441,2,0,L|57:133,1,107.999996704102,2|0,0:0|0:0,0:0:0:0:
85,129,143041,2,0,P|123:137|244:94,1,161.999995056153,2|2,0:0|0:0,0:0:0:0:
262,65,143841,2,0,P|291:85|381:82,1,107.999996704102,2|2,0:0|0:0,0:0:0:0:
455,305,145441,5,2,0:0:0:0:
455,305,145641,2,0,L|347:283,1,107.999996704102,2|2,0:0|0:0,0:0:0:0:
317,254,146241,2,0,P|275:259|151:291,1,161.999995056153,2|0,0:0|0:0,0:0:0:0:
123,366,147241,2,0,P|174:373|250:371,1,107.999996704102,2|0,0:0|0:0,0:0:0:0:
362,353,148241,5,2,0:0:0:0:
362,353,148441,2,0,P|346:300|341:239,1,107.999996704102,2|2,0:0|0:0,0:0:0:0:
367,213,149041,2,0,P|382:160|388:99,1,107.999996704102,0|2,0:0|0:0,0:0:0:0:
275,43,150041,2,0,P|221:37|169:21,1,107.999996704102,2|0,0:0|0:0,0:0:0:0:
131,41,150641,2,0,P|68:60|16:158,1,161.999995056153,2|0,0:0|0:0,0:0:0:0:
49,268,151841,5,2,0:0:0:0:
49,268,152041,2,0,P|109:243|145:211,1,107.999996704102,2|0,0:0|0:0,0:0:0:0:
165,178,152641,2,0,P|193:179|230:186,1,53.9999983520508,2|0,0:0|0:0,0:0:0:0:
256,204,153041,2,0,P|284:202|321:196,1,53.9999983520508,2|0,0:0|0:0,0:0:0:0:
343,171,153441,2,0,P|371:172|408:179,1,53.9999983520508,2|6,0:0|3:2,0:0:0:0:
29,349,156841,6,0,L|166:339,1,120,6|8,3:2|0:0,0:0:0:0:
186,310,157441,1,2,3:2:0:0:
186,310,157641,2,0,L|201:181,1,120,8|2,0:1|0:2,0:0:0:0:
246,106,158441,2,0,L|318:81,2,60,10|0|0,0:0|3:2|0:0,0:0:0:0:
158,65,159241,2,0,L|84:56,1,60,8|2,0:1|3:2,0:0:0:0:
59,85,159641,2,0,L|68:159,1,60,2|2,0:2|0:2,0:0:0:0:
94,183,160041,6,0,P|147:191|209:228,1,120,2|8,3:2|0:0,0:0:0:0:
243,259,160641,1,2,3:2:0:0:
243,259,160841,2,0,L|372:239,1,120,8|2,0:1|0:2,0:0:0:0:
431,306,161641,2,0,L|420:377,2,60,2|2|2,0:2|3:2|3:2,0:0:0:0:
493,233,162441,2,0,L|483:173,1,60,10|0,0:2|0:0,0:0:0:0:
449,139,162841,2,0,L|458:79,1,60,2|2,0:2|0:2,0:0:0:0:
423,46,163241,6,0,P|372:62|293:64,1,120,2|8,3:2|0:0,0:0:0:0:
265,88,163841,1,2,3:2:0:0:
265,88,164041,2,0,P|214:72|135:70,1,120,8|2,0:1|0:2,0:0:0:0:
73,129,164841,2,0,L|2:141,2,60,10|0|0,0:0|3:2|0:0,0:0:0:0:
150,185,165641,2,0,L|138:261,1,60,8|0,0:1|3:2,0:0:0:0:
167,283,166041,2,0,L|180:341,1,60,2|2,0:2|3:2,0:0:0:0:
215,374,166441,6,0,P|284:359|347:356,2,120,6|8|8,3:2|0:0|0:1,0:0:0:0:
150,302,167641,2,0,L|165:236,1,60,2|2,0:2|0:2,0:0:0:0:
205,220,168041,2,0,L|190:154,1,60,2|0,0:2|3:0,0:0:0:0:
214,118,168441,2,0,L|280:124,2,60,0|2|10,3:0|0:2|0:2,0:0:0:0:
156,56,169241,5,2,0:2:0:0:
156,56,169441,1,2,0:2:0:0:
156,56,169641,2,0,P|108:80|31:86,2,120,2|8|8,3:2|0:0|0:1,0:0:0:0:
239,9,170841,2,0,L|310:21,1,60,2|2,0:2|0:2,0:0:0:0:
332,52,171241,2,0,P|390:47|463:26,1,120,2|0,0:2|0:0,0:0:0:0:
479,68,171841,2,0,P|463:125|458:185,1,120,2|2,3:2|0:2,0:0:0:0:
484,226,172441,2,0,P|488:260|483:288,1,60,2|2,0:2|0:2,0:0:0:0:
457,325,172841,6,0,L|326:341,2,120,2|8|8,3:2|0:0|0:1,0:0:0:0:
509,244,174041,2,0,L|500:178,1,60,2|2,0:2|0:2,0:0:0:0:
475,144,174441,2,0,L|484:78,1,60,2|0,0:2|3:0,0:0:0:0:
442,59,174841,2,0,L|436:-7,2,60,0|2|10,3:0|0:2|0:2,0:0:0:0:
380,133,175641,5,2,0:2:0:0:
380,133,175841,1,2,0:2:0:0:
380,133,176041,2,0,P|319:119|246:116,2,120,10|8|8,3:2|0:0|0:1,0:0:0:0:
426,217,177241,2,0,L|414:288,1,60,2|2,0:2|0:2,0:0:0:0:
388,315,177641,2,0,P|330:320|257:341,1,120,2|0,0:2|0:0,0:0:0:0:
222,332,178241,2,0,P|237:274|242:214,1,120,2|2,3:2|3:2,0:0:0:0:
218,173,178841,2,0,P|190:166|149:165,1,60,2|2,0:2|0:2,0:0:0:0:
113,180,179241,1,6,0:0:0:0:
