osu file format v14

[General]
AudioFilename: audio.mp3
AudioLeadIn: 0
PreviewTime: 15
Countdown: 0
SampleSet: Soft
StackLeniency: 1
Mode: 0
LetterboxInBreaks: 0
WidescreenStoryboard: 1

[Editor]
Bookmarks: 12841,25641,38441,51241,51341,51441,51541,51641,51741,51841,51941,52041,52141,52241,52341,52441,52541,52641,52741,52841,52941,53041,53141,53241,53341,53441,53541,53641,54441,64041,64141,64241,64341,64441,64541,64641,64741,64841,64941,65041,65141,65241,65341,65441,65541,65641,65741,65841,65941,66041,66141,66241,66341,66441,66541,66641,66741,66841,66941,67041,67141,67241,67341,67441,67541,67641,67741,67841,67941,68041,68141,68241,68341,68441,68541,68641,68741,68841,68941,69041,69141,69241,69341,69441,69541,69641,69741,69841,69941,70041,70141,70241,70341,70441,70541,70641,70741,70841,70941,71041,71141,71241,71341,71441,71541,71641,71741,71841,71941,72041,72141,72241,72341,72441,72541,72641,72741,72841,72941,73041,73141,73241,73341,73441,73541,73641,73741,73841,73941,74041,74141,74241,74341,74441,74541,74641,74741,74841,74941,75041,75141,75241,75341,75441,75541,75641,75741,75841,75941,76041,76141,76241,76341,76441,76541,76641,76741,76841,89641,102441,115241,115341,115441,115541,115641,115741,115841,115941,116041,116141,116241,116341,116441,116541,116641,116741,116841,116941,117041,117141,117241,117341,117441,117541,117641,117741,117841,117941,118041,118141,118241,118341,118441,118541,118641,118741,118841,118941,119041,119141,119241,119341,119441,119541,119641,119741,119841,119941,120041,120141,120241,120341,120441,120541,120641,120741,120841,120941,121041,121141,121241,121341,121441,121541,121641,121741,121841,121941,122041,122141,122241,122341,122441,122541,122641,122741,122841,122941,123041,123141,123241,123341,123441,123541,123641,123741,123841,123941,124041,124141,124241,124341,124441,124541,124641,124741,124841,124941,125041,125141,125241,125341,125441,125541,125641,125741,125841,125941,126041,126141,126241,126341,126441,126541,126641,126741,126841,126941,127041,127141,127241,127341,127441,127541,127641,127741,127841,127941,128041,140841,153641,156841,166441,179241
DistanceSpacing: 1.1
BeatDivisor: 4
GridSize: 32
TimelineZoom: 0.7999996

[Metadata]
Title:Agleam (feat. Asperatus)
TitleUnicode:Agleam (feat. Asperatus)
Artist:Shadren
ArtistUnicode:Shadren
Creator:M a r v o l l o
Version:Daycore's Hard
Source:
Tags:shmiklak marvollo m_a_r_v_o_l_l_o daycore electronic english Future bass male vocal chops lyrics love zerss z_e_r_s_s riffy bakari Guitar Bells Chiptune
BeatmapID:4113373
BeatmapSetID:1926857

[Difficulty]
HPDrainRate:4.5
CircleSize:4
OverallDifficulty:6.5
ApproachRate:7.5
SliderMultiplier:1.6
SliderTickRate:1

[Events]
//Background and Video events
0,0,"Untitled-1.jpg",0,0
//Break Periods
2,64241,76016
2,115441,127316
//Storyboard Layer 0 (Background)
//Storyboard Layer 1 (Fail)
//Storyboard Layer 2 (Pass)
//Storyboard Layer 3 (Foreground)
//Storyboard Layer 4 (Overlay)
//Storyboard Sound Samples

[TimingPoints]
41,400,4,2,1,60,1,0
25641,-100,4,2,1,80,0,0
36841,-100,4,2,1,50,0,0
37641,-100,4,2,1,80,0,0
37741,-100,4,2,1,75,0,0
37841,-100,4,2,1,70,0,0
37941,-100,4,2,1,65,0,0
38041,-100,4,2,1,60,0,0
38141,-100,4,2,1,55,0,0
38241,-100,4,2,1,50,0,0
38441,-100,4,2,2,70,0,0
51241,-100,4,2,1,60,0,0
54441,-100,4,2,2,70,0,0
64041,-100,4,2,2,50,0,0
76841,-100,4,2,1,70,0,0
89641,-100,4,2,2,70,0,0
102441,-100,4,2,1,60,0,0
105641,-100,4,2,2,70,0,0
128041,-100,4,2,2,50,0,0
128141,-125,4,2,2,50,0,0
140841,-125,4,2,2,55,0,0
153641,-100,4,2,2,60,0,0
156041,-100,4,2,1,60,0,0
156841,-100,4,2,2,70,0,0
166441,-100,4,2,2,80,0,0
179241,-100,4,2,2,60,0,0

[Colours]
Combo1 : 251,130,113
Combo2 : 18,184,159
Combo3 : 132,175,255
Combo4 : 247,106,233

[HitObjects]
256,192,9641,12,0,12441,0:0:0:0:
150,204,12841,6,0,B|134:118|134:118|129:74|147:83|128:20,2,160,2|2|2,0:2|0:2|0:2,0:0:0:0:
203,265,13841,1,2,0:2:0:0:
229,190,14041,2,0,L|212:97,2,80,2|2|0,0:2|0:2|0:0,0:0:0:0:
291,248,14641,5,2,0:2:0:0:
291,248,14841,2,0,P|239:277|276:385,1,160,2|2,0:2|0:2,0:0:0:0:
407,368,15641,2,0,P|441:356|503:347,1,80,2|2,0:2|0:0,0:0:0:0:
429,278,16041,6,0,P|415:242|407:186,1,80,0|2,0:0|0:2,0:0:0:0:
459,140,16441,2,0,P|468:100|363:66,1,160,2|2,0:2|0:2,0:0:0:0:
303,83,17041,1,2,0:2:0:0:
303,83,17241,2,0,L|212:75,1,80,2|2,0:2|0:2,0:0:0:0:
187,4,17641,6,0,B|133:38|133:38|158:147,2,160,0|2|0,0:0|0:2|0:0,0:0:0:0:
224,76,18641,1,0,0:0:0:0:
255,149,18841,2,0,L|237:256,1,80,2|0,0:2|0:0,0:0:0:0:
313,263,19241,6,0,P|239:265|207:358,2,160,2|2|2,0:2|0:2|0:2,0:0:0:0:
390,243,20241,1,2,0:2:0:0:
426,314,20441,2,0,P|449:310|476:379,2,80,2|2|0,0:2|0:2|0:0,0:0:0:0:
352,338,21041,5,2,0:2:0:0:
352,338,21241,2,0,P|343:265|316:158,1,160,2|2,0:2|0:2,0:0:0:0:
445,77,22041,2,0,P|471:127|449:159,1,80,2|2,0:2|0:0,0:0:0:0:
385,128,22441,6,0,P|321:104|294:99,1,80,0|2,0:0|0:2,0:0:0:0:
260,38,22841,2,0,P|194:66|197:155,1,160,2|2,0:2|0:2,0:0:0:0:
135,204,23441,1,2,0:2:0:0:
135,204,23641,2,0,P|85:176|32:195,1,80,2|2,0:2|0:2,0:0:0:0:
13,239,24041,5,0,0:0:0:0:
256,192,24241,12,2,25241,0:2:0:0:
327,286,25641,6,0,L|358:182,1,80,6|8,3:2|0:1,0:0:0:0:
349,209,25941,1,2,0:0:0:0:
349,209,26041,1,8,0:0:0:0:
404,142,26241,1,2,0:0:0:0:
375,58,26441,2,0,L|282:29,1,80,2|2,3:2|0:0,0:0:0:0:
289,122,26841,2,0,L|196:93,1,80,10|8,0:0|0:1,0:0:0:0:
127,122,27241,6,0,P|102:157|125:202,1,80,2|8,3:2|0:1,0:0:0:0:
111,190,27541,1,2,0:0:0:0:
111,190,27641,1,8,0:0:0:0:
165,259,27841,1,2,0:0:0:0:
99,318,28041,2,0,L|-6:340,2,80,10|10|10,3:1|0:1|0:1,0:0:0:0:
182,346,28641,1,8,0:1:0:0:
205,342,28741,1,8,0:1:0:0:
228,338,28841,6,0,L|317:324,1,80,8|8,3:1|0:1,0:0:0:0:
307,325,29141,1,2,0:0:0:0:
307,325,29241,1,8,0:0:0:0:
375,270,29441,1,2,0:0:0:0:
444,324,29641,2,0,B|467:289|467:289|453:229,1,80,2|2,3:2|0:0,0:0:0:0:
375,270,30041,2,0,L|370:172,1,80,10|8,0:0|0:1,0:0:0:0:
309,127,30441,6,0,P|272:137|259:189,1,80,2|8,3:2|0:1,0:0:0:0:
255,172,30741,1,2,0:0:0:0:
255,172,30841,1,8,0:0:0:0:
200,241,31041,1,2,0:0:0:0:
124,195,31241,2,0,L|78:89,1,80,2|8,3:2|0:1,0:0:0:0:
38,50,31641,2,0,L|74:34,3,40,10|8|8|8,0:1|0:1|0:1|0:1,0:0:0:0:
100,0,32041,6,0,P|142:3|160:56,1,80,6|8,3:2|0:1,0:0:0:0:
161,32,32341,1,2,0:0:0:0:
161,32,32441,1,8,3:2:0:0:
252,61,32641,1,2,0:0:0:0:
335,89,32841,2,0,L|360:85,4,20,10|8|8|8|10,3:1|0:1|0:1|0:1|0:1,0:0:0:0:
389,18,33241,1,10,3:1:0:0:
464,63,33441,1,8,0:1:0:0:
460,86,33541,1,8,0:1:0:0:
456,109,33641,6,0,L|469:219,1,80,2|8,3:2|0:1,0:0:0:0:
465,188,33941,1,2,0:0:0:0:
465,188,34041,1,8,3:2:0:0:
400,247,34241,1,2,0:0:0:0:
448,310,34441,2,0,L|399:331,3,40,10|8|10|8,3:1|0:1|0:1|0:1,0:0:0:0:
380,351,34841,2,0,L|295:339,1,80,10|8,3:1|0:1,0:0:0:0:
277,345,35141,1,8,0:1:0:0:
253,351,35241,6,0,B|238:332|238:332|256:262,1,80,10|8,3:1|3:1,0:0:0:0:
209,200,35641,1,8,3:1:0:0:
209,200,35841,1,10,3:1:0:0:
126,229,36041,2,0,L|140:324,1,80,10|10,3:1|3:1,0:0:0:0:
58,347,36441,1,10,3:1:0:0:
58,347,36541,1,8,3:1:0:0:
58,347,36641,6,0,L|40:293,2,40,8|8|2,3:1|3:1|3:2,0:0:0:0:
41,305,37641,2,0,L|30:271,12,20,2|0|8|8|10|8|8|8|10|8|8|8|8,0:0|0:0|0:1|0:1|0:1|0:1|0:1|0:1|0:1|0:1|0:1|0:1|0:1,0:0:0:0:
34,209,38441,6,0,L|14:105,1,80,6|0,3:2|0:0,0:0:0:0:
34,91,38741,1,2,0:0:0:0:
34,91,38841,1,8,0:0:0:0:
108,137,39041,1,2,3:2:0:0:
175,81,39241,1,8,0:1:0:0:
175,81,39341,2,0,L|269:90,1,80,2|0,0:0|0:0,0:0:0:0:
284,56,39641,2,0,P|337:84|328:129,1,80,2|2,0:2|0:2,0:0:0:0:
312,181,40041,5,2,0:2:0:0:
312,181,40141,2,0,L|324:233,2,40,8|0|0,0:1|3:0|0:0,0:0:0:0:
274,157,40441,2,0,P|225:179|219:224,1,80,0|2,3:2|0:0,0:0:0:0:
155,264,40841,1,8,0:2:0:0:
155,264,40941,2,0,P|198:296|223:321,1,80,2|0,0:2|0:0,0:0:0:0:
258,298,41241,1,2,0:2:0:0:
293,377,41441,1,2,0:2:0:0:
362,323,41641,6,0,B|410:297|373:303|425:275,1,80,2|0,3:2|0:0,0:0:0:0:
463,297,41941,1,2,0:0:0:0:
463,297,42041,1,8,0:0:0:0:
493,214,42241,1,2,3:2:0:0:
422,161,42441,1,8,0:1:0:0:
422,161,42541,2,0,P|367:150|329:134,1,80
316,107,42841,2,0,P|282:104|252:149,1,80,2|2,0:2|0:2,0:0:0:0:
170,166,43241,5,10,0:0:0:0:
170,166,43341,2,0,L|110:175,2,40,8|0|8,0:1|3:2|0:1,0:0:0:0:
190,205,43641,2,0,P|206:235|178:283,1,80,0|2,0:0|3:2,0:0:0:0:
105,251,44041,1,8,0:1:0:0:
20,226,44241,1,2,3:2:0:0:
13,313,44441,2,0,P|23:359|69:371,1,80,2|2,0:2|0:2,0:0:0:0:
137,360,44841,6,0,P|221:349|248:350,1,80,2|0,3:2|0:0,0:0:0:0:
255,370,45141,1,2,0:0:0:0:
255,370,45241,1,8,0:0:0:0:
313,304,45441,1,2,3:2:0:0:
386,361,45641,1,8,0:1:0:0:
386,361,45741,2,0,P|442:351|456:316,1,80,2|0,0:0|0:0,0:0:0:0:
448,291,46041,1,2,0:2:0:0:
434,203,46241,1,2,0:2:0:0:
421,115,46441,5,2,0:2:0:0:
421,115,46541,2,0,L|408:45,2,40,8|0|0,0:1|3:0|0:0,0:0:0:0:
383,139,46841,2,0,P|328:149|302:120,1,80,0|2,3:2|0:0,0:0:0:0:
255,75,47241,1,8,0:2:0:0:
255,75,47341,2,0,P|207:70|183:122,1,80,2|0,0:2|0:0,0:0:0:0:
185,134,47641,2,0,P|154:157|116:149,1,80,2|2,0:2|0:2,0:0:0:0:
44,99,48041,6,0,L|35:187,1,80,2|0,3:2|0:0,0:0:0:0:
35,178,48341,1,2,0:0:0:0:
35,178,48441,1,8,0:0:0:0:
97,250,48641,1,2,3:2:0:0:
33,310,48841,1,8,0:1:0:0:
33,310,48941,2,0,B|62:337|62:337|129:333,1,80
139,357,49241,1,2,0:2:0:0:
184,281,49441,1,2,0:2:0:0:
258,327,49641,6,0,L|321:339,4,40,10|8|0|8|0,0:0|0:1|3:2|0:1|0:0,0:0:0:0:
287,252,50241,2,0,L|319:86,2,160,2|2|2,3:2|3:2|0:2,0:0:0:0:
269,165,51241,5,6,0:2:0:0:
472,94,53641,5,8,0:1:0:0:
472,94,53741,2,0,L|462:144,2,40,8|10|8,0:1|0:1|0:1,0:0:0:0:
440,62,54041,2,0,L|447:22,2,40,8|8|8,0:1|0:1|0:1,0:0:0:0:
399,79,54341,1,8,0:1:0:0:
399,79,54441,6,0,P|339:73|320:115,1,80,6|0,3:2|0:0,0:0:0:0:
290,105,54741,1,2,0:0:0:0:
290,105,54841,1,8,0:0:0:0:
202,114,55041,1,2,3:2:0:0:
118,131,55241,1,8,0:1:0:0:
118,131,55341,2,0,L|127:227,1,80,2|0,0:0|0:0,0:0:0:0:
130,254,55641,1,2,0:2:0:0:
217,243,55841,1,0,0:2:0:0:
304,233,56041,6,0,B|316:170,3,40,10|8|0|10,0:0|0:1|3:2|0:1,0:0:0:0:
352,177,56441,2,0,P|380:172|398:234,1,80,0|2,0:0|3:2,0:0:0:0:
461,280,56841,1,8,0:1:0:0:
461,280,56941,2,0,P|435:323|383:325,1,80,10|0,0:1|0:0,0:0:0:0:
369,351,57241,2,0,P|310:324|268:321,1,80,2|2,0:2|0:2,0:0:0:0:
212,293,57641,6,0,P|173:308|169:365,1,80,2|0,3:2|0:0,0:0:0:0:
124,366,57941,1,2,0:0:0:0:
124,366,58041,1,8,0:0:0:0:
76,291,58241,1,2,3:2:0:0:
1,319,58441,1,8,0:1:0:0:
1,319,58541,2,0,L|-11:228,1,80,2|0,0:0|0:0,0:0:0:0:
10,200,58841,1,2,0:2:0:0:
96,183,59041,1,2,0:2:0:0:
79,96,59241,5,2,0:2:0:0:
79,96,59341,2,0,L|66:24,2,40,8|2|2,0:1|3:2|0:0,0:0:0:0:
122,89,59641,2,0,L|218:72,1,80,2|2,3:2|0:2,0:0:0:0:
268,19,60041,1,10,0:2:0:0:
268,19,60141,2,0,P|323:38|324:76,1,80,2|0,0:2|0:0,0:0:0:0:
358,85,60441,2,0,P|337:128|331:187,1,80,2|2,0:2|0:2,0:0:0:0:
282,232,60841,6,0,P|313:270|364:269,1,80,2|0,3:2|0:0,0:0:0:0:
341,275,61141,1,2,0:0:0:0:
341,275,61241,1,8,0:0:0:0:
412,222,61441,1,2,3:2:0:0:
477,280,61641,1,8,0:1:0:0:
477,280,61741,2,0,P|485:235|511:175,1,80,2|0,0:0|0:0,0:0:0:0:
508,159,62041,2,0,P|492:116|454:108,1,80,2|2,0:2|0:2,0:0:0:0:
384,65,62441,6,0,P|360:74|328:75,4,40,10|8|0|10|0,0:0|0:1|3:2|0:1|0:0,0:0:0:0:
390,153,63041,1,2,3:2:0:0:
302,160,63241,2,0,P|255:137|212:130,1,80,8|0,0:1|3:2,0:0:0:0:
157,79,63641,1,2,0:2:0:0:
100,146,63841,1,2,3:2:0:0:
33,88,64041,5,2,0:2:0:0:
29,95,76841,6,0,L|5:248,2,120,14|2|10,0:0|0:0|0:2,0:0:0:0:
84,26,77641,2,0,P|136:53|103:137,1,160,0|2,0:0|0:2,0:0:0:0:
93,222,78241,1,0,0:2:0:0:
179,239,78441,6,0,P|236:256|247:336,2,120,10|2|10,0:0|0:0|0:0,0:0:0:0:
125,308,79241,2,0,B|36:318|77:352|-21:365,1,160,0|2,0:0|0:0,0:0:0:0:
38,300,79841,1,2,0:0:0:0:
36,292,79941,1,0,0:0:0:0:
34,284,80041,6,0,P|19:189|0:130,2,120,10|2|10,0:0|0:0|0:0,0:0:0:0:
104,231,80841,2,0,P|164:177|239:127,1,160,0|2,0:0|0:0,0:0:0:0:
286,65,81441,1,2,0:0:0:0:
366,100,81641,6,0,P|427:89|421:11,2,120,10|2|10,0:0|0:0|0:0,0:0:0:0:
282,71,82441,2,0,P|278:189|310:230,1,160
378,256,83041,1,2,0:0:0:0:
444,198,83241,6,0,P|489:230|493:271,1,80,10|0,0:0|0:0,0:0:0:0:
455,330,83641,2,0,P|416:335|368:352,1,80,8|2,0:0|0:0,0:0:0:0:
289,346,84041,2,0,P|215:317|210:258,1,120,8|0,0:0|0:0,0:0:0:0:
221,243,84441,1,10,0:0:0:0:
336,110,84841,6,0,L|217:125,1,120,10|2,0:0|0:0,0:0:0:0:
185,155,85241,2,0,L|106:143,1,80,8|2,0:0|0:0,0:0:0:0:
29,99,85641,2,0,P|54:52|90:44,1,80,8|0,0:0|0:0,0:0:0:0:
157,9,86041,1,10,0:0:0:0:
220,84,86241,1,2,0:0:0:0:
220,84,86341,1,0,0:0:0:0:
220,84,86441,6,0,L|283:90,3,40,10|0|10|2,0:0|0:0|0:0|0:0,0:0:0:0:
294,61,86841,2,0,L|357:55,3,40,8|0|10|0,0:0|0:0|0:0|0:0,0:0:0:0:
361,91,87241,2,0,L|424:97,3,40,8|0|8|0,0:0|0:0|0:0|0:0,0:0:0:0:
415,53,87641,2,0,L|478:47,3,40,8|0|8|0,0:0|0:0|0:0|0:0,0:0:0:0:
486,80,88041,6,0,L|493:105,12,20,10|8|8|8|8|8|10|8|8|8|8|8|10,0:0|0:0|0:0|0:0|0:0|0:0|0:0|0:0|0:0|0:0|0:0|0:0|0:0,0:0:0:0:
429,147,88841,2,0,L|436:172,12,20,8|8|8|8|8|8|8|8|8|8|8|8|8,0:0|0:0|0:0|0:0|0:0|0:0|0:0|0:0|0:0|0:0|0:0|0:0|0:0,0:0:0:0:
363,208,89641,6,0,P|308:246|314:278,1,80,6|0,3:2|0:0,0:0:0:0:
296,294,89941,1,2,0:2:0:0:
296,294,90041,1,8,0:0:0:0:
361,352,90241,1,2,3:2:0:0:
279,379,90441,1,8,0:1:0:0:
279,379,90541,2,0,L|187:361,1,80,2|0,0:2|0:0,0:0:0:0:
157,353,90841,2,0,P|121:315|143:274,1,80,2|2,0:2|0:2,0:0:0:0:
126,215,91241,5,2,0:2:0:0:
126,215,91341,2,0,P|138:200|159:161,2,40,8|0|10,0:1|3:0|0:1,0:0:0:0:
95,189,91641,2,0,P|70:153|85:115,1,80,0|2,3:0|0:2,0:0:0:0:
132,62,92041,1,10,0:2:0:0:
132,62,92141,1,2,0:2:0:0:
132,62,92241,1,2,0:2:0:0:
219,75,92441,1,2,0:2:0:0:
288,20,92641,1,2,0:2:0:0:
354,78,92841,6,0,P|356:134|318:150,1,80,2|0,3:2|0:0,0:0:0:0:
341,145,93141,1,2,0:2:0:0:
341,145,93241,1,8,0:0:0:0:
289,216,93441,1,2,3:2:0:0:
347,288,93641,1,8,0:1:0:0:
347,288,93741,2,0,L|441:282,1,80,2|0,0:2|0:0,0:0:0:0:
469,292,94041,2,0,P|485:338|451:369,1,80,2|2,0:2|0:2,0:0:0:0:
383,379,94441,6,0,L|324:371,3,40,2|8|0|10,0:2|0:1|3:0|0:1,0:0:0:0:
304,351,94841,2,0,L|201:364,1,80,0|2,0:0|3:2,0:0:0:0:
158,319,95241,1,10,0:2:0:0:
158,319,95341,1,2,0:2:0:0:
158,319,95441,1,2,0:2:0:0:
73,294,95641,1,2,0:2:0:0:
78,206,95841,1,2,0:2:0:0:
163,183,96041,6,0,L|145:88,1,80,2|0,3:2|0:0,0:0:0:0:
148,104,96341,1,2,0:2:0:0:
148,104,96441,1,8,0:0:0:0:
82,59,96641,1,2,3:2:0:0:
152,20,96841,1,8,0:1:0:0:
152,20,96941,2,0,L|241:25,1,80,2|0,0:2|0:0,0:0:0:0:
271,26,97241,2,0,P|307:48|305:97,1,80,2|2,0:2|0:2,0:0:0:0:
286,159,97641,5,2,0:2:0:0:
286,159,97741,2,0,L|277:217,2,40,8|0|10,0:1|3:0|0:1,0:0:0:0:
326,157,98041,2,0,P|378:167|386:206,1,80,0|2,3:0|0:2,0:0:0:0:
433,273,98441,1,10,0:2:0:0:
433,273,98541,1,2,0:2:0:0:
433,273,98641,1,2,0:2:0:0:
358,319,98841,1,2,0:2:0:0:
426,374,99041,1,2,0:2:0:0:
501,328,99241,6,0,L|513:229,1,80,10|0,3:2|0:0,0:0:0:0:
510,248,99541,1,2,0:2:0:0:
510,248,99641,1,8,0:0:0:0:
473,168,99841,1,2,3:2:0:0:
506,86,100041,1,8,0:1:0:0:
506,86,100141,2,0,P|481:49|439:46,1,80,2|0,0:2|0:0,0:0:0:0:
411,19,100441,2,0,P|356:44|323:45,1,80,2|2,0:2|0:2,0:0:0:0:
249,36,100841,6,0,L|176:29,4,40,2|8|0|10|0,0:2|0:1|3:0|0:1|0:0,0:0:0:0:
224,120,101441,1,2,3:2:0:0:
214,210,101641,1,10,0:2:0:0:
214,210,101741,2,0,L|206:307,1,80,2|0,0:2|0:0,0:0:0:0:
180,324,102041,1,2,0:2:0:0:
258,364,102241,1,2,0:2:0:0:
318,299,102441,5,2,0:0:0:0:
316,274,104841,5,8,0:1:0:0:
316,274,104941,2,0,L|320:250,4,20,8|8|8|0|8,0:1|0:1|0:1|0:0|0:1,0:0:0:0:
344,308,105241,2,0,L|348:332,4,20,8|8|8|0|8,0:1|0:1|0:1|0:0|0:1,0:0:0:0:
385,291,105541,1,8,0:1:0:0:
385,291,105641,6,0,L|396:190,1,80,6|0,3:2|0:0,0:0:0:0:
424,180,105941,1,2,0:0:0:0:
424,180,106041,1,8,0:0:0:0:
353,126,106241,1,2,3:2:0:0:
378,47,106441,1,8,0:1:0:0:
378,47,106541,1,2,0:0:0:0:
378,47,106641,1,0,0:0:0:0:
290,40,106841,2,0,P|250:49|202:55,1,80,2|2,0:0|0:0,0:0:0:0:
123,60,107241,6,0,P|99:74|83:100,3,40,2|8|0|10,0:0|0:1|3:2|0:1,0:0:0:0:
61,116,107641,2,0,P|78:165|89:205,1,80,0|2,0:0|3:2,0:0:0:0:
148,268,108041,1,8,0:1:0:0:
148,268,108141,1,2,0:0:0:0:
148,268,108241,1,2,3:2:0:0:
72,313,108441,1,2,0:0:0:0:
135,374,108641,1,2,0:0:0:0:
214,336,108841,6,0,P|255:321|312:310,1,80,2|0,3:2|0:0,0:0:0:0:
331,328,109141,1,2,0:0:0:0:
331,328,109241,1,8,0:0:0:0:
377,253,109441,1,2,3:2:0:0:
459,283,109641,1,8,0:1:0:0:
459,283,109741,2,0,P|468:231|485:191,1,80,2|0,0:0|0:0,0:0:0:0:
491,163,110041,2,0,P|469:109|435:110,1,80,2|2,0:0|0:0,0:0:0:0:
367,89,110441,5,2,0:0:0:0:
367,89,110541,2,0,L|304:76,2,40,8|0|10,0:1|3:2|0:1,0:0:0:0:
388,50,110841,2,0,P|355:12|296:2,1,80,2|2,3:2|0:0,0:0:0:0:
242,22,111241,1,8,0:1:0:0:
242,22,111341,1,2,0:0:0:0:
242,22,111441,1,2,0:0:0:0:
158,48,111641,1,2,0:0:0:0:
194,128,111841,1,2,0:0:0:0:
128,186,112041,6,0,L|39:171,1,80,2|0,3:2|0:0,0:0:0:0:
11,195,112341,1,2,0:0:0:0:
11,195,112441,1,8,0:0:0:0:
69,260,112641,1,2,0:0:0:0:
15,329,112841,1,8,0:1:0:0:
15,329,112941,2,0,P|37:362|97:360,1,80,2|0,0:0|0:0,0:0:0:0:
110,344,113241,2,0,L|206:355,1,80,2|2,0:0|0:0,0:0:0:0:
276,362,113641,6,0,L|289:304,4,40,2|8|0|10|0,0:0|0:1|3:2|0:1|0:0,0:0:0:0:
362,346,114241,1,2,3:2:0:0:
452,337,114441,1,10,0:0:0:0:
452,337,114541,2,0,L|440:231,1,80,2|0,0:0|0:0,0:0:0:0:
413,224,114841,1,2,0:0:0:0:
464,152,115041,1,2,0:0:0:0:
392,100,115241,5,6,0:0:0:0:
142,28,128141,6,0,B|122:198|122:198|113:262|150:225|152:293|133:313,1,288,0|2,0:0|0:0,0:0:0:0:
71,348,129241,2,0,P|37:332|7:325,1,64,2|2,0:0|0:0,0:0:0:0:
26,250,129641,6,0,B|162:211|107:195|265:145,1,256,2|0,0:0|0:0,0:0:0:0:
358,173,130841,1,0,0:0:0:0:
428,98,131241,6,0,B|456:62|478:86|504:35|504:35|474:178|474:178|489:189|489:189|459:239|459:239|444:317,1,384,0|2,0:0|0:0,0:0:0:0:
354,342,132841,6,0,P|263:326|262:281,1,128,2|0,0:0|0:0,0:0:0:0:
278,232,133441,2,0,L|146:248,1,128,2|2,0:0|0:0,0:0:0:0:
95,300,134041,1,0,0:0:0:0:
20,165,134441,6,0,B|33:123|1:90|1:90|19:55|19:55|181:68|181:68|174:172|103:118|75:183|72:237|116:278,1,512,2|0,0:0|0:0,0:0:0:0:
153,319,136241,5,2,0:0:0:0:
153,319,136441,2,0,P|207:305|229:304,1,64,2|2,0:0|0:0,0:0:0:0:
277,349,136841,2,0,P|336:334|355:256,1,128,2|2,0:0|0:0,0:0:0:0:
308,218,137441,2,0,L|333:63,1,128,2|2,0:0|0:0,0:0:0:0:
371,27,138041,2,0,P|428:5|445:150,1,256,2|0,0:0|0:0,0:0:0:0:
421,214,139041,5,2,0:0:0:0:
421,214,139241,2,0,P|387:204|352:201,2,64,2|2|2,0:0|0:0|0:0,0:0:0:0:
479,264,139841,2,0,P|476:318|399:330,2,128,2|2|2,0:0|0:0|0:0,0:0:0:0:
409,231,140841,6,0,B|280:255|280:255|211:274|252:316|180:324,1,256,2|0,0:0|0:0,0:0:0:0:
114,289,141841,1,2,0:0:0:0:
114,289,142041,2,0,P|87:241|65:220,1,64,2|2,0:0|0:0,0:0:0:0:
37,170,142441,6,0,P|49:120|138:118,1,128,2|0,0:0|0:0,0:0:0:0:
177,55,143041,2,0,P|209:83|293:102,1,128,2|0,0:0|0:0,0:0:0:0:
363,77,143641,1,2,0:0:0:0:
363,77,143841,2,0,P|403:76|434:167,2,128,2|2|0,0:0|0:0|0:0,0:0:0:0:
375,284,145441,5,2,0:0:0:0:
375,284,145641,2,0,P|325:294|307:308,1,64,2|0,0:0|0:0,0:0:0:0:
265,248,146041,1,2,0:0:0:0:
265,248,146241,2,0,P|293:205|296:182,1,64,2|0,0:0|0:0,0:0:0:0:
326,123,146641,2,0,P|284:88|207:107,1,128,2|0,0:0|0:0,0:0:0:0:
140,81,147241,5,2,0:0:0:0:
144,85,148241,1,2,0:0:0:0:
144,85,148441,2,0,L|135:172,1,64,2|0,0:0|0:0,0:0:0:0:
80,200,148841,6,0,P|71:233|147:278,1,128,2|0,0:0|0:0,0:0:0:0:
174,348,149441,2,0,P|228:326|298:310,1,128,2|0,0:0|0:0,0:0:0:0:
358,265,150041,1,2,0:0:0:0:
358,265,150241,2,0,P|389:266|426:290,1,64,2|0,0:0|0:0,0:0:0:0:
451,350,150641,2,0,P|456:268|481:214,1,128,2|0,0:0|0:0,0:0:0:0:
508,157,151241,1,0,0:0:0:0:
512,161,151841,5,2,0:0:0:0:
512,159,152041,2,0,P|499:125|454:102,1,64,2|0,0:0|0:0,0:0:0:0:
434,44,152441,1,0,0:0:0:0:
360,66,152641,2,0,P|292:90|228:89,2,128,2|2|2,0:0|0:0|0:0,0:0:0:0:
434,44,153641,5,6,3:2:0:0:
42,280,156041,5,8,0:1:0:0:
42,280,156141,2,0,L|46:304,4,20,8|8|10|0|8,0:1|0:1|0:1|0:0|0:1,0:0:0:0:
70,246,156441,2,0,L|74:222,4,20,8|8|8|0|8,0:1|0:1|0:1|0:0|0:1,0:0:0:0:
114,266,156741,1,8,0:1:0:0:
114,266,156841,6,0,P|170:302|178:318,1,80,6|0,3:2|0:0,0:0:0:0:
175,312,157141,1,2,0:0:0:0:
175,312,157241,1,8,0:0:0:0:
248,263,157441,1,2,3:2:0:0:
313,321,157641,1,8,0:1:0:0:
313,321,157741,2,0,P|365:304|374:263,1,80,2|0,0:0|0:0,0:0:0:0:
395,245,158041,1,2,0:2:0:0:
359,164,158241,1,0,0:2:0:0:
423,103,158441,6,0,L|433:39,3,40,10|8|0|10,0:0|0:1|3:2|0:1,0:0:0:0:
452,25,158841,2,0,P|398:0|352:22,1,80,0|2,0:0|3:2,0:0:0:0:
304,38,159241,1,8,0:1:0:0:
304,38,159341,1,10,0:1:0:0:
304,38,159441,1,2,3:2:0:0:
218,16,159641,1,2,0:2:0:0:
160,82,159841,1,2,0:2:0:0:
190,164,160041,6,0,L|106:187,1,80,2|0,3:2|0:0,0:0:0:0:
76,210,160341,1,2,0:0:0:0:
76,210,160441,1,8,0:0:0:0:
144,264,160641,1,2,3:2:0:0:
65,304,160841,1,8,0:1:0:0:
65,304,160941,2,0,P|24:338|28:374,1,80,2|0,0:0|0:0,0:0:0:0:
62,381,161241,2,0,P|108:371|142:372,1,80,2|2,0:2|0:2,0:0:0:0:
223,343,161641,5,2,0:2:0:0:
223,343,161741,2,0,L|269:350,2,40,8|2|2,0:1|3:2|0:0,0:0:0:0:
216,299,162041,2,0,P|237:266|285:253,1,80,2|2,3:2|0:2,0:0:0:0:
355,219,162441,1,10,0:2:0:0:
355,219,162541,1,2,0:2:0:0:
355,219,162641,1,0,0:0:0:0:
425,270,162841,2,0,P|461:256|483:223,1,80,2|2,0:2|0:2,0:0:0:0:
481,135,163241,6,0,P|487:72|501:35,1,80,2|0,3:2|0:0,0:0:0:0:
479,18,163541,1,2,0:0:0:0:
479,18,163641,1,8,0:0:0:0:
393,37,163841,1,2,3:2:0:0:
368,121,164041,1,8,0:1:0:0:
368,121,164141,2,0,L|269:108,1,80,2|0,0:0|0:0,0:0:0:0:
253,82,164441,2,0,P|206:86|204:142,1,80,2|2,0:2|0:2,0:0:0:0:
146,186,164841,6,0,P|156:211|161:237,3,40,10|8|0|10,0:0|0:1|3:2|0:1,0:0:0:0:
195,248,165241,2,0,P|180:291|143:305,1,80,0|2,0:0|3:2,0:0:0:0:
72,344,165641,1,8,0:1:0:0:
72,344,165741,1,10,0:1:0:0:
72,344,165841,2,0,P|31:311|-5:293,1,80,0|2,3:2|0:2,0:0:0:0:
4,210,166241,1,2,3:2:0:0:
57,140,166441,6,0,P|83:90|61:46,1,80,6|0,3:2|0:0,0:0:0:0:
53,39,166741,1,2,0:2:0:0:
53,39,166841,1,8,0:0:0:0:
136,12,167041,1,2,3:2:0:0:
171,97,167241,1,8,0:1:0:0:
171,97,167341,2,0,L|254:93,1,80,2|0,0:2|0:0,0:0:0:0:
289,72,167641,2,0,P|334:98|338:145,1,80,2|2,0:2|0:2,0:0:0:0:
365,207,168041,5,2,0:2:0:0:
365,207,168141,2,0,L|357:264,2,40,8|0|10,0:1|3:0|0:1,0:0:0:0:
404,185,168441,2,0,P|455:183|475:232,1,80,0|2,3:0|0:2,0:0:0:0:
480,297,168841,1,10,0:2:0:0:
480,297,168941,1,2,0:2:0:0:
480,297,169041,1,2,0:2:0:0:
395,320,169241,1,2,0:2:0:0:
310,345,169441,1,2,0:2:0:0:
247,283,169641,6,0,P|182:260|151:287,1,80,2|0,3:2|0:0,0:0:0:0:
154,301,169941,1,2,0:2:0:0:
154,301,170041,1,8,0:0:0:0:
81,250,170241,1,2,3:2:0:0:
15,308,170441,1,8,0:1:0:0:
15,308,170541,2,0,P|-8:260|6:201,1,80,2|0,0:2|0:0,0:0:0:0:
15,196,170841,1,2,0:2:0:0:
90,151,171041,1,2,0:2:0:0:
41,77,171241,6,0,L|29:24,3,40,2|8|0|10,0:2|0:1|3:0|0:1,0:0:0:0:
57,1,171641,2,0,P|102:-4|140:41,1,80,0|2,0:0|3:2,0:0:0:0:
195,72,172041,1,10,0:2:0:0:
195,72,172141,2,0,L|286:59,1,80,2|0,0:2|0:0,0:0:0:0:
310,35,172441,2,0,P|355:43|363:86,1,80,2|2,0:2|0:2,0:0:0:0:
413,145,172841,6,0,P|393:184|389:252,1,80,2|0,3:2|0:0,0:0:0:0:
407,263,173141,1,2,0:2:0:0:
407,263,173241,1,8,0:0:0:0:
455,336,173441,1,2,3:2:0:0:
373,361,173641,1,8,0:1:0:0:
373,361,173741,2,0,P|314:358|300:331,1,80,2|0,0:2|0:0,0:0:0:0:
277,310,174041,1,2,0:2:0:0:
307,227,174241,1,2,0:2:0:0:
247,162,174441,5,2,0:2:0:0:
247,162,174541,2,0,L|235:89,2,40,8|0|10,0:1|3:0|0:1,0:0:0:0:
214,191,174841,2,0,P|177:218|118:198,1,80,0|2,3:0|0:2,0:0:0:0:
64,179,175241,1,10,0:2:0:0:
64,179,175341,1,2,0:2:0:0:
64,179,175441,1,2,0:2:0:0:
24,257,175641,2,0,L|44:352,1,80,2|2,0:2|0:2,0:0:0:0:
123,364,176041,6,0,P|180:365|207:333,1,80,10|0,3:2|0:0,0:0:0:0:
214,313,176341,1,2,0:2:0:0:
214,313,176441,1,8,0:0:0:0:
299,332,176641,1,2,3:2:0:0:
365,274,176841,1,8,0:1:0:0:
365,274,176941,2,0,P|410:283|428:329,1,80,2|0,0:2|0:0,0:0:0:0:
460,338,177241,1,2,0:2:0:0:
502,261,177441,1,2,0:2:0:0:
456,185,177641,6,0,L|464:125,4,40,2|8|0|10|0,0:2|0:1|3:0|0:1|0:0,0:0:0:0:
379,140,178241,2,0,P|411:81|510:81,2,160,2|2|2,3:2|3:2|0:2,0:0:0:0:
301,181,179241,5,6,0:0:0:0:
