osu file format v14

[General]
AudioFilename: audio.ogg
AudioLeadIn: 0
PreviewTime: 278112
Countdown: 0
SampleSet: Normal
StackLeniency: 0.7
Mode: 1
LetterboxInBreaks: 0
WidescreenStoryboard: 0

[Editor]
DistanceSpacing: 0.9
BeatDivisor: 4
GridSize: 32
TimelineZoom: 3.799999

[Metadata]
Title:The Prelude To Bereavement
TitleUnicode:The Prelude To Bereavement
Artist:Shadow Of Intent
ArtistUnicode:Shadow Of Intent
Creator:skolodojko
Version:Inner Oni
Source:
Tags:primordial english metal deathcore death metalcore
BeatmapID:3903674
BeatmapSetID:1894296

[Difficulty]
HPDrainRate:5
CircleSize:2
OverallDifficulty:7
ApproachRate:10
SliderMultiplier:1.4
SliderTickRate:1

[Events]
//Background and Video events
0,0,"3911434.jpg",0,0
//Break Periods
//Storyboard Layer 0 (Background)
//Storyboard Layer 1 (Fail)
//Storyboard Layer 2 (Pass)
//Storyboard Layer 3 (Foreground)
//Storyboard Layer 4 (Overlay)
//Storyboard Sound Samples

[TimingPoints]
17435,272.727272727273,4,1,0,60,1,0
17435,-125,4,1,0,60,0,0
34750,-100,4,1,0,80,0,0
67682,-100,4,1,0,80,0,0
67750,-99.6784565916399,4,1,0,80,0,0
67818,-99.3589743589744,4,1,0,80,0,0
67886,-99.0415335463259,4,1,0,80,0,0
67954,-98.7261146496815,4,1,0,80,0,0
68022,-98.4126984126984,4,1,0,80,0,0
68091,-98.1012658227848,4,1,0,80,0,0
68159,-97.7917981072555,4,1,0,80,0,0
68227,-97.4842767295597,4,1,0,80,0,0
68295,-97.1786833855799,4,1,0,80,0,0
68363,-96.875,4,1,0,80,0,0
68432,-96.5732087227414,4,1,0,80,0,0
68500,-96.2732919254658,4,1,0,80,0,0
68568,-95.9752321981424,4,1,0,80,0,0
68636,-95.679012345679,4,1,0,80,0,0
68704,-95.3846153846154,4,1,0,80,0,0
68772,-95.0920245398773,4,1,0,80,0,0
68841,-94.8012232415902,4,1,0,80,0,0
68909,-94.5121951219512,4,1,0,80,0,0
68977,-94.2249240121581,4,1,0,80,0,0
69045,-93.9393939393939,4,1,0,80,0,0
69113,-93.6555891238671,4,1,0,80,0,0
69182,-93.3734939759036,4,1,0,80,0,0
69250,-93.0930930930931,4,1,0,80,0,0
69318,-92.814371257485,4,1,0,80,0,0
69386,-92.5373134328358,4,1,0,80,0,0
69454,-92.2619047619048,4,1,0,80,0,0
69522,-91.9881305637982,4,1,0,80,0,0
69591,-91.7159763313609,4,1,0,80,0,0
69659,-91.4454277286136,4,1,0,80,0,0
69727,-91.1764705882353,4,1,0,80,0,0
69778,-91.1764705882353,4,1,0,100,0,0
69798,-90.9090909090909,4,1,0,100,0,1
87253,-90.9090909090909,4,1,0,100,0,0
87659,-100,4,1,0,80,0,0
98162,272.727272727273,4,1,0,100,1,0
98162,-95.2380952380952,4,1,0,100,0,0
114591,-94.9554896142433,4,1,0,100,0,0
114659,-94.6745562130177,4,1,0,100,0,0
114727,-94.3952802359882,4,1,0,100,0,0
114795,-94.1176470588235,4,1,0,100,0,0
114863,-93.841642228739,4,1,0,100,0,0
114932,-93.5672514619883,4,1,0,100,0,0
115000,-93.2944606413994,4,1,0,100,0,0
115068,-93.0232558139535,4,1,0,100,0,0
115136,-92.7536231884058,4,1,0,100,0,0
115204,-92.485549132948,4,1,0,100,0,0
115272,-92.2190201729107,4,1,0,100,0,0
115341,-91.9540229885057,4,1,0,100,0,0
115409,-91.6905444126074,4,1,0,100,0,0
115477,-91.4285714285714,4,1,0,100,0,0
115545,-91.1680911680912,4,1,0,100,0,0
115616,-90.9090909090909,4,1,0,100,0,1
133071,-90.9090909090909,4,1,0,100,0,0
133341,-105.263157894737,4,1,0,80,0,0
146704,-100,4,1,0,80,0,0
147318,-105.263157894737,4,1,0,80,0,0
164159,-100,4,1,0,80,0,0
164841,-105.263157894737,4,1,0,80,0,0
169000,-100,4,1,0,100,0,0
173363,-95.2380952380952,4,1,0,100,0,0
186727,-100,4,1,0,100,0,0
203432,-111.111111111111,4,1,0,80,0,0
206159,-90.9090909090908,4,1,0,80,0,0
206977,-105.263157894737,4,1,0,90,0,0
260707,363.636363636364,3,1,0,90,1,0
260707,-78.9473684210526,3,1,0,90,0,0
261067,-100,3,1,0,70,0,0
278097,-86.9565217391304,3,1,0,90,0,0
329431,-74.0740740740741,3,1,0,90,0,0

[HitObjects]
247,215,17435,5,12,0:0:0:0:
230,219,17980,1,0,0:0:0:0:
230,219,18525,1,8,0:0:0:0:
230,219,19071,1,0,0:0:0:0:
230,219,19616,1,8,0:0:0:0:
230,219,20162,1,0,0:0:0:0:
230,219,20707,1,8,0:0:0:0:
230,219,21253,1,0,0:0:0:0:
178,240,21389,1,0,0:0:0:0:
178,240,21525,1,8,0:0:0:0:
178,240,21662,1,8,0:0:0:0:
184,237,21798,1,0,0:0:0:0:
251,218,22344,1,0,0:0:0:0:
234,222,22889,1,8,0:0:0:0:
193,231,23435,1,0,0:0:0:0:
193,231,23980,1,8,0:0:0:0:
193,231,24525,1,0,0:0:0:0:
193,231,25071,1,8,0:0:0:0:
193,231,25616,1,0,0:0:0:0:
193,231,26162,1,8,0:0:0:0:
193,231,26707,1,0,0:0:0:0:
193,231,27253,1,8,0:0:0:0:
193,231,27798,1,0,0:0:0:0:
193,231,28344,1,8,0:0:0:0:
193,231,28889,1,8,0:0:0:0:
193,231,29435,1,0,0:0:0:0:
193,231,29980,1,0,0:0:0:0:
193,231,30525,1,8,0:0:0:0:
193,231,30798,1,0,0:0:0:0:
193,231,31071,1,8,0:0:0:0:
193,231,31344,1,0,0:0:0:0:
193,231,31616,1,8,0:0:0:0:
193,231,31889,1,0,0:0:0:0:
193,231,32162,1,8,0:0:0:0:
193,231,32435,1,0,0:0:0:0:
193,231,32707,1,8,0:0:0:0:
207,129,32980,1,8,0:0:0:0:
193,231,33253,1,0,0:0:0:0:
193,231,33525,1,0,0:0:0:0:
193,231,33798,1,8,0:0:0:0:
193,231,34071,1,0,0:0:0:0:
193,231,34344,1,8,0:0:0:0:
193,231,34616,1,8,0:0:0:0:
188,206,34889,5,4,0:0:0:0:
324,218,39116,1,8,0:0:0:0:
324,218,39185,1,8,0:0:0:0:
219,183,39253,1,4,0:0:0:0:
200,213,43344,1,8,0:0:0:0:
200,213,43480,1,8,0:0:0:0:
228,207,43616,1,4,0:0:0:0:
241,183,46889,1,8,0:0:0:0:
218,153,46957,1,8,0:0:0:0:
263,167,47025,1,0,0:0:0:0:
218,153,47094,1,0,0:0:0:0:
263,167,47162,1,8,0:0:0:0:
218,153,47230,1,8,0:0:0:0:
263,167,47298,1,8,0:0:0:0:
218,153,47366,1,8,0:0:0:0:
263,167,47435,1,0,0:0:0:0:
218,153,47503,1,0,0:0:0:0:
263,167,47571,1,8,0:0:0:0:
218,153,47639,1,0,0:0:0:0:
263,167,47707,1,8,0:0:0:0:
218,153,47775,1,8,0:0:0:0:
263,167,47844,1,0,0:0:0:0:
218,153,47912,1,0,0:0:0:0:
263,167,47980,1,8,0:0:0:0:
212,220,52344,5,4,0:0:0:0:
209,189,52889,1,8,0:0:0:0:
208,192,53980,1,8,0:0:0:0:
207,200,55071,1,8,0:0:0:0:
178,245,55616,1,8,0:0:0:0:
240,168,55685,1,8,0:0:0:0:
175,251,55753,1,0,0:0:0:0:
174,252,55889,1,0,0:0:0:0:
175,253,56025,1,8,0:0:0:0:
240,168,56094,1,8,0:0:0:0:
176,253,56162,1,0,0:0:0:0:
177,253,56298,1,0,0:0:0:0:
177,253,56435,1,8,0:0:0:0:
177,253,56571,1,8,0:0:0:0:
175,251,56707,1,4,0:0:0:0:
176,243,57253,1,8,0:0:0:0:
154,169,58344,1,8,0:0:0:0:
155,175,59435,1,8,0:0:0:0:
168,172,60389,1,0,0:0:0:0:
223,181,60457,1,0,0:0:0:0:
179,206,60525,1,8,0:0:0:0:
223,181,60594,1,8,0:0:0:0:
179,206,60662,1,8,0:0:0:0:
223,181,60730,1,8,0:0:0:0:
179,206,60798,1,0,0:0:0:0:
223,181,60866,1,0,0:0:0:0:
179,206,60935,1,8,0:0:0:0:
223,181,61003,1,8,0:0:0:0:
179,206,61071,1,4,0:0:0:0:
179,206,61616,1,8,0:0:0:0:
180,210,62707,1,8,0:0:0:0:
180,210,63798,1,8,0:0:0:0:
245,211,64889,1,8,0:0:0:0:
175,223,65435,1,8,0:0:0:0:
239,189,65503,1,8,0:0:0:0:
175,223,65571,1,0,0:0:0:0:
240,189,65639,1,0,0:0:0:0:
175,223,65707,1,8,0:0:0:0:
241,189,65775,1,0,0:0:0:0:
175,223,65844,1,8,0:0:0:0:
239,189,65912,1,8,0:0:0:0:
175,223,65980,1,8,0:0:0:0:
239,189,66048,1,8,0:0:0:0:
175,223,66116,1,0,0:0:0:0:
239,189,66185,1,0,0:0:0:0:
175,223,66253,1,8,0:0:0:0:
239,189,66321,1,0,0:0:0:0:
175,223,66389,1,0,0:0:0:0:
240,189,66457,1,0,0:0:0:0:
175,223,66525,1,8,0:0:0:0:
241,189,66594,1,8,0:0:0:0:
175,223,66662,1,0,0:0:0:0:
239,189,66730,1,0,0:0:0:0:
175,223,66798,1,8,0:0:0:0:
239,189,66866,1,0,0:0:0:0:
175,223,66935,1,8,0:0:0:0:
239,189,67003,1,8,0:0:0:0:
175,223,67071,1,0,0:0:0:0:
239,189,67139,1,0,0:0:0:0:
175,223,67207,1,0,0:0:0:0:
240,189,67275,1,0,0:0:0:0:
175,223,67344,1,8,0:0:0:0:
241,189,67412,1,8,0:0:0:0:
179,228,67480,1,0,0:0:0:0:
239,189,67548,1,0,0:0:0:0:
179,228,67616,1,8,0:0:0:0:
239,189,67685,1,8,0:0:0:0:
179,228,67753,1,8,0:0:0:0:
239,189,67821,1,0,0:0:0:0:
179,228,67889,1,8,0:0:0:0:
239,189,67957,1,8,0:0:0:0:
179,228,68025,1,0,0:0:0:0:
240,189,68094,1,0,0:0:0:0:
179,228,68162,1,8,0:0:0:0:
241,189,68230,1,0,0:0:0:0:
179,228,68298,1,8,0:0:0:0:
239,189,68366,1,0,0:0:0:0:
179,228,68435,1,8,0:0:0:0:
239,189,68503,1,8,0:0:0:0:
179,228,68571,1,0,0:0:0:0:
239,189,68639,1,0,0:0:0:0:
179,228,68707,1,8,0:0:0:0:
239,189,68775,1,8,0:0:0:0:
179,228,68844,1,8,0:0:0:0:
240,189,68912,1,8,0:0:0:0:
179,228,68980,1,0,0:0:0:0:
241,189,69048,1,0,0:0:0:0:
179,228,69116,1,8,0:0:0:0:
245,191,69185,1,0,0:0:0:0:
179,228,69253,1,8,0:0:0:0:
199,199,69321,1,8,0:0:0:0:
200,199,69389,1,0,0:0:0:0:
177,72,69457,1,0,0:0:0:0:
268,207,69525,1,8,0:0:0:0:
200,199,69594,1,0,0:0:0:0:
325,197,69662,1,0,0:0:0:0:
124,169,69730,1,0,0:0:0:0:
175,223,69798,1,8,0:0:0:0:
239,189,69866,1,0,0:0:0:0:
175,223,69935,1,8,0:0:0:0:
240,189,70003,1,0,0:0:0:0:
175,223,70071,1,8,0:0:0:0:
241,189,70139,1,8,0:0:0:0:
175,223,70207,1,8,0:0:0:0:
239,189,70275,1,0,0:0:0:0:
175,223,70344,1,8,0:0:0:0:
239,189,70412,1,8,0:0:0:0:
175,223,70480,1,0,0:0:0:0:
239,189,70548,1,0,0:0:0:0:
175,223,70616,1,8,0:0:0:0:
239,189,70685,1,0,0:0:0:0:
175,223,70753,1,8,0:0:0:0:
240,189,70821,1,8,0:0:0:0:
175,223,70889,1,0,0:0:0:0:
241,189,70957,1,0,0:0:0:0:
175,223,71025,1,0,0:0:0:0:
239,189,71094,1,0,0:0:0:0:
175,223,71162,1,8,0:0:0:0:
239,189,71230,1,8,0:0:0:0:
175,223,71298,1,8,0:0:0:0:
239,189,71366,1,0,0:0:0:0:
175,223,71435,1,8,0:0:0:0:
239,189,71503,1,8,0:0:0:0:
175,223,71571,1,0,0:0:0:0:
240,189,71639,1,0,0:0:0:0:
175,223,71707,1,8,0:0:0:0:
241,189,71775,1,0,0:0:0:0:
179,228,71844,1,0,0:0:0:0:
239,189,71912,1,0,0:0:0:0:
175,223,71980,1,8,0:0:0:0:
239,189,72048,1,0,0:0:0:0:
175,223,72116,1,8,0:0:0:0:
240,189,72185,1,0,0:0:0:0:
175,223,72253,1,8,0:0:0:0:
241,189,72321,1,8,0:0:0:0:
175,223,72389,1,0,0:0:0:0:
239,189,72457,1,0,0:0:0:0:
175,223,72525,1,8,0:0:0:0:
239,189,72594,1,8,0:0:0:0:
175,223,72662,1,8,0:0:0:0:
239,189,72730,1,8,0:0:0:0:
175,223,72798,1,0,0:0:0:0:
239,189,72866,1,0,0:0:0:0:
175,223,72935,1,8,0:0:0:0:
240,189,73003,1,0,0:0:0:0:
175,223,73071,1,8,0:0:0:0:
241,189,73139,1,8,0:0:0:0:
175,223,73207,1,0,0:0:0:0:
239,189,73275,1,0,0:0:0:0:
175,223,73344,1,8,0:0:0:0:
239,189,73412,1,0,0:0:0:0:
175,223,73480,1,0,0:0:0:0:
239,189,73548,1,0,0:0:0:0:
175,223,73616,1,8,0:0:0:0:
239,189,73685,1,8,0:0:0:0:
175,223,73753,1,8,0:0:0:0:
240,189,73821,1,8,0:0:0:0:
175,223,73889,1,0,0:0:0:0:
241,189,73957,1,0,0:0:0:0:
179,228,74025,1,8,0:0:0:0:
239,189,74094,1,0,0:0:0:0:
175,223,74162,1,8,0:0:0:0:
239,189,74230,1,8,0:0:0:0:
175,223,74298,1,0,0:0:0:0:
240,189,74366,1,0,0:0:0:0:
175,223,74435,1,8,0:0:0:0:
241,189,74503,1,8,0:0:0:0:
175,223,74571,1,8,0:0:0:0:
239,189,74639,1,0,0:0:0:0:
175,223,74707,1,8,0:0:0:0:
239,189,74775,1,8,0:0:0:0:
175,223,74844,1,0,0:0:0:0:
239,189,74912,1,0,0:0:0:0:
175,223,74980,1,8,0:0:0:0:
239,189,75048,1,0,0:0:0:0:
175,223,75116,1,8,0:0:0:0:
240,189,75185,1,0,0:0:0:0:
175,223,75253,1,8,0:0:0:0:
241,189,75321,1,8,0:0:0:0:
175,223,75389,1,0,0:0:0:0:
239,189,75457,1,0,0:0:0:0:
175,223,75525,1,8,0:0:0:0:
239,189,75594,1,8,0:0:0:0:
175,223,75662,1,8,0:0:0:0:
239,189,75730,1,8,0:0:0:0:
175,223,75798,1,0,0:0:0:0:
239,189,75866,1,0,0:0:0:0:
175,223,75935,1,8,0:0:0:0:
240,189,76003,1,0,0:0:0:0:
175,223,76071,1,8,0:0:0:0:
241,189,76139,1,8,0:0:0:0:
179,228,76207,1,0,0:0:0:0:
239,189,76275,1,0,0:0:0:0:
175,223,76344,1,8,0:0:0:0:
239,189,76412,1,0,0:0:0:0:
175,223,76480,1,8,0:0:0:0:
240,189,76548,1,0,0:0:0:0:
175,223,76616,1,8,0:0:0:0:
241,189,76685,1,8,0:0:0:0:
175,223,76753,1,0,0:0:0:0:
239,189,76821,1,0,0:0:0:0:
175,223,76889,1,8,0:0:0:0:
239,189,76957,1,8,0:0:0:0:
175,223,77025,1,8,0:0:0:0:
239,189,77094,1,8,0:0:0:0:
175,223,77162,1,0,0:0:0:0:
239,189,77230,1,0,0:0:0:0:
175,223,77298,1,8,0:0:0:0:
240,189,77366,1,0,0:0:0:0:
175,223,77435,1,8,0:0:0:0:
241,189,77503,1,8,0:0:0:0:
175,223,77571,1,8,0:0:0:0:
239,189,77639,1,0,0:0:0:0:
175,223,77707,1,8,0:0:0:0:
239,189,77775,1,8,0:0:0:0:
175,223,77844,1,0,0:0:0:0:
239,189,77912,1,0,0:0:0:0:
175,223,77980,1,8,0:0:0:0:
239,189,78048,1,0,0:0:0:0:
175,223,78116,1,0,0:0:0:0:
240,189,78185,1,0,0:0:0:0:
175,223,78253,1,8,0:0:0:0:
241,189,78321,1,8,0:0:0:0:
179,228,78389,1,8,0:0:0:0:
239,189,78457,1,8,0:0:0:0:
175,223,78525,1,0,0:0:0:0:
239,189,78594,1,0,0:0:0:0:
175,223,78662,1,8,0:0:0:0:
240,189,78730,1,0,0:0:0:0:
175,223,78798,1,8,0:0:0:0:
241,189,78866,1,8,0:0:0:0:
175,223,78935,1,0,0:0:0:0:
239,189,79003,1,0,0:0:0:0:
175,223,79071,1,8,0:0:0:0:
239,189,79139,1,8,0:0:0:0:
175,223,79207,1,8,0:0:0:0:
239,189,79275,1,0,0:0:0:0:
175,223,79344,1,8,0:0:0:0:
239,189,79412,1,8,0:0:0:0:
175,223,79480,1,0,0:0:0:0:
240,189,79548,1,0,0:0:0:0:
175,223,79616,1,8,0:0:0:0:
241,189,79685,1,0,0:0:0:0:
175,223,79753,1,8,0:0:0:0:
239,189,79821,1,0,0:0:0:0:
175,223,79889,1,8,0:0:0:0:
239,189,79957,1,8,0:0:0:0:
175,223,80025,1,0,0:0:0:0:
239,189,80094,1,0,0:0:0:0:
175,223,80162,1,8,0:0:0:0:
239,189,80230,1,8,0:0:0:0:
175,223,80298,1,8,0:0:0:0:
240,189,80366,1,8,0:0:0:0:
175,223,80435,1,0,0:0:0:0:
241,189,80503,1,0,0:0:0:0:
179,228,80571,1,8,0:0:0:0:
239,189,80639,1,0,0:0:0:0:
175,223,80707,1,8,0:0:0:0:
239,189,80775,1,8,0:0:0:0:
175,223,80844,1,8,0:0:0:0:
240,189,80912,1,0,0:0:0:0:
175,223,80980,1,8,0:0:0:0:
241,189,81048,1,0,0:0:0:0:
175,223,81116,1,8,0:0:0:0:
239,189,81185,1,8,0:0:0:0:
175,223,81253,1,0,0:0:0:0:
239,189,81321,1,0,0:0:0:0:
175,223,81389,1,8,0:0:0:0:
239,189,81457,1,0,0:0:0:0:
175,223,81525,1,8,0:0:0:0:
239,189,81594,1,8,0:0:0:0:
175,223,81662,1,0,0:0:0:0:
240,189,81730,1,0,0:0:0:0:
175,223,81798,1,8,0:0:0:0:
241,189,81866,1,0,0:0:0:0:
175,223,81935,1,8,0:0:0:0:
239,189,82003,1,0,0:0:0:0:
175,223,82071,1,8,0:0:0:0:
239,189,82139,1,8,0:0:0:0:
175,223,82207,1,8,0:0:0:0:
239,189,82275,1,8,0:0:0:0:
175,223,82344,1,0,0:0:0:0:
239,189,82412,1,0,0:0:0:0:
175,223,82480,1,8,0:0:0:0:
240,189,82548,1,0,0:0:0:0:
175,223,82616,1,8,0:0:0:0:
241,189,82685,1,8,0:0:0:0:
179,228,82753,1,0,0:0:0:0:
239,189,82821,1,0,0:0:0:0:
175,223,82889,1,8,0:0:0:0:
239,189,82957,1,0,0:0:0:0:
175,223,83025,1,8,0:0:0:0:
240,189,83094,1,0,0:0:0:0:
175,223,83162,1,8,0:0:0:0:
241,189,83230,1,8,0:0:0:0:
175,223,83298,1,0,0:0:0:0:
239,189,83366,1,0,0:0:0:0:
175,223,83435,1,8,0:0:0:0:
239,189,83503,1,0,0:0:0:0:
175,223,83571,1,0,0:0:0:0:
239,189,83639,1,0,0:0:0:0:
175,223,83707,1,8,0:0:0:0:
239,189,83775,1,8,0:0:0:0:
175,223,83844,1,0,0:0:0:0:
240,189,83912,1,0,0:0:0:0:
175,223,83980,1,8,0:0:0:0:
241,189,84048,1,0,0:0:0:0:
175,223,84116,1,8,0:0:0:0:
239,189,84185,1,0,0:0:0:0:
175,223,84253,1,8,0:0:0:0:
239,189,84321,1,8,0:0:0:0:
175,223,84389,1,8,0:0:0:0:
239,189,84457,1,8,0:0:0:0:
175,223,84525,1,0,0:0:0:0:
239,189,84594,1,0,0:0:0:0:
175,223,84662,1,0,0:0:0:0:
240,189,84730,1,0,0:0:0:0:
175,223,84798,1,8,0:0:0:0:
241,189,84866,1,0,0:0:0:0:
179,228,84935,1,8,0:0:0:0:
239,189,85003,1,0,0:0:0:0:
175,223,85071,1,8,0:0:0:0:
239,189,85139,1,8,0:0:0:0:
175,223,85207,1,8,0:0:0:0:
240,189,85275,1,0,0:0:0:0:
175,223,85344,1,8,0:0:0:0:
241,189,85412,1,8,0:0:0:0:
175,223,85480,1,0,0:0:0:0:
239,189,85548,1,0,0:0:0:0:
175,223,85616,1,8,0:0:0:0:
239,189,85685,1,8,0:0:0:0:
175,223,85753,1,8,0:0:0:0:
239,189,85821,1,8,0:0:0:0:
175,223,85889,1,0,0:0:0:0:
239,189,85957,1,0,0:0:0:0:
175,223,86025,1,8,0:0:0:0:
240,189,86094,1,0,0:0:0:0:
175,223,86162,1,8,0:0:0:0:
241,189,86230,1,8,0:0:0:0:
175,223,86298,1,8,0:0:0:0:
239,189,86366,1,8,0:0:0:0:
175,223,86435,1,0,0:0:0:0:
239,189,86503,1,0,0:0:0:0:
175,223,86571,1,8,0:0:0:0:
239,189,86639,1,0,0:0:0:0:
175,223,86707,1,8,0:0:0:0:
239,189,86775,1,8,0:0:0:0:
175,223,86844,1,0,0:0:0:0:
240,189,86912,1,0,0:0:0:0:
175,223,86980,1,8,0:0:0:0:
241,189,87048,1,8,0:0:0:0:
179,228,87116,1,8,0:0:0:0:
239,189,87185,1,8,0:0:0:0:
334,182,87253,1,0,0:0:0:0:
316,250,87389,1,0,0:0:0:0:
182,171,89298,1,0,0:0:0:0:
216,198,89366,1,0,0:0:0:0:
191,158,89435,1,8,0:0:0:0:
182,171,89571,1,8,0:0:0:0:
184,178,90935,1,0,0:0:0:0:
214,201,91003,1,0,0:0:0:0:
184,178,91071,1,8,0:0:0:0:
191,178,91275,1,0,0:0:0:0:
192,180,91480,1,0,0:0:0:0:
192,180,91616,1,4,0:0:0:0:
206,175,91753,1,4,0:0:0:0:
214,176,93798,1,0,0:0:0:0:
209,199,93935,1,0,0:0:0:0:
205,207,94889,1,8,0:0:0:0:
220,182,94957,1,8,0:0:0:0:
205,207,95025,1,8,0:0:0:0:
220,182,95094,1,8,0:0:0:0:
205,207,95162,1,0,0:0:0:0:
220,182,95230,1,0,0:0:0:0:
205,207,95298,1,8,0:0:0:0:
220,182,95366,1,0,0:0:0:0:
205,207,95435,1,8,0:0:0:0:
220,182,95503,1,8,0:0:0:0:
205,207,95571,1,0,0:0:0:0:
220,182,95639,1,0,0:0:0:0:
220,182,95707,1,8,0:0:0:0:
220,182,95775,1,8,0:0:0:0:
220,182,95844,1,8,0:0:0:0:
220,182,95912,1,8,0:0:0:0:
220,182,95980,1,0,0:0:0:0:
197,199,97616,1,8,0:0:0:0:
197,199,98162,1,0,0:0:0:0:
186,201,98298,1,8,0:0:0:0:
186,201,98434,1,0,0:0:0:0:
195,174,98502,1,0,0:0:0:0:
185,201,98571,1,8,0:0:0:0:
222,137,98639,1,0,0:0:0:0:
185,201,98707,1,8,0:0:0:0:
185,201,98843,1,0,0:0:0:0:
186,201,98980,1,8,0:0:0:0:
195,174,99048,1,8,0:0:0:0:
186,201,99116,1,0,0:0:0:0:
185,201,99252,1,8,0:0:0:0:
185,201,99389,1,0,0:0:0:0:
185,201,99525,1,8,0:0:0:0:
195,175,99593,1,8,0:0:0:0:
185,201,99662,1,0,0:0:0:0:
241,101,99730,1,0,0:0:0:0:
186,201,99798,1,8,0:0:0:0:
186,201,99934,1,0,0:0:0:0:
185,201,100071,1,8,0:0:0:0:
193,180,100139,1,8,0:0:0:0:
194,178,100207,1,8,0:0:0:0:
185,201,100343,1,0,0:0:0:0:
220,135,100412,1,0,0:0:0:0:
185,201,100480,1,8,0:0:0:0:
220,135,100548,1,0,0:0:0:0:
186,201,100616,1,8,0:0:0:0:
220,135,100684,1,8,0:0:0:0:
186,201,100752,1,0,0:0:0:0:
220,135,100821,1,0,0:0:0:0:
185,201,100889,1,8,0:0:0:0:
220,135,100957,1,0,0:0:0:0:
185,201,101025,1,0,0:0:0:0:
220,135,101093,1,0,0:0:0:0:
185,201,101162,1,8,0:0:0:0:
220,135,101230,1,8,0:0:0:0:
185,201,101298,1,8,0:0:0:0:
220,135,101366,1,8,0:0:0:0:
186,201,101434,1,0,0:0:0:0:
220,135,101502,1,0,0:0:0:0:
186,201,101571,1,8,0:0:0:0:
201,144,101639,1,0,0:0:0:0:
185,201,101707,1,8,0:0:0:0:
201,144,101775,1,0,0:0:0:0:
185,201,101843,1,8,0:0:0:0:
201,144,101912,1,0,0:0:0:0:
185,201,101980,1,8,0:0:0:0:
201,144,102048,1,8,0:0:0:0:
185,201,102116,1,0,0:0:0:0:
201,144,102184,1,0,0:0:0:0:
186,201,102252,1,8,0:0:0:0:
201,144,102321,1,8,0:0:0:0:
186,201,102389,1,8,0:0:0:0:
201,144,102457,1,8,0:0:0:0:
185,201,102525,1,0,0:0:0:0:
185,201,102662,1,8,0:0:0:0:
185,201,102798,1,0,0:0:0:0:
197,160,102866,1,0,0:0:0:0:
185,201,102934,1,8,0:0:0:0:
195,167,103002,1,8,0:0:0:0:
186,201,103071,1,0,0:0:0:0:
186,201,103207,1,0,0:0:0:0:
185,201,103343,1,8,0:0:0:0:
195,167,103412,1,8,0:0:0:0:
185,201,103480,1,0,0:0:0:0:
185,201,103616,1,8,0:0:0:0:
185,201,103752,1,0,0:0:0:0:
194,169,103889,1,8,0:0:0:0:
190,171,103957,1,0,0:0:0:0:
186,201,104025,1,0,0:0:0:0:
193,169,104093,1,0,0:0:0:0:
185,201,104162,1,8,0:0:0:0:
185,201,104298,1,0,0:0:0:0:
185,201,104434,1,8,0:0:0:0:
190,172,104502,1,8,0:0:0:0:
186,201,104571,1,0,0:0:0:0:
187,175,104707,1,8,0:0:0:0:
188,184,104775,1,8,0:0:0:0:
186,201,104843,1,0,0:0:0:0:
188,184,104912,1,0,0:0:0:0:
185,201,104980,1,8,0:0:0:0:
188,184,105048,1,0,0:0:0:0:
181,206,105116,1,0,0:0:0:0:
188,184,105184,1,0,0:0:0:0:
181,206,105252,1,8,0:0:0:0:
264,154,105321,1,8,0:0:0:0:
181,207,105389,1,0,0:0:0:0:
264,154,105457,1,0,0:0:0:0:
180,207,105525,1,8,0:0:0:0:
264,154,105593,1,0,0:0:0:0:
179,207,105662,1,8,0:0:0:0:
264,154,105730,1,0,0:0:0:0:
179,207,105798,1,8,0:0:0:0:
205,164,105866,1,8,0:0:0:0:
181,206,105934,1,8,0:0:0:0:
205,164,106002,1,8,0:0:0:0:
205,164,106071,1,0,0:0:0:0:
205,164,106139,1,0,0:0:0:0:
181,207,106207,1,8,0:0:0:0:
205,164,106275,1,0,0:0:0:0:
180,207,106343,1,8,0:0:0:0:
206,172,106412,1,8,0:0:0:0:
179,207,106480,1,0,0:0:0:0:
206,174,106548,1,0,0:0:0:0:
179,207,106616,1,8,0:0:0:0:
206,174,106684,1,8,0:0:0:0:
174,210,106752,1,8,0:0:0:0:
206,174,106821,1,8,0:0:0:0:
174,210,106889,1,0,0:0:0:0:
180,129,106957,1,0,0:0:0:0:
174,210,107025,1,0,0:0:0:0:
176,62,107093,1,0,0:0:0:0:
179,207,107162,1,8,0:0:0:0:
180,129,107230,1,0,0:0:0:0:
179,207,107298,1,8,0:0:0:0:
180,129,107366,1,0,0:0:0:0:
174,210,107434,1,8,0:0:0:0:
180,129,107502,1,8,0:0:0:0:
174,210,107571,1,0,0:0:0:0:
180,129,107639,1,0,0:0:0:0:
174,210,107707,1,8,0:0:0:0:
180,129,107775,1,0,0:0:0:0:
174,210,107843,1,0,0:0:0:0:
180,129,107912,1,0,0:0:0:0:
179,207,107980,1,8,0:0:0:0:
180,129,108048,1,0,0:0:0:0:
179,207,108116,1,8,0:0:0:0:
180,129,108184,1,8,0:0:0:0:
174,210,108252,1,0,0:0:0:0:
180,129,108321,1,0,0:0:0:0:
174,210,108389,1,8,0:0:0:0:
180,129,108457,1,8,0:0:0:0:
174,210,108525,1,8,0:0:0:0:
180,129,108593,1,0,0:0:0:0:
180,129,108662,1,8,0:0:0:0:
239,184,108730,1,8,0:0:0:0:
180,129,108798,1,0,0:0:0:0:
239,184,108866,1,0,0:0:0:0:
180,129,108934,1,8,0:0:0:0:
239,184,109002,1,0,0:0:0:0:
174,210,109071,1,8,0:0:0:0:
239,184,109139,1,8,0:0:0:0:
174,210,109207,1,0,0:0:0:0:
216,128,109275,1,0,0:0:0:0:
239,184,109343,1,8,0:0:0:0:
216,128,109412,1,0,0:0:0:0:
239,184,109480,1,0,0:0:0:0:
216,128,109548,1,0,0:0:0:0:
179,207,109616,1,8,0:0:0:0:
216,130,109684,1,8,0:0:0:0:
179,207,109752,1,8,0:0:0:0:
216,128,109821,1,8,0:0:0:0:
174,210,109889,1,0,0:0:0:0:
216,128,109957,1,0,0:0:0:0:
174,210,110025,1,8,0:0:0:0:
216,128,110093,1,0,0:0:0:0:
174,210,110162,1,8,0:0:0:0:
174,210,110298,1,0,0:0:0:0:
173,211,110434,1,0,0:0:0:0:
173,211,110571,1,8,0:0:0:0:
174,210,110707,1,0,0:0:0:0:
174,210,110843,1,0,0:0:0:0:
174,210,110980,1,8,0:0:0:0:
173,211,111116,1,8,0:0:0:0:
173,211,111252,1,0,0:0:0:0:
209,149,111321,1,0,0:0:0:0:
174,210,111389,1,8,0:0:0:0:
209,149,111457,1,0,0:0:0:0:
174,210,111525,1,8,0:0:0:0:
209,149,111593,1,8,0:0:0:0:
174,210,111662,1,0,0:0:0:0:
209,149,111730,1,0,0:0:0:0:
173,211,111798,1,8,0:0:0:0:
209,149,111866,1,0,0:0:0:0:
173,211,111934,1,0,0:0:0:0:
209,149,112002,1,0,0:0:0:0:
174,210,112071,1,8,0:0:0:0:
209,149,112139,1,0,0:0:0:0:
174,210,112207,1,8,0:0:0:0:
202,164,112275,1,0,0:0:0:0:
174,210,112343,1,8,0:0:0:0:
202,164,112412,1,8,0:0:0:0:
173,211,112480,1,0,0:0:0:0:
202,164,112548,1,0,0:0:0:0:
173,211,112616,1,8,0:0:0:0:
202,164,112684,1,0,0:0:0:0:
173,211,112752,1,0,0:0:0:0:
202,164,112821,1,0,0:0:0:0:
174,210,112889,1,8,0:0:0:0:
202,164,112957,1,8,0:0:0:0:
174,210,113025,1,8,0:0:0:0:
202,164,113093,1,8,0:0:0:0:
173,211,113162,1,0,0:0:0:0:
202,164,113230,1,0,0:0:0:0:
173,211,113298,1,8,0:0:0:0:
202,164,113366,1,0,0:0:0:0:
173,211,113434,1,8,0:0:0:0:
202,164,113502,1,8,0:0:0:0:
173,211,113571,1,0,0:0:0:0:
202,164,113639,1,0,0:0:0:0:
174,210,113707,1,8,0:0:0:0:
202,164,113775,1,0,0:0:0:0:
173,211,113843,1,8,0:0:0:0:
202,164,113912,1,0,0:0:0:0:
173,211,113980,1,8,0:0:0:0:
202,164,114048,1,0,0:0:0:0:
173,211,114116,1,0,0:0:0:0:
202,164,114184,1,0,0:0:0:0:
173,211,114252,1,8,0:0:0:0:
202,164,114321,1,8,0:0:0:0:
174,210,114389,1,0,0:0:0:0:
202,164,114457,1,0,0:0:0:0:
173,211,114525,1,8,0:0:0:0:
202,164,114593,1,8,0:0:0:0:
173,211,114662,1,8,0:0:0:0:
202,164,114730,1,0,0:0:0:0:
173,211,114798,1,8,0:0:0:0:
202,164,114866,1,8,0:0:0:0:
173,211,114934,1,0,0:0:0:0:
202,164,115002,1,0,0:0:0:0:
174,210,115071,1,8,0:0:0:0:
202,164,115139,1,8,0:0:0:0:
173,211,115207,1,8,0:0:0:0:
202,164,115275,1,8,0:0:0:0:
173,211,115343,1,0,0:0:0:0:
202,164,115412,1,0,0:0:0:0:
173,211,115480,1,8,0:0:0:0:
202,164,115548,1,8,0:0:0:0:
207,168,115616,1,0,0:0:0:0:
207,171,115684,1,0,0:0:0:0:
207,171,115752,1,8,0:0:0:0:
208,171,115821,1,0,0:0:0:0:
173,211,115889,1,8,0:0:0:0:
208,171,115957,1,0,0:0:0:0:
173,211,116025,1,8,0:0:0:0:
208,171,116093,1,8,0:0:0:0:
173,211,116162,1,8,0:0:0:0:
207,171,116230,1,0,0:0:0:0:
173,211,116298,1,8,0:0:0:0:
208,171,116366,1,8,0:0:0:0:
174,210,116434,1,0,0:0:0:0:
207,171,116502,1,0,0:0:0:0:
173,211,116571,1,8,0:0:0:0:
208,171,116639,1,0,0:0:0:0:
173,211,116707,1,8,0:0:0:0:
208,171,116775,1,0,0:0:0:0:
173,211,116843,1,0,0:0:0:0:
207,171,116912,1,0,0:0:0:0:
173,211,116980,1,8,0:0:0:0:
208,171,117048,1,8,0:0:0:0:
174,210,117116,1,0,0:0:0:0:
207,171,117184,1,0,0:0:0:0:
173,211,117252,1,8,0:0:0:0:
208,171,117321,1,8,0:0:0:0:
173,211,117389,1,8,0:0:0:0:
208,171,117457,1,8,0:0:0:0:
173,211,117525,1,0,0:0:0:0:
207,171,117593,1,0,0:0:0:0:
173,211,117662,1,8,0:0:0:0:
208,171,117730,1,0,0:0:0:0:
173,211,117798,1,8,0:0:0:0:
207,171,117866,1,8,0:0:0:0:
173,211,117934,1,0,0:0:0:0:
208,171,118002,1,0,0:0:0:0:
173,211,118071,1,8,0:0:0:0:
208,171,118139,1,8,0:0:0:0:
173,211,118207,1,8,0:0:0:0:
207,171,118275,1,0,0:0:0:0:
173,211,118343,1,8,0:0:0:0:
208,171,118412,1,8,0:0:0:0:
173,211,118480,1,0,0:0:0:0:
207,171,118548,1,0,0:0:0:0:
173,211,118616,1,8,0:0:0:0:
208,171,118684,1,0,0:0:0:0:
173,211,118752,1,0,0:0:0:0:
208,171,118821,1,0,0:0:0:0:
173,211,118889,1,8,0:0:0:0:
207,171,118957,1,8,0:0:0:0:
173,211,119025,1,8,0:0:0:0:
208,171,119093,1,8,0:0:0:0:
173,211,119162,1,0,0:0:0:0:
207,171,119230,1,0,0:0:0:0:
173,211,119298,1,8,0:0:0:0:
208,171,119366,1,0,0:0:0:0:
173,211,119434,1,8,0:0:0:0:
208,171,119502,1,8,0:0:0:0:
173,211,119571,1,0,0:0:0:0:
207,171,119639,1,0,0:0:0:0:
173,211,119707,1,8,0:0:0:0:
208,171,119775,1,0,0:0:0:0:
173,211,119843,1,8,0:0:0:0:
207,171,119912,1,0,0:0:0:0:
173,211,119980,1,8,0:0:0:0:
208,171,120048,1,8,0:0:0:0:
173,211,120116,1,0,0:0:0:0:
208,171,120184,1,0,0:0:0:0:
173,211,120252,1,8,0:0:0:0:
207,171,120321,1,0,0:0:0:0:
173,211,120389,1,0,0:0:0:0:
208,171,120457,1,0,0:0:0:0:
173,211,120525,1,8,0:0:0:0:
207,171,120593,1,0,0:0:0:0:
173,211,120662,1,8,0:0:0:0:
208,171,120730,1,0,0:0:0:0:
173,211,120798,1,8,0:0:0:0:
208,171,120866,1,8,0:0:0:0:
173,211,120934,1,0,0:0:0:0:
213,173,121002,1,0,0:0:0:0:
173,211,121071,1,8,0:0:0:0:
208,171,121139,1,8,0:0:0:0:
173,211,121207,1,8,0:0:0:0:
213,174,121275,1,0,0:0:0:0:
173,211,121343,1,8,0:0:0:0:
208,171,121412,1,8,0:0:0:0:
173,211,121480,1,0,0:0:0:0:
208,171,121548,1,0,0:0:0:0:
173,211,121616,1,8,0:0:0:0:
213,173,121684,1,0,0:0:0:0:
173,211,121752,1,0,0:0:0:0:
208,171,121821,1,0,0:0:0:0:
168,217,121889,1,8,0:0:0:0:
213,174,121957,1,0,0:0:0:0:
168,217,122025,1,8,0:0:0:0:
208,171,122093,1,8,0:0:0:0:
168,217,122162,1,0,0:0:0:0:
208,171,122230,1,0,0:0:0:0:
168,217,122298,1,0,0:0:0:0:
213,173,122366,1,0,0:0:0:0:
168,218,122434,1,8,0:0:0:0:
214,174,122502,1,0,0:0:0:0:
168,217,122571,1,8,0:0:0:0:
213,174,122639,1,0,0:0:0:0:
168,217,122707,1,8,0:0:0:0:
214,174,122775,1,8,0:0:0:0:
168,217,122843,1,0,0:0:0:0:
214,174,122912,1,0,0:0:0:0:
168,217,122980,1,8,0:0:0:0:
213,173,123048,1,8,0:0:0:0:
168,218,123116,1,8,0:0:0:0:
214,174,123184,1,8,0:0:0:0:
168,217,123252,1,0,0:0:0:0:
213,174,123321,1,0,0:0:0:0:
168,217,123389,1,8,0:0:0:0:
214,174,123457,1,0,0:0:0:0:
168,217,123525,1,8,0:0:0:0:
214,174,123593,1,0,0:0:0:0:
168,217,123662,1,8,0:0:0:0:
213,173,123730,1,8,0:0:0:0:
168,218,123798,1,0,0:0:0:0:
214,174,123866,1,0,0:0:0:0:
168,218,123934,1,0,0:0:0:0:
213,174,124002,1,0,0:0:0:0:
168,217,124071,1,8,0:0:0:0:
206,196,124139,1,0,0:0:0:0:
214,174,124207,1,8,0:0:0:0:
214,174,124275,1,8,0:0:0:0:
168,217,124343,1,0,0:0:0:0:
213,173,124412,1,0,0:0:0:0:
168,218,124480,1,8,0:0:0:0:
214,174,124548,1,0,0:0:0:0:
168,218,124616,1,8,0:0:0:0:
206,197,124684,1,8,0:0:0:0:
167,218,124752,1,0,0:0:0:0:
205,202,124821,1,0,0:0:0:0:
205,203,124889,1,8,0:0:0:0:
206,204,124957,1,0,0:0:0:0:
168,217,125025,1,0,0:0:0:0:
206,203,125093,1,0,0:0:0:0:
168,217,125162,1,8,0:0:0:0:
207,203,125230,1,0,0:0:0:0:
168,218,125298,1,8,0:0:0:0:
206,204,125366,1,0,0:0:0:0:
167,218,125434,1,8,0:0:0:0:
205,202,125502,1,8,0:0:0:0:
167,218,125571,1,0,0:0:0:0:
205,203,125639,1,0,0:0:0:0:
168,217,125707,1,8,0:0:0:0:
206,203,125775,1,8,0:0:0:0:
168,217,125843,1,8,0:0:0:0:
207,203,125912,1,0,0:0:0:0:
168,218,125980,1,8,0:0:0:0:
206,204,126048,1,8,0:0:0:0:
167,218,126116,1,0,0:0:0:0:
205,202,126184,1,0,0:0:0:0:
167,218,126252,1,8,0:0:0:0:
205,202,126321,1,0,0:0:0:0:
168,217,126389,1,0,0:0:0:0:
205,203,126457,1,0,0:0:0:0:
168,217,126525,1,8,0:0:0:0:
206,203,126593,1,0,0:0:0:0:
168,217,126662,1,8,0:0:0:0:
207,203,126730,1,8,0:0:0:0:
206,204,126798,1,8,0:0:0:0:
218,189,126866,1,0,0:0:0:0:
205,202,126934,1,8,0:0:0:0:
205,202,127002,1,8,0:0:0:0:
167,218,127071,1,0,0:0:0:0:
205,202,127139,1,0,0:0:0:0:
168,217,127207,1,8,0:0:0:0:
217,189,127275,1,8,0:0:0:0:
168,217,127343,1,8,0:0:0:0:
217,189,127412,1,8,0:0:0:0:
168,218,127480,1,0,0:0:0:0:
217,189,127548,1,0,0:0:0:0:
167,218,127616,1,8,0:0:0:0:
218,189,127684,1,0,0:0:0:0:
218,193,127752,1,8,0:0:0:0:
215,181,127821,1,0,0:0:0:0:
217,190,127889,1,8,0:0:0:0:
218,193,127957,1,8,0:0:0:0:
217,189,128025,1,0,0:0:0:0:
217,189,128093,1,0,0:0:0:0:
168,218,128162,1,8,0:0:0:0:
215,181,128230,1,8,0:0:0:0:
167,218,128298,1,8,0:0:0:0:
217,189,128366,1,8,0:0:0:0:
167,218,128434,1,0,0:0:0:0:
218,189,128502,1,0,0:0:0:0:
167,218,128571,1,8,0:0:0:0:
215,181,128639,1,0,0:0:0:0:
167,218,128707,1,8,0:0:0:0:
218,182,128775,1,8,0:0:0:0:
168,218,128843,1,0,0:0:0:0:
217,189,128912,1,0,0:0:0:0:
167,218,128980,1,8,0:0:0:0:
215,181,129048,1,0,0:0:0:0:
167,218,129116,1,0,0:0:0:0:
218,189,129184,1,0,0:0:0:0:
167,218,129252,1,8,0:0:0:0:
218,189,129321,1,0,0:0:0:0:
167,218,129389,1,8,0:0:0:0:
215,181,129457,1,0,0:0:0:0:
168,218,129525,1,8,0:0:0:0:
218,182,129593,1,8,0:0:0:0:
167,218,129662,1,0,0:0:0:0:
217,189,129730,1,0,0:0:0:0:
167,218,129798,1,8,0:0:0:0:
218,189,129866,1,8,0:0:0:0:
167,218,129934,1,8,0:0:0:0:
218,189,130002,1,8,0:0:0:0:
167,218,130071,1,0,0:0:0:0:
215,181,130139,1,0,0:0:0:0:
168,218,130207,1,8,0:0:0:0:
218,182,130275,1,0,0:0:0:0:
167,218,130343,1,8,0:0:0:0:
219,182,130412,1,8,0:0:0:0:
167,218,130480,1,0,0:0:0:0:
218,189,130548,1,0,0:0:0:0:
167,218,130616,1,8,0:0:0:0:
218,189,130684,1,0,0:0:0:0:
167,218,130752,1,8,0:0:0:0:
215,181,130821,1,0,0:0:0:0:
167,218,130889,1,8,0:0:0:0:
218,182,130957,1,8,0:0:0:0:
167,218,131025,1,0,0:0:0:0:
219,182,131093,1,0,0:0:0:0:
167,218,131162,1,8,0:0:0:0:
218,189,131230,1,0,0:0:0:0:
167,218,131298,1,0,0:0:0:0:
218,189,131366,1,0,0:0:0:0:
167,218,131434,1,8,0:0:0:0:
220,182,131502,1,8,0:0:0:0:
167,218,131571,1,0,0:0:0:0:
218,182,131639,1,0,0:0:0:0:
167,218,131707,1,8,0:0:0:0:
219,182,131775,1,8,0:0:0:0:
167,218,131843,1,0,0:0:0:0:
221,182,131912,1,0,0:0:0:0:
167,218,131980,1,8,0:0:0:0:
181,158,132048,1,0,0:0:0:0:
167,218,132116,1,8,0:0:0:0:
181,158,132184,1,0,0:0:0:0:
167,218,132252,1,0,0:0:0:0:
181,158,132321,1,0,0:0:0:0:
167,218,132389,1,8,0:0:0:0:
181,158,132457,1,8,0:0:0:0:
167,218,132525,1,8,0:0:0:0:
181,158,132593,1,8,0:0:0:0:
167,218,132662,1,0,0:0:0:0:
181,158,132730,1,0,0:0:0:0:
167,218,132798,1,8,0:0:0:0:
181,158,132866,1,8,0:0:0:0:
167,218,132934,1,8,0:0:0:0:
181,158,133002,1,8,0:0:0:0:
167,218,133071,1,0,0:0:0:0:
155,146,134162,1,0,0:0:0:0:
345,93,134230,1,0,0:0:0:0:
155,146,134434,1,0,0:0:0:0:
345,93,134502,1,0,0:0:0:0:
155,146,134707,1,8,0:0:0:0:
345,93,134775,1,8,0:0:0:0:
155,146,134980,1,0,0:0:0:0:
345,93,135048,1,0,0:0:0:0:
151,103,135252,1,8,0:0:0:0:
155,146,135321,1,0,0:0:0:0:
345,93,135389,1,8,0:0:0:0:
155,146,135457,1,8,0:0:0:0:
345,93,135525,1,0,0:0:0:0:
249,122,135798,1,8,0:0:0:0:
249,122,135866,1,8,0:0:0:0:
249,122,135934,1,8,0:0:0:0:
249,122,136002,1,8,0:0:0:0:
249,122,136071,1,0,0:0:0:0:
249,122,136343,1,0,0:0:0:0:
200,83,136412,1,0,0:0:0:0:
155,146,136616,1,0,0:0:0:0:
345,93,136684,1,0,0:0:0:0:
155,146,136889,1,8,0:0:0:0:
345,93,136957,1,8,0:0:0:0:
155,146,137162,1,0,0:0:0:0:
345,93,137230,1,0,0:0:0:0:
165,206,137434,1,8,0:0:0:0:
164,206,137525,1,8,0:0:0:0:
165,206,137616,1,8,0:0:0:0:
165,206,137707,1,8,0:0:0:0:
165,206,137798,1,0,0:0:0:0:
165,206,137889,1,0,0:0:0:0:
165,206,137980,1,8,0:0:0:0:
165,206,138071,1,8,0:0:0:0:
165,206,138162,1,0,0:0:0:0:
164,206,138252,1,0,0:0:0:0:
164,206,138343,1,8,0:0:0:0:
165,206,138434,1,8,0:0:0:0:
155,146,138525,1,0,0:0:0:0:
345,93,138593,1,0,0:0:0:0:
155,146,138798,1,0,0:0:0:0:
345,93,138866,1,0,0:0:0:0:
155,146,139071,1,8,0:0:0:0:
345,93,139139,1,8,0:0:0:0:
155,146,139343,1,0,0:0:0:0:
345,93,139412,1,0,0:0:0:0:
155,146,139616,1,8,0:0:0:0:
345,93,139684,1,0,0:0:0:0:
155,146,139752,1,8,0:0:0:0:
345,93,139821,1,8,0:0:0:0:
155,146,139889,1,0,0:0:0:0:
155,146,140162,1,8,0:0:0:0:
345,93,140230,1,8,0:0:0:0:
155,146,140298,1,8,0:0:0:0:
155,146,140366,1,8,0:0:0:0:
345,93,140434,1,0,0:0:0:0:
155,146,140707,1,0,0:0:0:0:
345,93,140775,1,0,0:0:0:0:
155,146,140980,1,0,0:0:0:0:
345,93,141048,1,0,0:0:0:0:
155,146,141252,1,8,0:0:0:0:
345,93,141321,1,8,0:0:0:0:
155,146,141525,1,0,0:0:0:0:
345,93,141593,1,0,0:0:0:0:
155,146,141798,1,8,0:0:0:0:
186,138,141889,1,8,0:0:0:0:
186,140,141980,1,8,0:0:0:0:
186,141,142071,1,8,0:0:0:0:
186,142,142162,1,0,0:0:0:0:
186,142,142252,1,0,0:0:0:0:
186,143,142343,1,8,0:0:0:0:
186,143,142434,1,8,0:0:0:0:
186,145,142525,1,0,0:0:0:0:
186,143,142616,1,0,0:0:0:0:
186,146,142707,1,8,0:0:0:0:
186,143,142798,1,8,0:0:0:0:
202,227,143162,1,0,0:0:0:0:
202,227,143230,1,0,0:0:0:0:
202,227,143434,1,8,0:0:0:0:
202,227,143502,1,8,0:0:0:0:
202,227,143707,1,0,0:0:0:0:
202,227,143775,1,0,0:0:0:0:
202,227,143980,1,0,0:0:0:0:
247,214,144048,1,0,0:0:0:0:
189,199,144252,1,0,0:0:0:0:
306,204,144321,1,0,0:0:0:0:
188,200,144525,1,8,0:0:0:0:
262,247,144593,1,8,0:0:0:0:
188,200,144798,1,0,0:0:0:0:
262,247,144866,1,0,0:0:0:0:
188,200,145343,1,0,0:0:0:0:
213,223,145412,1,0,0:0:0:0:
188,200,145616,1,8,0:0:0:0:
213,223,145684,1,8,0:0:0:0:
188,200,145889,1,0,0:0:0:0:
213,223,145957,1,0,0:0:0:0:
188,200,146162,1,0,0:0:0:0:
213,223,146230,1,0,0:0:0:0:
188,200,146434,1,0,0:0:0:0:
213,223,146502,1,0,0:0:0:0:
188,200,146707,1,8,0:0:0:0:
213,223,146775,1,8,0:0:0:0:
185,208,146843,1,8,0:0:0:0:
214,223,146912,1,8,0:0:0:0:
188,200,146980,1,0,0:0:0:0:
213,223,147048,1,0,0:0:0:0:
185,209,147116,1,8,0:0:0:0:
215,224,147184,1,8,0:0:0:0:
185,209,147252,1,0,0:0:0:0:
185,212,147525,1,0,0:0:0:0:
216,224,147593,1,0,0:0:0:0:
185,212,147798,1,8,0:0:0:0:
213,223,147866,1,8,0:0:0:0:
185,209,148071,1,0,0:0:0:0:
216,224,148139,1,0,0:0:0:0:
185,212,148343,1,0,0:0:0:0:
216,224,148412,1,0,0:0:0:0:
185,212,148616,1,0,0:0:0:0:
216,224,148684,1,0,0:0:0:0:
185,209,148889,1,8,0:0:0:0:
216,224,148957,1,8,0:0:0:0:
185,212,149162,1,0,0:0:0:0:
216,224,149230,1,0,0:0:0:0:
185,209,149707,1,0,0:0:0:0:
216,224,149775,1,0,0:0:0:0:
185,212,149980,1,8,0:0:0:0:
216,224,150048,1,8,0:0:0:0:
185,209,150252,1,0,0:0:0:0:
216,224,150321,1,0,0:0:0:0:
216,224,150525,1,0,0:0:0:0:
236,217,150593,1,0,0:0:0:0:
185,212,150798,1,0,0:0:0:0:
229,218,150866,1,0,0:0:0:0:
189,215,151071,1,8,0:0:0:0:
196,191,151480,1,8,0:0:0:0:
197,184,151616,1,0,0:0:0:0:
158,187,151684,1,0,0:0:0:0:
212,183,151889,1,0,0:0:0:0:
158,187,151957,1,0,0:0:0:0:
212,183,152162,1,8,0:0:0:0:
158,187,152230,1,8,0:0:0:0:
212,183,152434,1,0,0:0:0:0:
158,187,152502,1,0,0:0:0:0:
212,183,152707,1,8,0:0:0:0:
158,187,152775,1,0,0:0:0:0:
212,190,152843,1,8,0:0:0:0:
158,187,152912,1,8,0:0:0:0:
212,190,152980,1,0,0:0:0:0:
158,187,153252,1,8,0:0:0:0:
158,187,153321,1,8,0:0:0:0:
212,190,153389,1,8,0:0:0:0:
158,187,153457,1,8,0:0:0:0:
212,190,153525,1,0,0:0:0:0:
212,190,153798,1,0,0:0:0:0:
158,187,153866,1,0,0:0:0:0:
212,190,154071,1,0,0:0:0:0:
158,187,154139,1,0,0:0:0:0:
212,190,154343,1,8,0:0:0:0:
158,187,154412,1,8,0:0:0:0:
212,190,154616,1,0,0:0:0:0:
158,187,154684,1,0,0:0:0:0:
212,190,154889,1,8,0:0:0:0:
186,181,154980,1,8,0:0:0:0:
186,180,155071,1,8,0:0:0:0:
186,180,155162,1,8,0:0:0:0:
186,180,155252,1,0,0:0:0:0:
186,180,155343,1,0,0:0:0:0:
186,180,155434,1,8,0:0:0:0:
186,180,155525,1,8,0:0:0:0:
186,180,155616,1,0,0:0:0:0:
186,180,155707,1,0,0:0:0:0:
186,180,155798,1,8,0:0:0:0:
186,180,155889,1,8,0:0:0:0:
211,197,155980,1,0,0:0:0:0:
230,161,156048,1,0,0:0:0:0:
211,197,156252,1,0,0:0:0:0:
230,161,156321,1,0,0:0:0:0:
211,197,156525,1,8,0:0:0:0:
230,161,156593,1,8,0:0:0:0:
230,161,156798,1,0,0:0:0:0:
217,155,156866,1,0,0:0:0:0:
211,197,157071,1,8,0:0:0:0:
217,155,157139,1,0,0:0:0:0:
211,197,157207,1,8,0:0:0:0:
217,154,157275,1,8,0:0:0:0:
211,197,157343,1,0,0:0:0:0:
211,197,157616,1,8,0:0:0:0:
217,155,157684,1,8,0:0:0:0:
211,197,157752,1,8,0:0:0:0:
217,155,157821,1,8,0:0:0:0:
211,197,157889,1,0,0:0:0:0:
211,197,158162,1,0,0:0:0:0:
217,155,158230,1,0,0:0:0:0:
211,197,158434,1,0,0:0:0:0:
217,155,158502,1,0,0:0:0:0:
211,197,158707,1,8,0:0:0:0:
217,155,158775,1,8,0:0:0:0:
211,197,158980,1,0,0:0:0:0:
217,155,159048,1,0,0:0:0:0:
197,163,159252,1,8,0:0:0:0:
201,164,159343,1,8,0:0:0:0:
199,164,159434,1,8,0:0:0:0:
199,164,159525,1,8,0:0:0:0:
202,164,159616,1,0,0:0:0:0:
202,164,159707,1,0,0:0:0:0:
202,165,159798,1,8,0:0:0:0:
197,163,159889,1,8,0:0:0:0:
197,163,159980,1,0,0:0:0:0:
201,164,160071,1,0,0:0:0:0:
201,164,160162,1,8,0:0:0:0:
199,164,160252,1,8,0:0:0:0:
174,205,160616,1,0,0:0:0:0:
218,174,160684,1,0,0:0:0:0:
218,174,160889,1,8,0:0:0:0:
249,152,160957,1,8,0:0:0:0:
174,205,161162,1,0,0:0:0:0:
249,152,161230,1,0,0:0:0:0:
174,205,161434,1,0,0:0:0:0:
249,152,161502,1,0,0:0:0:0:
245,197,161707,1,0,0:0:0:0:
249,152,161775,1,0,0:0:0:0:
242,207,161980,1,8,0:0:0:0:
249,152,162048,1,8,0:0:0:0:
242,207,162252,1,0,0:0:0:0:
249,152,162321,1,0,0:0:0:0:
208,211,162798,1,0,0:0:0:0:
249,152,162866,1,0,0:0:0:0:
208,211,163071,1,8,0:0:0:0:
249,152,163139,1,8,0:0:0:0:
208,211,163343,1,0,0:0:0:0:
249,152,163412,1,0,0:0:0:0:
208,211,163616,1,0,0:0:0:0:
252,158,163684,1,0,0:0:0:0:
162,216,163889,1,0,0:0:0:0:
252,158,163957,1,0,0:0:0:0:
208,211,164162,1,8,0:0:0:0:
252,158,164230,1,8,0:0:0:0:
162,216,164298,1,8,0:0:0:0:
252,158,164366,1,8,0:0:0:0:
162,216,164434,1,0,0:0:0:0:
252,158,164502,1,0,0:0:0:0:
162,216,164571,1,8,0:0:0:0:
252,158,164639,1,8,0:0:0:0:
162,216,164707,1,0,0:0:0:0:
162,216,164980,1,0,0:0:0:0:
252,158,165048,1,0,0:0:0:0:
162,216,165252,1,8,0:0:0:0:
252,158,165321,1,8,0:0:0:0:
162,216,165525,1,0,0:0:0:0:
252,158,165593,1,0,0:0:0:0:
252,158,165798,1,0,0:0:0:0:
252,158,165866,1,0,0:0:0:0:
162,216,166071,1,0,0:0:0:0:
252,158,166139,1,0,0:0:0:0:
162,216,166343,1,8,0:0:0:0:
252,158,166412,1,8,0:0:0:0:
252,158,166616,1,0,0:0:0:0:
252,158,166684,1,0,0:0:0:0:
162,216,167162,1,0,0:0:0:0:
252,158,167230,1,0,0:0:0:0:
162,216,167434,1,8,0:0:0:0:
252,158,167502,1,8,0:0:0:0:
162,216,167707,1,0,0:0:0:0:
252,158,167775,1,0,0:0:0:0:
162,216,167980,1,0,0:0:0:0:
252,158,168048,1,0,0:0:0:0:
196,202,168252,1,0,0:0:0:0:
252,158,168321,1,0,0:0:0:0:
196,202,168525,1,8,0:0:0:0:
196,202,169071,1,8,0:0:0:0:
183,178,169207,1,8,0:0:0:0:
183,178,169343,1,8,0:0:0:0:
253,140,169480,1,0,0:0:0:0:
182,179,169616,1,8,0:0:0:0:
203,146,169684,1,8,0:0:0:0:
182,179,169752,1,0,0:0:0:0:
203,146,169821,1,0,0:0:0:0:
182,179,169889,1,8,0:0:0:0:
183,178,170025,1,0,0:0:0:0:
183,178,170162,1,8,0:0:0:0:
182,179,170298,1,8,0:0:0:0:
182,179,170434,1,0,0:0:0:0:
182,179,170571,1,8,0:0:0:0:
182,179,170707,1,0,0:0:0:0:
202,148,170775,1,0,0:0:0:0:
183,178,170843,1,0,0:0:0:0:
202,148,170912,1,0,0:0:0:0:
183,178,170980,1,8,0:0:0:0:
182,179,171116,1,0,0:0:0:0:
182,179,171252,1,8,0:0:0:0:
182,179,171389,1,0,0:0:0:0:
182,179,171525,1,8,0:0:0:0:
183,178,171662,1,8,0:0:0:0:
183,178,171798,1,0,0:0:0:0:
202,148,171866,1,0,0:0:0:0:
184,185,171934,1,8,0:0:0:0:
202,148,172002,1,0,0:0:0:0:
184,185,172071,1,8,0:0:0:0:
202,148,172139,1,8,0:0:0:0:
202,148,172207,1,0,0:0:0:0:
202,148,172275,1,0,0:0:0:0:
185,186,172343,1,8,0:0:0:0:
185,186,172480,1,0,0:0:0:0:
185,186,172616,1,8,0:0:0:0:
184,185,172752,1,0,0:0:0:0:
184,185,172889,1,8,0:0:0:0:
202,148,172957,1,8,0:0:0:0:
202,148,173025,1,0,0:0:0:0:
202,148,173093,1,0,0:0:0:0:
185,186,173162,1,8,0:0:0:0:
185,186,173298,1,0,0:0:0:0:
185,186,173434,1,8,0:0:0:0:
202,148,173502,1,0,0:0:0:0:
184,185,173571,1,8,0:0:0:0:
202,148,173639,1,8,0:0:0:0:
184,185,173707,1,8,0:0:0:0:
202,148,173775,1,0,0:0:0:0:
185,186,173843,1,8,0:0:0:0:
202,148,173912,1,8,0:0:0:0:
185,186,173980,1,0,0:0:0:0:
202,148,174048,1,0,0:0:0:0:
185,186,174116,1,8,0:0:0:0:
202,148,174184,1,0,0:0:0:0:
185,186,174252,1,8,0:0:0:0:
202,148,174321,1,8,0:0:0:0:
184,185,174389,1,0,0:0:0:0:
202,148,174457,1,0,0:0:0:0:
184,185,174525,1,8,0:0:0:0:
202,148,174593,1,0,0:0:0:0:
185,186,174662,1,8,0:0:0:0:
202,148,174730,1,0,0:0:0:0:
185,186,174798,1,8,0:0:0:0:
202,148,174866,1,8,0:0:0:0:
185,186,174934,1,0,0:0:0:0:
202,148,175002,1,0,0:0:0:0:
185,186,175071,1,8,0:0:0:0:
202,148,175139,1,0,0:0:0:0:
184,185,175207,1,0,0:0:0:0:
202,148,175275,1,0,0:0:0:0:
184,185,175343,1,8,0:0:0:0:
202,148,175412,1,0,0:0:0:0:
185,186,175480,1,8,0:0:0:0:
202,148,175548,1,8,0:0:0:0:
185,186,175616,1,0,0:0:0:0:
202,148,175684,1,0,0:0:0:0:
185,186,175752,1,0,0:0:0:0:
202,148,175821,1,0,0:0:0:0:
184,185,175889,1,8,0:0:0:0:
202,148,175957,1,0,0:0:0:0:
184,185,176025,1,8,0:0:0:0:
202,148,176093,1,0,0:0:0:0:
184,185,176162,1,8,0:0:0:0:
202,148,176230,1,8,0:0:0:0:
185,186,176298,1,0,0:0:0:0:
202,148,176366,1,0,0:0:0:0:
185,186,176434,1,8,0:0:0:0:
202,148,176502,1,8,0:0:0:0:
185,186,176571,1,8,0:0:0:0:
202,148,176639,1,8,0:0:0:0:
184,185,176707,1,0,0:0:0:0:
184,185,176843,1,0,0:0:0:0:
184,185,176980,1,8,0:0:0:0:
185,186,177116,1,0,0:0:0:0:
185,186,177252,1,8,0:0:0:0:
221,154,177321,1,8,0:0:0:0:
221,154,177389,1,8,0:0:0:0:
204,153,177457,1,8,0:0:0:0:
184,185,177525,1,0,0:0:0:0:
221,154,177593,1,0,0:0:0:0:
184,185,177662,1,8,0:0:0:0:
221,154,177730,1,0,0:0:0:0:
184,185,177798,1,8,0:0:0:0:
185,186,177934,1,0,0:0:0:0:
149,164,178071,1,8,0:0:0:0:
149,164,178207,1,0,0:0:0:0:
200,152,178343,1,8,0:0:0:0:
164,174,178412,1,8,0:0:0:0:
252,288,178480,1,0,0:0:0:0:
167,177,178616,1,8,0:0:0:0:
168,178,178684,1,8,0:0:0:0:
248,206,178752,1,8,0:0:0:0:
248,206,178889,1,0,0:0:0:0:
171,180,178957,1,0,0:0:0:0:
248,206,179025,1,8,0:0:0:0:
171,180,179162,1,0,0:0:0:0:
171,180,179298,1,0,0:0:0:0:
173,180,179434,1,8,0:0:0:0:
211,214,179502,1,8,0:0:0:0:
168,178,179571,1,0,0:0:0:0:
171,180,179707,1,8,0:0:0:0:
215,215,179775,1,8,0:0:0:0:
211,214,179843,1,8,0:0:0:0:
211,214,179980,1,0,0:0:0:0:
211,214,180048,1,0,0:0:0:0:
211,214,180116,1,0,0:0:0:0:
174,182,180252,1,8,0:0:0:0:
176,183,180389,1,0,0:0:0:0:
176,186,180525,1,8,0:0:0:0:
226,176,180593,1,8,0:0:0:0:
226,176,180662,1,8,0:0:0:0:
186,203,180798,1,0,0:0:0:0:
186,203,180866,1,0,0:0:0:0:
174,182,180934,1,0,0:0:0:0:
176,183,181071,1,8,0:0:0:0:
229,146,181139,1,8,0:0:0:0:
176,186,181207,1,0,0:0:0:0:
176,186,181343,1,8,0:0:0:0:
176,186,181480,1,0,0:0:0:0:
229,146,181548,1,0,0:0:0:0:
174,182,181616,1,8,0:0:0:0:
176,183,181752,1,0,0:0:0:0:
176,183,181889,1,8,0:0:0:0:
176,186,182025,1,0,0:0:0:0:
176,186,182162,1,8,0:0:0:0:
229,146,182230,1,8,0:0:0:0:
174,182,182298,1,0,0:0:0:0:
229,146,182366,1,0,0:0:0:0:
176,183,182434,1,8,0:0:0:0:
229,146,182502,1,0,0:0:0:0:
176,183,182571,1,8,0:0:0:0:
228,146,182639,1,8,0:0:0:0:
176,186,182707,1,0,0:0:0:0:
202,153,182775,1,0,0:0:0:0:
176,186,182843,1,0,0:0:0:0:
203,153,182912,1,0,0:0:0:0:
174,182,182980,1,8,0:0:0:0:
203,153,183048,1,0,0:0:0:0:
176,183,183116,1,8,0:0:0:0:
203,153,183184,1,8,0:0:0:0:
176,183,183252,1,0,0:0:0:0:
203,153,183321,1,0,0:0:0:0:
176,183,183389,1,8,0:0:0:0:
202,153,183457,1,0,0:0:0:0:
176,186,183525,1,8,0:0:0:0:
203,153,183593,1,8,0:0:0:0:
176,186,183662,1,8,0:0:0:0:
203,153,183730,1,0,0:0:0:0:
179,187,183798,1,8,0:0:0:0:
203,153,183866,1,8,0:0:0:0:
176,183,183934,1,0,0:0:0:0:
203,153,184002,1,0,0:0:0:0:
176,183,184071,1,8,0:0:0:0:
202,153,184139,1,0,0:0:0:0:
176,183,184207,1,0,0:0:0:0:
203,153,184275,1,0,0:0:0:0:
176,186,184343,1,8,0:0:0:0:
209,151,184412,1,0,0:0:0:0:
203,153,184480,1,8,0:0:0:0:
209,151,184548,1,0,0:0:0:0:
179,187,184616,1,8,0:0:0:0:
209,151,184684,1,8,0:0:0:0:
176,183,184752,1,0,0:0:0:0:
210,151,184821,1,0,0:0:0:0:
176,183,184889,1,8,0:0:0:0:
210,151,184957,1,8,0:0:0:0:
181,187,185025,1,8,0:0:0:0:
211,151,185093,1,8,0:0:0:0:
176,186,185162,1,0,0:0:0:0:
209,151,185230,1,0,0:0:0:0:
209,151,185298,1,8,0:0:0:0:
209,151,185366,1,0,0:0:0:0:
179,187,185434,1,8,0:0:0:0:
183,187,185571,1,0,0:0:0:0:
183,187,185707,1,8,0:0:0:0:
197,175,185843,1,0,0:0:0:0:
197,175,185980,1,8,0:0:0:0:
209,151,186048,1,8,0:0:0:0:
197,175,186116,1,8,0:0:0:0:
209,151,186184,1,8,0:0:0:0:
213,151,186252,1,0,0:0:0:0:
213,151,186321,1,0,0:0:0:0:
213,151,186389,1,8,0:0:0:0:
213,151,186457,1,0,0:0:0:0:
198,191,186525,1,8,0:0:0:0:
173,193,186798,1,0,0:0:0:0:
173,193,186934,1,0,0:0:0:0:
173,193,187071,1,8,0:0:0:0:
173,193,187207,1,8,0:0:0:0:
173,193,187343,1,0,0:0:0:0:
173,193,187480,1,8,0:0:0:0:
173,193,187616,1,4,0:0:0:0:
173,193,187889,1,8,0:0:0:0:
217,157,187957,1,8,0:0:0:0:
173,193,188025,1,8,0:0:0:0:
217,157,188093,1,8,0:0:0:0:
173,193,188162,1,0,0:0:0:0:
217,157,188230,1,0,0:0:0:0:
173,193,188298,1,8,0:0:0:0:
217,157,188366,1,0,0:0:0:0:
173,193,188434,1,8,0:0:0:0:
217,157,188502,1,0,0:0:0:0:
177,198,188571,1,8,0:0:0:0:
217,157,188639,1,8,0:0:0:0:
177,198,188707,1,4,0:0:0:0:
178,199,188980,1,8,0:0:0:0:
217,157,189048,1,0,0:0:0:0:
178,199,189116,1,8,0:0:0:0:
217,157,189184,1,0,0:0:0:0:
177,198,189252,1,8,0:0:0:0:
217,157,189321,1,0,0:0:0:0:
177,198,189389,1,8,0:0:0:0:
217,157,189457,1,0,0:0:0:0:
177,198,189525,1,8,0:0:0:0:
217,157,189593,1,0,0:0:0:0:
178,199,189662,1,8,0:0:0:0:
217,157,189730,1,8,0:0:0:0:
178,199,189798,1,4,0:0:0:0:
183,201,190071,1,8,0:0:0:0:
217,157,190139,1,0,0:0:0:0:
195,180,190207,1,8,0:0:0:0:
217,157,190275,1,8,0:0:0:0:
195,180,190343,1,8,0:0:0:0:
217,157,190412,1,0,0:0:0:0:
195,180,190480,1,8,0:0:0:0:
217,157,190548,1,8,0:0:0:0:
195,180,190616,1,0,0:0:0:0:
217,157,190684,1,0,0:0:0:0:
195,180,190752,1,8,0:0:0:0:
217,157,190821,1,8,0:0:0:0:
195,180,190889,1,4,0:0:0:0:
195,180,191162,1,0,0:0:0:0:
223,171,191230,1,0,0:0:0:0:
195,180,191298,1,0,0:0:0:0:
223,171,191366,1,0,0:0:0:0:
195,180,191434,1,8,0:0:0:0:
223,171,191502,1,8,0:0:0:0:
195,180,191571,1,0,0:0:0:0:
223,171,191639,1,0,0:0:0:0:
195,180,191707,1,8,0:0:0:0:
238,184,191775,1,0,0:0:0:0:
197,182,191843,1,8,0:0:0:0:
240,187,191912,1,8,0:0:0:0:
195,180,191980,1,4,0:0:0:0:
195,180,192252,1,8,0:0:0:0:
195,180,192389,1,0,0:0:0:0:
197,182,192525,1,8,0:0:0:0:
195,180,192662,1,0,0:0:0:0:
195,180,192798,1,8,0:0:0:0:
200,184,192934,1,8,0:0:0:0:
201,184,193071,1,0,0:0:0:0:
244,153,193139,1,0,0:0:0:0:
203,187,193207,1,8,0:0:0:0:
244,153,193275,1,0,0:0:0:0:
203,187,193343,1,8,0:0:0:0:
244,153,193412,1,8,0:0:0:0:
203,187,193480,1,0,0:0:0:0:
244,153,193548,1,0,0:0:0:0:
203,187,193616,1,8,0:0:0:0:
244,153,193684,1,0,0:0:0:0:
200,184,193752,1,0,0:0:0:0:
244,153,193821,1,0,0:0:0:0:
201,184,193889,1,8,0:0:0:0:
244,153,193957,1,0,0:0:0:0:
203,187,194025,1,8,0:0:0:0:
244,153,194093,1,8,0:0:0:0:
203,187,194162,1,0,0:0:0:0:
244,153,194230,1,0,0:0:0:0:
203,187,194298,1,0,0:0:0:0:
244,153,194366,1,0,0:0:0:0:
200,184,194434,1,8,0:0:0:0:
244,153,194502,1,8,0:0:0:0:
200,184,194571,1,0,0:0:0:0:
244,153,194639,1,0,0:0:0:0:
203,187,194707,1,8,0:0:0:0:
244,153,194775,1,0,0:0:0:0:
203,187,194843,1,8,0:0:0:0:
244,153,194912,1,0,0:0:0:0:
203,187,194980,1,8,0:0:0:0:
244,153,195048,1,8,0:0:0:0:
244,153,195116,1,8,0:0:0:0:
244,153,195184,1,8,0:0:0:0:
244,153,195252,1,0,0:0:0:0:
190,183,195525,1,8,0:0:0:0:
190,183,195662,1,8,0:0:0:0:
190,183,195798,1,0,0:0:0:0:
191,184,195934,1,0,0:0:0:0:
190,183,196071,1,8,0:0:0:0:
190,183,196207,1,8,0:0:0:0:
190,183,196343,1,4,0:0:0:0:
196,186,196616,1,8,0:0:0:0:
247,155,196684,1,0,0:0:0:0:
196,186,196752,1,8,0:0:0:0:
247,155,196821,1,8,0:0:0:0:
196,186,196889,1,0,0:0:0:0:
247,155,196957,1,0,0:0:0:0:
196,186,197025,1,0,0:0:0:0:
247,155,197093,1,0,0:0:0:0:
196,186,197162,1,8,0:0:0:0:
247,155,197230,1,8,0:0:0:0:
196,186,197298,1,8,0:0:0:0:
247,155,197366,1,8,0:0:0:0:
196,186,197434,1,4,0:0:0:0:
196,186,197707,1,8,0:0:0:0:
247,155,197775,1,0,0:0:0:0:
196,186,197843,1,8,0:0:0:0:
247,155,197912,1,0,0:0:0:0:
196,186,197980,1,8,0:0:0:0:
247,155,198048,1,0,0:0:0:0:
196,186,198116,1,8,0:0:0:0:
247,155,198184,1,0,0:0:0:0:
196,186,198252,1,8,0:0:0:0:
247,155,198321,1,0,0:0:0:0:
196,186,198389,1,8,0:0:0:0:
247,155,198457,1,8,0:0:0:0:
196,186,198525,1,4,0:0:0:0:
196,186,198798,1,8,0:0:0:0:
247,155,198866,1,8,0:0:0:0:
196,186,198934,1,8,0:0:0:0:
247,155,199002,1,0,0:0:0:0:
196,186,199071,1,8,0:0:0:0:
247,155,199139,1,0,0:0:0:0:
196,186,199207,1,8,0:0:0:0:
247,155,199275,1,8,0:0:0:0:
196,186,199343,1,0,0:0:0:0:
247,155,199412,1,0,0:0:0:0:
196,186,199480,1,8,0:0:0:0:
247,155,199548,1,8,0:0:0:0:
196,186,199616,1,4,0:0:0:0:
196,186,199889,1,0,0:0:0:0:
247,155,199957,1,0,0:0:0:0:
196,186,200025,1,0,0:0:0:0:
247,155,200093,1,0,0:0:0:0:
196,186,200162,1,8,0:0:0:0:
247,155,200230,1,8,0:0:0:0:
196,186,200298,1,0,0:0:0:0:
247,155,200366,1,0,0:0:0:0:
196,186,200434,1,8,0:0:0:0:
247,155,200502,1,8,0:0:0:0:
196,186,200571,1,8,0:0:0:0:
247,155,200639,1,8,0:0:0:0:
196,186,200707,1,4,0:0:0:0:
196,186,200980,1,8,0:0:0:0:
196,186,201116,1,0,0:0:0:0:
196,186,201252,1,8,0:0:0:0:
201,190,201389,1,0,0:0:0:0:
201,190,201525,1,8,0:0:0:0:
201,190,201662,1,8,0:0:0:0:
252,157,201798,1,0,0:0:0:0:
252,157,201866,1,0,0:0:0:0:
202,192,201934,1,8,0:0:0:0:
252,157,202002,1,8,0:0:0:0:
201,190,202071,1,0,0:0:0:0:
252,157,202139,1,0,0:0:0:0:
201,190,202207,1,0,0:0:0:0:
252,157,202275,1,0,0:0:0:0:
201,190,202343,1,8,0:0:0:0:
252,157,202412,1,0,0:0:0:0:
201,191,202480,1,8,0:0:0:0:
252,157,202548,1,8,0:0:0:0:
202,192,202616,1,0,0:0:0:0:
252,157,202684,1,0,0:0:0:0:
201,190,202752,1,8,0:0:0:0:
252,157,202821,1,0,0:0:0:0:
201,190,202889,1,12,0:0:0:0:
190,163,205071,1,0,0:0:0:0:
190,174,205616,1,0,0:0:0:0:
190,174,206162,1,8,0:0:0:0:
286,161,206252,1,8,0:0:0:0:
286,161,206343,1,0,0:0:0:0:
286,161,206434,1,8,0:0:0:0:
286,161,206525,1,8,0:0:0:0:
286,161,206616,1,0,0:0:0:0:
286,161,206707,1,8,0:0:0:0:
195,180,207252,1,0,0:0:0:0:
247,200,207662,1,0,0:0:0:0:
248,187,207798,1,8,0:0:0:0:
206,166,207866,1,8,0:0:0:0:
248,187,207934,1,0,0:0:0:0:
207,167,208002,1,0,0:0:0:0:
242,207,208071,1,0,0:0:0:0:
242,207,208480,1,0,0:0:0:0:
216,199,208752,1,0,0:0:0:0:
216,199,208889,1,8,0:0:0:0:
224,169,208957,1,0,0:0:0:0:
224,170,209025,1,8,0:0:0:0:
224,169,209093,1,8,0:0:0:0:
216,199,209162,1,0,0:0:0:0:
216,199,209434,1,0,0:0:0:0:
216,199,209571,1,0,0:0:0:0:
216,199,209707,1,0,0:0:0:0:
216,199,209843,1,0,0:0:0:0:
216,199,209980,1,8,0:0:0:0:
225,150,210048,1,8,0:0:0:0:
216,199,210116,1,8,0:0:0:0:
225,150,210184,1,8,0:0:0:0:
216,199,210252,1,0,0:0:0:0:
212,176,210389,1,0,0:0:0:0:
203,186,210662,1,8,0:0:0:0:
197,189,210798,1,0,0:0:0:0:
224,163,210866,1,0,0:0:0:0:
201,189,211071,1,8,0:0:0:0:
242,149,211139,1,8,0:0:0:0:
200,146,211207,1,0,0:0:0:0:
242,149,211275,1,0,0:0:0:0:
200,146,211343,1,8,0:0:0:0:
242,150,211412,1,8,0:0:0:0:
200,146,211480,1,8,0:0:0:0:
242,150,211548,1,8,0:0:0:0:
195,180,211616,1,0,0:0:0:0:
247,200,212025,1,0,0:0:0:0:
248,187,212162,1,8,0:0:0:0:
206,166,212230,1,8,0:0:0:0:
248,187,212298,1,8,0:0:0:0:
207,167,212366,1,8,0:0:0:0:
242,207,212434,1,0,0:0:0:0:
242,207,212843,1,0,0:0:0:0:
216,199,213116,1,0,0:0:0:0:
216,199,213252,1,8,0:0:0:0:
224,169,213321,1,8,0:0:0:0:
224,170,213389,1,0,0:0:0:0:
224,169,213457,1,0,0:0:0:0:
216,199,213525,1,0,0:0:0:0:
216,199,213798,1,0,0:0:0:0:
216,199,213934,1,0,0:0:0:0:
216,199,214071,1,0,0:0:0:0:
216,199,214207,1,0,0:0:0:0:
216,199,214343,1,8,0:0:0:0:
225,150,214412,1,0,0:0:0:0:
216,199,214480,1,8,0:0:0:0:
225,150,214548,1,8,0:0:0:0:
216,199,214616,1,0,0:0:0:0:
212,176,214752,1,0,0:0:0:0:
203,186,215025,1,8,0:0:0:0:
197,189,215162,1,0,0:0:0:0:
224,163,215230,1,0,0:0:0:0:
201,189,215434,1,8,0:0:0:0:
242,149,215502,1,8,0:0:0:0:
200,146,215571,1,0,0:0:0:0:
242,149,215639,1,0,0:0:0:0:
200,146,215707,1,8,0:0:0:0:
242,150,215775,1,8,0:0:0:0:
200,146,215843,1,8,0:0:0:0:
242,150,215912,1,8,0:0:0:0:
195,180,215980,1,0,0:0:0:0:
247,200,216389,1,0,0:0:0:0:
248,187,216525,1,8,0:0:0:0:
206,166,216593,1,8,0:0:0:0:
248,187,216662,1,0,0:0:0:0:
207,167,216730,1,0,0:0:0:0:
242,207,216798,1,0,0:0:0:0:
242,207,217207,1,0,0:0:0:0:
216,199,217480,1,0,0:0:0:0:
216,199,217616,1,8,0:0:0:0:
224,169,217684,1,0,0:0:0:0:
224,170,217752,1,8,0:0:0:0:
224,169,217821,1,8,0:0:0:0:
216,199,217889,1,0,0:0:0:0:
216,199,218162,1,0,0:0:0:0:
216,199,218298,1,0,0:0:0:0:
216,199,218434,1,0,0:0:0:0:
216,199,218571,1,0,0:0:0:0:
216,199,218707,1,8,0:0:0:0:
225,150,218775,1,8,0:0:0:0:
216,199,218843,1,8,0:0:0:0:
225,150,218912,1,8,0:0:0:0:
216,199,218980,1,0,0:0:0:0:
212,176,219116,1,0,0:0:0:0:
203,186,219389,1,8,0:0:0:0:
197,189,219525,1,0,0:0:0:0:
224,163,219593,1,0,0:0:0:0:
201,189,219798,1,8,0:0:0:0:
242,149,219866,1,8,0:0:0:0:
200,146,219934,1,0,0:0:0:0:
242,149,220002,1,0,0:0:0:0:
200,146,220071,1,8,0:0:0:0:
242,150,220139,1,8,0:0:0:0:
200,146,220207,1,8,0:0:0:0:
242,150,220275,1,8,0:0:0:0:
195,180,220343,1,0,0:0:0:0:
247,200,220752,1,0,0:0:0:0:
248,187,220889,1,8,0:0:0:0:
206,166,220957,1,8,0:0:0:0:
248,187,221025,1,8,0:0:0:0:
207,167,221093,1,8,0:0:0:0:
242,207,221162,1,0,0:0:0:0:
242,207,221571,1,0,0:0:0:0:
216,199,221843,1,0,0:0:0:0:
216,199,221980,1,8,0:0:0:0:
224,169,222048,1,8,0:0:0:0:
224,170,222116,1,0,0:0:0:0:
224,169,222184,1,0,0:0:0:0:
216,199,222252,1,0,0:0:0:0:
216,199,222525,1,0,0:0:0:0:
216,199,222662,1,0,0:0:0:0:
216,199,222798,1,0,0:0:0:0:
216,199,222934,1,0,0:0:0:0:
216,199,223071,1,8,0:0:0:0:
225,150,223139,1,0,0:0:0:0:
216,199,223207,1,8,0:0:0:0:
225,150,223275,1,8,0:0:0:0:
216,199,223343,1,0,0:0:0:0:
212,176,223480,1,0,0:0:0:0:
203,186,223752,1,8,0:0:0:0:
197,189,223889,1,0,0:0:0:0:
224,163,223957,1,0,0:0:0:0:
201,189,224162,1,8,0:0:0:0:
242,149,224230,1,8,0:0:0:0:
200,146,224298,1,0,0:0:0:0:
242,149,224366,1,0,0:0:0:0:
200,146,224434,1,8,0:0:0:0:
242,150,224502,1,0,0:0:0:0:
200,146,224571,1,0,0:0:0:0:
242,150,224639,1,0,0:0:0:0:
159,164,224707,1,8,0:0:0:0:
195,180,225798,1,0,0:0:0:0:
247,200,226207,1,0,0:0:0:0:
248,187,226343,1,8,0:0:0:0:
206,166,226412,1,8,0:0:0:0:
248,187,226480,1,0,0:0:0:0:
207,167,226548,1,0,0:0:0:0:
242,207,226616,1,0,0:0:0:0:
242,207,227025,1,0,0:0:0:0:
216,199,227298,1,0,0:0:0:0:
216,199,227434,1,8,0:0:0:0:
224,169,227502,1,0,0:0:0:0:
224,170,227571,1,8,0:0:0:0:
224,169,227639,1,8,0:0:0:0:
216,199,227707,1,0,0:0:0:0:
216,199,227980,1,0,0:0:0:0:
216,199,228116,1,0,0:0:0:0:
216,199,228252,1,0,0:0:0:0:
216,199,228389,1,0,0:0:0:0:
216,199,228525,1,8,0:0:0:0:
225,150,228593,1,8,0:0:0:0:
216,199,228662,1,8,0:0:0:0:
225,150,228730,1,8,0:0:0:0:
216,199,228798,1,0,0:0:0:0:
212,176,228934,1,0,0:0:0:0:
203,186,229207,1,8,0:0:0:0:
197,189,229343,1,0,0:0:0:0:
224,163,229412,1,0,0:0:0:0:
201,189,229616,1,8,0:0:0:0:
242,149,229684,1,8,0:0:0:0:
200,146,229752,1,0,0:0:0:0:
242,149,229821,1,0,0:0:0:0:
200,146,229889,1,8,0:0:0:0:
242,150,229957,1,8,0:0:0:0:
200,146,230025,1,8,0:0:0:0:
242,150,230093,1,8,0:0:0:0:
195,180,230162,1,0,0:0:0:0:
247,200,230571,1,0,0:0:0:0:
248,187,230707,1,8,0:0:0:0:
206,166,230775,1,8,0:0:0:0:
248,187,230843,1,8,0:0:0:0:
207,167,230912,1,8,0:0:0:0:
242,207,230980,1,0,0:0:0:0:
242,207,231389,1,0,0:0:0:0:
216,199,231662,1,0,0:0:0:0:
216,199,231798,1,8,0:0:0:0:
224,169,231866,1,8,0:0:0:0:
224,170,231934,1,0,0:0:0:0:
224,169,232002,1,0,0:0:0:0:
216,199,232071,1,0,0:0:0:0:
216,199,232343,1,0,0:0:0:0:
216,199,232480,1,0,0:0:0:0:
216,199,232616,1,0,0:0:0:0:
216,199,232752,1,0,0:0:0:0:
216,199,232889,1,8,0:0:0:0:
225,150,232957,1,0,0:0:0:0:
216,199,233025,1,8,0:0:0:0:
225,150,233093,1,8,0:0:0:0:
216,199,233162,1,0,0:0:0:0:
212,176,233298,1,0,0:0:0:0:
203,186,233571,1,8,0:0:0:0:
197,189,233707,1,0,0:0:0:0:
224,163,233775,1,0,0:0:0:0:
201,189,233980,1,8,0:0:0:0:
242,149,234048,1,8,0:0:0:0:
200,146,234116,1,0,0:0:0:0:
242,149,234184,1,0,0:0:0:0:
200,146,234252,1,8,0:0:0:0:
242,150,234321,1,8,0:0:0:0:
200,146,234389,1,8,0:0:0:0:
242,150,234457,1,8,0:0:0:0:
195,180,234525,1,0,0:0:0:0:
247,200,234934,1,0,0:0:0:0:
248,187,235071,1,8,0:0:0:0:
206,166,235139,1,8,0:0:0:0:
248,187,235207,1,0,0:0:0:0:
207,167,235275,1,0,0:0:0:0:
242,207,235343,1,0,0:0:0:0:
242,207,235752,1,0,0:0:0:0:
216,199,236025,1,0,0:0:0:0:
216,199,236162,1,8,0:0:0:0:
224,169,236230,1,0,0:0:0:0:
224,170,236298,1,8,0:0:0:0:
224,169,236366,1,8,0:0:0:0:
216,199,236434,1,0,0:0:0:0:
216,199,236707,1,0,0:0:0:0:
216,199,236843,1,0,0:0:0:0:
216,199,236980,1,0,0:0:0:0:
216,199,237116,1,0,0:0:0:0:
216,199,237252,1,8,0:0:0:0:
225,150,237321,1,8,0:0:0:0:
216,199,237389,1,8,0:0:0:0:
225,150,237457,1,8,0:0:0:0:
216,199,237525,1,0,0:0:0:0:
212,176,237662,1,0,0:0:0:0:
203,186,237934,1,8,0:0:0:0:
197,189,238071,1,0,0:0:0:0:
224,163,238139,1,0,0:0:0:0:
201,189,238343,1,8,0:0:0:0:
242,149,238412,1,8,0:0:0:0:
200,146,238480,1,0,0:0:0:0:
242,149,238548,1,0,0:0:0:0:
200,146,238616,1,8,0:0:0:0:
242,150,238684,1,8,0:0:0:0:
200,146,238752,1,8,0:0:0:0:
242,150,238821,1,8,0:0:0:0:
195,180,238889,1,0,0:0:0:0:
247,200,239298,1,0,0:0:0:0:
248,187,239434,1,8,0:0:0:0:
206,166,239502,1,8,0:0:0:0:
248,187,239571,1,8,0:0:0:0:
207,167,239639,1,8,0:0:0:0:
242,207,239707,1,0,0:0:0:0:
242,207,240116,1,0,0:0:0:0:
216,199,240389,1,0,0:0:0:0:
216,199,240525,1,8,0:0:0:0:
224,169,240593,1,8,0:0:0:0:
224,170,240662,1,0,0:0:0:0:
224,169,240730,1,0,0:0:0:0:
216,199,240798,1,0,0:0:0:0:
216,199,241071,1,0,0:0:0:0:
216,199,241207,1,0,0:0:0:0:
216,199,241343,1,0,0:0:0:0:
216,199,241480,1,0,0:0:0:0:
216,199,241616,1,8,0:0:0:0:
225,150,241684,1,0,0:0:0:0:
216,199,241752,1,8,0:0:0:0:
225,150,241821,1,8,0:0:0:0:
216,199,241889,1,0,0:0:0:0:
212,176,242025,1,0,0:0:0:0:
203,186,242298,1,8,0:0:0:0:
197,189,242434,1,0,0:0:0:0:
224,163,242502,1,0,0:0:0:0:
201,189,242707,1,8,0:0:0:0:
242,149,242775,1,8,0:0:0:0:
200,146,242843,1,0,0:0:0:0:
242,149,242912,1,0,0:0:0:0:
200,146,242980,1,8,0:0:0:0:
242,150,243048,1,8,0:0:0:0:
200,146,243116,1,8,0:0:0:0:
242,150,243184,1,8,0:0:0:0:
234,173,243252,1,4,0:0:0:0:
284,171,247071,5,12,0:0:0:0:
190,147,247616,1,4,0:0:0:0:
247,167,251434,1,12,0:0:0:0:
199,79,251980,1,8,0:0:0:0:
205,210,252116,1,0,0:0:0:0:
275,165,252184,1,0,0:0:0:0:
198,213,252252,1,8,0:0:0:0:
198,213,252389,1,0,0:0:0:0:
198,213,252525,1,8,0:0:0:0:
240,203,252593,1,8,0:0:0:0:
198,213,252662,1,8,0:0:0:0:
198,213,252798,1,0,0:0:0:0:
198,213,252934,1,0,0:0:0:0:
198,213,253071,1,8,0:0:0:0:
203,143,253139,1,0,0:0:0:0:
198,213,253207,1,0,0:0:0:0:
198,213,253343,1,8,0:0:0:0:
198,213,253480,1,8,0:0:0:0:
196,220,253616,1,0,0:0:0:0:
196,221,253752,1,8,0:0:0:0:
197,222,253889,1,0,0:0:0:0:
222,167,253957,1,0,0:0:0:0:
197,222,254025,1,0,0:0:0:0:
197,222,254162,1,8,0:0:0:0:
197,222,254298,1,8,0:0:0:0:
222,167,254366,1,8,0:0:0:0:
196,220,254434,1,0,0:0:0:0:
196,221,254571,1,8,0:0:0:0:
197,222,254707,1,0,0:0:0:0:
224,137,254775,1,0,0:0:0:0:
197,222,254843,1,0,0:0:0:0:
197,222,254980,1,8,0:0:0:0:
196,220,255116,1,0,0:0:0:0:
196,220,255252,1,8,0:0:0:0:
196,221,255389,1,8,0:0:0:0:
224,137,255457,1,8,0:0:0:0:
197,222,255525,1,0,0:0:0:0:
197,222,255662,1,0,0:0:0:0:
197,222,255798,1,8,0:0:0:0:
196,220,255934,1,0,0:0:0:0:
196,220,256071,1,8,0:0:0:0:
222,147,256139,1,8,0:0:0:0:
196,221,256207,1,8,0:0:0:0:
197,222,256343,1,0,0:0:0:0:
197,222,256480,1,8,0:0:0:0:
236,169,256548,1,0,0:0:0:0:
197,222,256616,1,8,0:0:0:0:
196,220,256752,1,0,0:0:0:0:
196,220,256889,1,8,0:0:0:0:
196,221,257025,1,8,0:0:0:0:
197,222,257162,1,0,0:0:0:0:
220,152,257230,1,0,0:0:0:0:
220,152,257298,1,0,0:0:0:0:
197,222,257434,1,8,0:0:0:0:
196,220,257571,1,0,0:0:0:0:
198,153,257639,1,0,0:0:0:0:
196,220,257707,1,8,0:0:0:0:
196,221,257843,1,0,0:0:0:0:
197,222,257980,1,8,0:0:0:0:
197,222,258116,1,8,0:0:0:0:
197,222,258252,1,0,0:0:0:0:
232,175,258321,1,0,0:0:0:0:
196,220,258389,1,0,0:0:0:0:
196,220,258525,1,8,0:0:0:0:
196,221,258662,1,0,0:0:0:0:
232,175,258730,1,0,0:0:0:0:
197,222,258798,1,8,0:0:0:0:
197,222,258934,1,0,0:0:0:0:
197,222,259071,1,8,0:0:0:0:
196,220,259207,1,8,0:0:0:0:
196,220,259343,1,0,0:0:0:0:
197,155,259412,1,0,0:0:0:0:
196,221,259480,1,0,0:0:0:0:
197,222,259616,1,8,0:0:0:0:
197,222,259752,1,8,0:0:0:0:
197,222,259889,1,8,0:0:0:0:
196,220,260025,1,8,0:0:0:0:
196,220,260162,1,8,0:0:0:0:
196,221,260298,1,8,0:0:0:0:
197,222,260434,1,8,0:0:0:0:
197,222,260571,1,8,0:0:0:0:
197,222,260707,1,4,0:0:0:0:
218,199,265070,5,4,0:0:0:0:
255,166,269434,5,4,0:0:0:0:
256,176,273797,5,4,0:0:0:0:
229,204,275979,5,0,0:0:0:0:
217,196,276161,1,0,0:0:0:0:
217,196,276343,1,0,0:0:0:0:
217,196,276525,1,0,0:0:0:0:
217,196,276707,1,0,0:0:0:0:
217,196,276888,1,0,0:0:0:0:
217,196,277070,1,0,0:0:0:0:
217,196,277252,1,0,0:0:0:0:
217,196,277434,1,0,0:0:0:0:
217,196,277616,1,0,0:0:0:0:
217,196,277797,1,0,0:0:0:0:
217,196,277979,1,0,0:0:0:0:
217,196,278161,1,8,0:0:0:0:
195,175,278343,1,8,0:0:0:0:
194,174,278434,1,8,0:0:0:0:
195,175,278525,1,0,0:0:0:0:
194,174,278616,1,0,0:0:0:0:
195,190,278707,1,8,0:0:0:0:
195,190,278797,1,8,0:0:0:0:
195,190,278888,1,0,0:0:0:0:
195,190,278979,1,0,0:0:0:0:
195,190,279070,1,8,0:0:0:0:
195,190,279252,1,8,0:0:0:0:
195,190,279343,1,8,0:0:0:0:
195,190,279434,1,0,0:0:0:0:
195,190,279525,1,0,0:0:0:0:
195,190,279616,1,8,0:0:0:0:
195,190,279797,1,0,0:0:0:0:
195,190,279888,1,0,0:0:0:0:
195,190,279979,1,8,0:0:0:0:
195,190,280161,1,0,0:0:0:0:
195,190,280343,1,8,0:0:0:0:
195,190,280434,1,8,0:0:0:0:
195,190,280525,1,0,0:0:0:0:
195,190,280616,1,0,0:0:0:0:
195,190,280707,1,8,0:0:0:0:
195,190,280797,1,8,0:0:0:0:
195,190,280888,1,8,0:0:0:0:
195,190,280979,1,8,0:0:0:0:
195,190,281070,1,0,0:0:0:0:
195,190,281161,1,0,0:0:0:0:
195,190,281252,1,8,0:0:0:0:
195,190,281343,1,0,0:0:0:0:
195,190,281434,1,8,0:0:0:0:
195,190,281616,1,0,0:0:0:0:
232,177,281707,1,0,0:0:0:0:
195,190,281797,1,8,0:0:0:0:
195,190,281979,1,0,0:0:0:0:
195,190,282161,1,8,0:0:0:0:
195,190,282252,1,0,0:0:0:0:
195,190,282343,1,8,0:0:0:0:
194,183,282525,1,8,0:0:0:0:
334,217,282616,1,8,0:0:0:0:
268,238,282707,1,0,0:0:0:0:
228,203,282797,1,0,0:0:0:0:
284,204,282888,1,0,0:0:0:0:
268,238,282979,1,0,0:0:0:0:
218,218,283070,1,8,0:0:0:0:
237,157,283161,1,8,0:0:0:0:
239,193,283252,1,0,0:0:0:0:
237,157,283343,1,0,0:0:0:0:
238,193,283434,1,8,0:0:0:0:
195,154,283525,1,0,0:0:0:0:
238,194,283616,1,8,0:0:0:0:
327,151,283707,1,8,0:0:0:0:
319,172,283797,1,0,0:0:0:0:
226,202,283888,1,0,0:0:0:0:
319,172,283979,1,8,0:0:0:0:
226,202,284070,1,0,0:0:0:0:
224,171,284161,1,8,0:0:0:0:
165,191,284252,1,8,0:0:0:0:
224,172,284343,1,0,0:0:0:0:
165,191,284434,1,0,0:0:0:0:
224,171,284525,1,8,0:0:0:0:
165,191,284616,1,0,0:0:0:0:
224,171,284707,1,8,0:0:0:0:
223,183,284797,1,8,0:0:0:0:
223,183,284888,1,0,0:0:0:0:
227,202,284979,1,0,0:0:0:0:
223,183,285070,1,0,0:0:0:0:
227,203,285161,1,0,0:0:0:0:
223,183,285252,1,8,0:0:0:0:
223,183,285343,1,8,0:0:0:0:
223,183,285434,1,8,0:0:0:0:
223,183,285525,1,8,0:0:0:0:
223,183,285616,1,0,0:0:0:0:
223,183,285707,1,0,0:0:0:0:
265,188,285797,1,8,0:0:0:0:
223,183,285888,1,8,0:0:0:0:
223,183,285979,1,0,0:0:0:0:
228,204,286070,1,8,0:0:0:0:
223,183,286161,1,0,0:0:0:0:
228,205,286252,1,0,0:0:0:0:
209,207,286343,1,8,0:0:0:0:
223,183,286434,1,8,0:0:0:0:
218,190,286525,1,0,0:0:0:0:
223,183,286616,1,8,0:0:0:0:
223,183,286707,1,8,0:0:0:0:
223,183,286797,1,0,0:0:0:0:
223,183,286888,1,8,0:0:0:0:
175,213,287070,1,0,0:0:0:0:
175,213,287161,1,0,0:0:0:0:
175,213,287252,1,8,0:0:0:0:
175,213,287343,1,0,0:0:0:0:
175,213,287434,1,8,0:0:0:0:
175,213,287525,1,0,0:0:0:0:
175,213,287616,1,8,0:0:0:0:
175,213,287707,1,8,0:0:0:0:
175,213,287797,1,0,0:0:0:0:
175,213,287888,1,0,0:0:0:0:
175,213,287979,1,8,0:0:0:0:
175,213,288161,1,0,0:0:0:0:
175,213,288252,1,0,0:0:0:0:
175,213,288343,1,8,0:0:0:0:
175,213,288525,1,0,0:0:0:0:
175,213,288707,1,8,0:0:0:0:
175,213,288797,1,8,0:0:0:0:
175,213,288888,1,0,0:0:0:0:
175,213,288979,1,0,0:0:0:0:
175,213,289070,1,8,0:0:0:0:
175,213,289252,1,8,0:0:0:0:
175,213,289343,1,8,0:0:0:0:
175,213,289434,1,0,0:0:0:0:
175,213,289616,1,0,0:0:0:0:
175,213,289797,1,8,0:0:0:0:
175,213,289979,1,0,0:0:0:0:
175,213,290070,1,0,0:0:0:0:
175,213,290161,1,8,0:0:0:0:
175,213,290343,1,8,0:0:0:0:
175,213,290525,1,8,0:0:0:0:
175,213,290616,1,8,0:0:0:0:
175,213,290707,1,0,0:0:0:0:
176,214,290797,1,0,0:0:0:0:
175,213,290888,1,8,0:0:0:0:
175,213,290979,1,0,0:0:0:0:
175,213,291070,1,8,0:0:0:0:
175,213,291161,1,8,0:0:0:0:
175,213,291252,1,0,0:0:0:0:
202,192,291343,1,8,0:0:0:0:
349,223,291434,1,0,0:0:0:0:
301,191,291616,1,8,0:0:0:0:
301,191,291797,1,0,0:0:0:0:
301,191,291979,1,8,0:0:0:0:
301,191,292161,1,0,0:0:0:0:
301,191,292343,1,8,0:0:0:0:
251,149,292434,1,8,0:0:0:0:
294,211,292525,1,0,0:0:0:0:
228,198,292616,1,0,0:0:0:0:
294,211,292707,1,8,0:0:0:0:
228,198,292797,1,0,0:0:0:0:
294,211,292888,1,8,0:0:0:0:
251,149,292979,1,8,0:0:0:0:
294,211,293070,1,0,0:0:0:0:
228,198,293161,1,0,0:0:0:0:
294,211,293252,1,8,0:0:0:0:
228,198,293343,1,0,0:0:0:0:
294,211,293434,1,8,0:0:0:0:
251,155,293525,1,8,0:0:0:0:
290,218,293616,1,0,0:0:0:0:
243,215,293707,1,0,0:0:0:0:
290,218,293797,1,8,0:0:0:0:
243,215,293888,1,8,0:0:0:0:
290,218,293979,1,0,0:0:0:0:
251,155,294070,1,0,0:0:0:0:
290,218,294161,1,8,0:0:0:0:
243,215,294252,1,0,0:0:0:0:
290,218,294343,1,8,0:0:0:0:
243,215,294434,1,8,0:0:0:0:
290,218,294525,1,0,0:0:0:0:
290,218,294707,1,0,0:0:0:0:
290,218,294888,1,8,0:0:0:0:
290,218,295070,1,0,0:0:0:0:
243,215,295161,1,0,0:0:0:0:
290,218,295252,1,8,0:0:0:0:
290,218,295434,1,0,0:0:0:0:
290,218,295616,1,8,0:0:0:0:
241,222,295797,1,0,0:0:0:0:
263,195,295888,1,0,0:0:0:0:
286,168,295979,1,8,0:0:0:0:
276,161,296070,1,0,0:0:0:0:
242,169,296161,1,8,0:0:0:0:
208,177,296252,1,0,0:0:0:0:
174,184,296343,1,8,0:0:0:0:
190,189,296434,1,8,0:0:0:0:
225,193,296525,1,0,0:0:0:0:
260,197,296616,1,0,0:0:0:0:
294,201,296707,1,8,0:0:0:0:
364,208,296888,1,0,0:0:0:0:
399,212,296979,1,0,0:0:0:0:
426,213,297070,1,8,0:0:0:0:
400,190,297161,1,8,0:0:0:0:
374,167,297252,1,8,0:0:0:0:
347,144,297343,1,8,0:0:0:0:
321,121,297434,1,0,0:0:0:0:
268,75,297616,1,0,0:0:0:0:
229,105,297797,1,8,0:0:0:0:
212,136,297888,1,8,0:0:0:0:
195,166,297979,1,0,0:0:0:0:
179,197,298070,1,0,0:0:0:0:
162,228,298161,1,8,0:0:0:0:
129,289,298343,1,0,0:0:0:0:
99,347,298525,1,8,0:0:0:0:
157,308,298707,1,0,0:0:0:0:
186,289,298797,1,0,0:0:0:0:
215,269,298888,1,8,0:0:0:0:
244,250,298979,1,8,0:0:0:0:
273,230,299070,1,8,0:0:0:0:
302,211,299161,1,8,0:0:0:0:
332,191,299252,1,0,0:0:0:0:
361,172,299343,1,0,0:0:0:0:
390,152,299434,1,8,0:0:0:0:
407,136,299525,1,0,0:0:0:0:
372,134,299616,1,8,0:0:0:0:
302,130,299797,1,0,0:0:0:0:
267,128,299888,1,0,0:0:0:0:
232,126,299979,1,8,0:0:0:0:
162,122,300161,1,0,0:0:0:0:
141,132,300343,1,8,0:0:0:0:
203,164,300525,1,8,0:0:0:0:
234,181,300616,1,8,0:0:0:0:
265,197,300707,1,0,0:0:0:0:
296,213,300797,1,0,0:0:0:0:
327,229,300888,1,8,0:0:0:0:
358,246,300979,1,0,0:0:0:0:
389,262,301070,1,8,0:0:0:0:
414,282,301252,1,0,0:0:0:0:
345,271,301434,1,8,0:0:0:0:
310,265,301525,1,8,0:0:0:0:
276,259,301616,1,0,0:0:0:0:
241,253,301707,1,0,0:0:0:0:
207,247,301797,1,8,0:0:0:0:
138,235,301979,1,0,0:0:0:0:
69,224,302161,1,8,0:0:0:0:
34,218,302252,1,8,0:0:0:0:
61,204,302343,1,8,0:0:0:0:
92,189,302434,1,8,0:0:0:0:
124,174,302525,1,0,0:0:0:0:
187,144,302707,1,0,0:0:0:0:
250,114,302888,1,8,0:0:0:0:
314,84,303070,1,0,0:0:0:0:
345,69,303161,1,0,0:0:0:0:
377,54,303252,1,8,0:0:0:0:
407,78,303434,1,0,0:0:0:0:
407,113,303525,1,8,0:0:0:0:
407,148,303616,1,0,0:0:0:0:
408,183,303707,1,0,0:0:0:0:
408,218,303797,1,8,0:0:0:0:
408,288,303979,1,8,0:0:0:0:
408,323,304070,1,0,0:0:0:0:
408,358,304161,1,8,0:0:0:0:
394,362,304252,1,8,0:0:0:0:
369,337,304343,1,0,0:0:0:0:
319,288,304525,1,0,0:0:0:0:
294,263,304616,1,0,0:0:0:0:
269,239,304707,1,8,0:0:0:0:
220,189,304888,1,0,0:0:0:0:
170,140,305070,1,8,0:0:0:0:
145,115,305161,1,8,0:0:0:0:
120,91,305252,1,0,0:0:0:0:
95,66,305343,1,0,0:0:0:0:
71,41,305434,1,8,0:0:0:0:
128,33,305616,1,8,0:0:0:0:
163,32,305707,1,0,0:0:0:0:
198,30,305797,1,8,0:0:0:0:
268,27,305979,1,0,0:0:0:0:
338,23,306161,1,8,0:0:0:0:
373,21,306252,1,8,0:0:0:0:
408,20,306343,1,0,0:0:0:0:
443,18,306434,1,0,0:0:0:0:
478,16,306525,1,8,0:0:0:0:
473,63,306707,1,0,0:0:0:0:
458,94,306797,1,0,0:0:0:0:
443,126,306888,1,8,0:0:0:0:
411,188,307070,1,8,0:0:0:0:
393,218,307161,1,0,0:0:0:0:
373,247,307252,1,8,0:0:0:0:
348,271,307343,1,8,0:0:0:0:
314,272,307434,1,0,0:0:0:0:
288,250,307525,1,0,0:0:0:0:
266,223,307616,1,8,0:0:0:0:
230,163,307797,1,0,0:0:0:0:
213,132,307888,1,0,0:0:0:0:
196,101,307979,1,8,0:0:0:0:
164,39,308161,1,0,0:0:0:0:
98,21,308343,1,8,0:0:0:0:
30,7,308525,1,8,0:0:0:0:
16,18,308616,1,8,0:0:0:0:
29,50,308707,1,0,0:0:0:0:
41,83,308797,1,0,0:0:0:0:
54,116,308888,1,0,0:0:0:0:
66,148,308979,1,0,0:0:0:0:
79,181,309070,1,8,0:0:0:0:
104,246,309252,1,8,0:0:0:0:
117,279,309343,1,8,0:0:0:0:
129,312,309434,1,0,0:0:0:0:
143,353,309616,1,0,0:0:0:0:
107,292,309797,1,8,0:0:0:0:
90,262,309888,1,8,0:0:0:0:
72,232,309979,1,0,0:0:0:0:
55,202,310070,1,0,0:0:0:0:
37,171,310161,1,8,0:0:0:0:
4,110,310343,1,8,0:0:0:0:
0,108,310434,1,8,0:0:0:0:
1,143,310525,1,0,0:0:0:0:
3,213,310707,1,0,0:0:0:0:
5,283,310888,1,8,0:0:0:0:
8,353,311070,1,0,0:0:0:0:
10,378,311161,1,8,0:0:0:0:
23,345,311252,1,0,0:0:0:0:
49,280,311434,1,8,0:0:0:0:
64,294,311616,1,0,0:0:0:0:
69,329,311707,1,0,0:0:0:0:
73,364,311797,1,8,0:0:0:0:
125,360,311979,1,0,0:0:0:0:
158,348,312070,1,8,0:0:0:0:
191,336,312161,1,0,0:0:0:0:
224,324,312252,1,0,0:0:0:0:
257,311,312343,1,8,0:0:0:0:
316,327,312525,1,0,0:0:0:0:
344,349,312616,1,0,0:0:0:0:
371,370,312707,1,8,0:0:0:0:
397,384,312797,1,8,0:0:0:0:
406,350,312888,1,0,0:0:0:0:
234,234,313070,5,4,0:0:0:0:
123,201,314161,1,0,0:0:0:0:
123,207,315252,1,0,0:0:0:0:
123,210,316343,1,0,0:0:0:0:
238,195,316434,1,0,0:0:0:0:
119,220,316525,1,0,0:0:0:0:
238,195,316616,1,0,0:0:0:0:
123,210,316707,1,8,0:0:0:0:
238,195,316797,1,8,0:0:0:0:
119,222,316888,1,0,0:0:0:0:
238,195,316979,1,0,0:0:0:0:
123,210,317070,1,8,0:0:0:0:
238,195,317161,1,8,0:0:0:0:
119,220,317252,1,8,0:0:0:0:
238,195,317343,1,8,0:0:0:0:
123,210,317434,1,4,0:0:0:0:
117,227,318525,1,0,0:0:0:0:
141,207,319616,1,0,0:0:0:0:
141,207,320707,1,8,0:0:0:0:
141,207,320888,1,0,0:0:0:0:
141,207,321070,1,8,0:0:0:0:
141,207,321252,1,0,0:0:0:0:
204,197,321343,1,0,0:0:0:0:
141,207,321434,1,0,0:0:0:0:
204,197,321525,1,0,0:0:0:0:
141,207,321616,1,8,0:0:0:0:
204,197,321707,1,8,0:0:0:0:
141,207,321797,1,4,0:0:0:0:
142,208,322888,1,0,0:0:0:0:
143,208,323979,1,0,0:0:0:0:
143,208,325070,1,0,0:0:0:0:
305,160,325161,1,0,0:0:0:0:
143,208,325252,1,0,0:0:0:0:
305,160,325343,1,0,0:0:0:0:
143,208,325434,1,8,0:0:0:0:
305,160,325525,1,8,0:0:0:0:
143,208,325616,1,0,0:0:0:0:
305,160,325707,1,0,0:0:0:0:
143,208,325797,1,8,0:0:0:0:
305,160,325888,1,8,0:0:0:0:
143,208,325979,1,8,0:0:0:0:
305,160,326070,1,8,0:0:0:0:
143,208,326161,1,4,0:0:0:0:
143,209,327252,1,0,0:0:0:0:
218,138,328343,1,0,0:0:0:0:
238,228,329434,1,8,0:0:0:0:
309,167,329525,1,8,0:0:0:0:
238,228,329616,1,0,0:0:0:0:
309,167,329707,1,8,0:0:0:0:
238,228,329797,1,8,0:0:0:0:
309,167,329888,1,0,0:0:0:0:
238,228,329979,1,8,0:0:0:0:
309,167,330070,1,8,0:0:0:0:
184,226,330161,1,0,0:0:0:0:
309,167,330252,1,8,0:0:0:0:
238,228,330343,1,8,0:0:0:0:
309,167,330434,1,0,0:0:0:0:
184,226,330525,1,8,0:0:0:0:
