osu file format v14

[General]
AudioFilename: audio.mp3
AudioLeadIn: 0
PreviewTime: -1
Countdown: 1
SampleSet: None
StackLeniency: 0.7
Mode: 0
LetterboxInBreaks: 0
WidescreenStoryboard: 0

[Editor]
DistanceSpacing: 0.8
BeatDivisor: 4
GridSize: 4
TimelineZoom: 1

[Metadata]
Title:SnoopRude WeedStorm (MLG SONG) Darude Sandstorm into Smoke Weed
TitleUnicode:SnoopRude WeedStorm (MLG SONG) Darude Sandstorm into Smoke Weed
Artist:Shadow Knight
ArtistUnicode:Shadow Knight
Creator:Mikojel
Version:u sMOKE wEEED?
Source:
Tags:imposible map
BeatmapID:1632340
BeatmapSetID:776933

[Difficulty]
HPDrainRate:7
CircleSize:6
OverallDifficulty:7
ApproachRate:7
SliderMultiplier:1.4
SliderTickRate:1

[Events]
//Background and Video events
0,0,"kys.png",0,0
//Break Periods
//Storyboard Layer 0 (Background)
//Storyboard Layer 1 (Fail)
//Storyboard Layer 2 (Pass)
//Storyboard Layer 3 (Foreground)
//Storyboard Sound Samples

[TimingPoints]
0,30,4,1,0,100,1,0
0,-50,4,1,0,100,0,0
3993,10,4,1,0,100,1,0
5944,30,4,1,0,100,1,0
11420,60,4,1,0,100,1,0

[Colours]
Combo1 : 0,128,64
Combo2 : 128,255,0

[HitObjects]
28,224,0,6,0,B|376:280|236:344|116:204|32:184,16,420
228,280,22,1,0,0:0:0:0:
228,280,412,1,0,0:0:0:0:
228,280,690,1,0,0:0:0:0:
72,264,1020,1,0,0:0:0:0:
324,240,1065,1,0,0:0:0:0:
192,188,1207,1,0,0:0:0:0:
256,264,1365,1,0,0:0:0:0:
408,60,1372,1,0,0:0:0:0:
88,164,1492,1,0,0:0:0:0:
120,68,1537,1,0,0:0:0:0:
220,124,1650,1,0,0:0:0:0:
404,76,1695,1,0,0:0:0:0:
136,204,1785,1,0,0:0:0:0:
400,264,1815,1,0,0:0:0:0:
160,124,1935,1,0,0:0:0:0:
120,272,1942,1,0,0:0:0:0:
408,192,2092,1,0,0:0:0:0:
116,144,2152,1,0,0:0:0:0:
124,164,2220,1,0,0:0:0:0:
96,108,2280,1,0,0:0:0:0:
288,68,2362,1,0,0:0:0:0:
232,24,2377,1,0,0:0:0:0:
304,144,2430,1,0,0:0:0:0:
484,64,2505,1,0,0:0:0:0:
312,64,2565,1,0,0:0:0:0:
240,160,2610,1,0,0:0:0:0:
336,320,2647,1,0,0:0:0:0:
360,88,2715,1,0,0:0:0:0:
184,320,2767,1,0,0:0:0:0:
468,304,2895,1,0,0:0:0:0:
384,56,2910,1,0,0:0:0:0:
192,184,2970,1,0,0:0:0:0:
24,24,3045,1,0,0:0:0:0:
468,124,3082,1,0,0:0:0:0:
120,112,3157,1,0,0:0:0:0:
504,40,3195,1,0,0:0:0:0:
392,168,3255,1,0,0:0:0:0:
128,164,3270,1,0,0:0:0:0:
112,268,3345,1,0,0:0:0:0:
184,136,3367,1,0,0:0:0:0:
16,344,3412,1,0,0:0:0:0:
176,136,3442,1,0,0:0:0:0:
128,104,3525,1,0,0:0:0:0:
44,156,3547,1,0,0:0:0:0:
168,80,3615,1,0,0:0:0:0:
480,304,3682,1,0,0:0:0:0:
344,44,3817,1,0,0:0:0:0:
244,112,3862,1,0,0:0:0:0:
272,272,3952,1,0,0:0:0:0:
176,196,3993,2,0,L|252:196,389,70
272,144,4070,1,0,0:0:0:0:
216,200,4088,1,0,0:0:0:0:
312,88,4175,1,0,0:0:0:0:
28,272,4248,1,0,0:0:0:0:
412,136,4265,1,0,0:0:0:0:
264,216,4358,1,0,0:0:0:0:
296,208,4445,1,0,0:0:0:0:
352,244,4525,1,0,0:0:0:0:
304,260,4610,1,0,0:0:0:0:
28,40,4640,1,0,0:0:0:0:
412,280,4693,1,0,0:0:0:0:
320,316,4785,1,0,0:0:0:0:
440,36,4790,1,0,0:0:0:0:
276,332,4863,1,0,0:0:0:0:
208,200,4943,1,0,0:0:0:0:
244,208,5025,1,0,0:0:0:0:
80,144,5110,1,0,0:0:0:0:
136,116,5210,1,0,0:0:0:0:
240,148,5300,1,0,0:0:0:0:
240,160,5398,1,0,0:0:0:0:
16,104,5420,1,0,0:0:0:0:
116,196,5498,1,0,0:0:0:0:
348,44,5518,1,0,0:0:0:0:
104,208,5588,1,0,0:0:0:0:
48,40,5648,1,0,0:0:0:0:
184,124,5673,1,0,0:0:0:0:
208,76,5775,1,0,0:0:0:0:
432,188,5780,1,0,0:0:0:0:
292,40,5863,1,0,0:0:0:0:
336,104,5895,1,0,0:0:0:0:
392,100,5951,1,0,0:0:0:0:
280,320,6026,1,0,0:0:0:0:
408,192,6049,1,0,0:0:0:0:
32,192,6124,1,0,0:0:0:0:
248,236,6139,1,0,0:0:0:0:
396,176,6214,1,0,0:0:0:0:
292,168,6244,1,0,0:0:0:0:
240,288,6274,1,0,0:0:0:0:
200,168,6461,1,0,0:0:0:0:
136,200,6559,1,0,0:0:0:0:
64,352,6589,2,0,L|156:324,11,70
96,140,6679,1,0,0:0:0:0:
328,232,6694,1,0,0:0:0:0:
168,56,6776,1,0,0:0:0:0:
308,136,6799,1,0,0:0:0:0:
244,60,6874,1,0,0:0:0:0:
156,292,6919,1,0,0:0:0:0:
72,148,7046,1,0,0:0:0:0:
328,196,7151,1,0,0:0:0:0:
280,320,7256,1,0,0:0:0:0:
360,40,7279,1,0,0:0:0:0:
220,208,7294,2,0,L|312:180,11,70
500,216,7354,1,0,0:0:0:0:
396,108,7361,1,0,0:0:0:0:
408,168,7444,1,0,0:0:0:0:
240,176,7459,1,0,0:0:0:0:
408,232,7534,1,0,0:0:0:0:
32,36,7601,1,0,0:0:0:0:
300,320,7631,1,0,0:0:0:0:
380,184,7714,1,0,0:0:0:0:
144,32,7811,1,0,0:0:0:0:
80,188,7894,1,0,0:0:0:0:
264,104,7954,1,0,0:0:0:0:
192,100,7999,1,0,0:0:0:0:
64,60,8029,2,0,L|156:32,11,70
208,140,8036,1,0,0:0:0:0:
452,96,8089,1,0,0:0:0:0:
136,184,8126,1,0,0:0:0:0:
428,244,8156,1,0,0:0:0:0:
96,260,8224,1,0,0:0:0:0:
248,108,8231,1,0,0:0:0:0:
192,220,8299,1,0,0:0:0:0:
84,308,8329,1,0,0:0:0:0:
320,104,8389,1,0,0:0:0:0:
460,120,8456,1,0,0:0:0:0:
304,216,8501,1,0,0:0:0:0:
376,68,8539,1,0,0:0:0:0:
400,252,8606,1,0,0:0:0:0:
280,132,8674,1,0,0:0:0:0:
396,184,8689,1,0,0:0:0:0:
284,88,8704,2,0,L|376:60,177,70
88,80,8771,1,0,0:0:0:0:
260,284,8786,1,0,0:0:0:0:
288,224,8854,1,0,0:0:0:0:
72,296,8869,1,0,0:0:0:0:
196,248,8951,1,0,0:0:0:0:
68,128,9079,1,0,0:0:0:0:
168,232,9086,1,0,0:0:0:0:
184,176,9131,1,0,0:0:0:0:
308,168,9169,1,0,0:0:0:0:
232,116,9229,1,0,0:0:0:0:
76,124,9259,1,0,0:0:0:0:
292,128,9311,1,0,0:0:0:0:
472,68,9341,1,0,0:0:0:0:
168,64,9394,1,0,0:0:0:0:
160,40,9439,1,0,0:0:0:0:
92,96,9484,1,0,0:0:0:0:
312,156,9506,1,0,0:0:0:0:
68,160,9574,1,0,0:0:0:0:
76,36,9589,1,0,0:0:0:0:
240,232,9671,1,0,0:0:0:0:
404,196,9679,1,0,0:0:0:0:
360,304,9769,1,0,0:0:0:0:
88,160,9776,1,0,0:0:0:0:
84,284,9866,1,0,0:0:0:0:
112,220,9911,1,0,0:0:0:0:
304,236,9926,1,0,0:0:0:0:
456,232,9964,1,0,0:0:0:0:
160,264,10009,1,0,0:0:0:0:
300,304,10016,1,0,0:0:0:0:
376,108,10061,1,0,0:0:0:0:
164,304,10091,1,0,0:0:0:0:
164,260,10114,1,0,0:0:0:0:
288,124,10151,1,0,0:0:0:0:
460,280,10174,1,0,0:0:0:0:
220,184,10211,1,0,0:0:0:0:
160,176,10256,1,0,0:0:0:0:
124,104,10279,1,0,0:0:0:0:
248,152,10316,1,0,0:0:0:0:
308,20,10354,1,0,0:0:0:0:
288,208,10369,1,0,0:0:0:0:
152,64,10414,1,0,0:0:0:0:
152,264,10444,1,0,0:0:0:0:
196,44,10511,1,0,0:0:0:0:
68,168,10541,1,0,0:0:0:0:
96,72,10556,1,0,0:0:0:0:
232,104,10609,1,0,0:0:0:0:
156,180,10631,1,0,0:0:0:0:
248,284,10706,1,0,0:0:0:0:
56,116,10789,1,0,0:0:0:0:
296,180,10804,1,0,0:0:0:0:
236,60,10871,1,0,0:0:0:0:
372,168,10901,1,0,0:0:0:0:
48,44,10961,1,0,0:0:0:0:
412,124,10991,1,0,0:0:0:0:
144,132,11051,1,0,0:0:0:0:
448,204,11089,1,0,0:0:0:0:
32,208,11149,1,0,0:0:0:0:
408,272,11179,1,0,0:0:0:0:
100,248,11276,1,0,0:0:0:0:
36,264,11374,1,0,0:0:0:0:
300,148,11404,1,0,0:0:0:0:
204,112,11480,1,0,0:0:0:0:
300,36,11570,1,0,0:0:0:0:
236,264,11585,1,0,0:0:0:0:
92,72,11645,1,0,0:0:0:0:
64,312,11690,1,0,0:0:0:0:
180,188,11735,1,0,0:0:0:0:
132,224,11795,1,0,0:0:0:0:
172,80,11810,1,0,0:0:0:0:
224,176,11900,1,0,0:0:0:0:
392,88,11990,1,0,0:0:0:0:
440,180,12050,1,8,0:0:0:0:
96,48,12095,1,0,0:0:0:0:
80,168,12200,1,0,0:0:0:0:
16,160,12290,1,8,0:0:0:0:
288,256,12335,1,0,0:0:0:0:
48,96,12350,1,0,0:0:0:0:
148,44,12410,1,0,0:0:0:0:
364,176,12440,1,0,0:0:0:0:
400,32,12500,1,0,0:0:0:0:
308,120,12530,1,0,0:0:0:0:
464,112,12545,1,0,0:0:0:0:
464,220,12620,1,0,0:0:0:0:
152,112,12635,1,0,0:0:0:0:
336,332,12695,1,0,0:0:0:0:
120,264,12725,1,0,0:0:0:0:
212,308,12770,1,0,0:0:0:0:
88,272,12830,1,0,0:0:0:0:
184,120,12845,1,0,0:0:0:0:
228,132,12905,1,0,0:0:0:0:
192,220,12935,1,0,0:0:0:0:
448,24,12965,1,0,0:0:0:0:
224,152,13040,1,0,0:0:0:0:
428,212,13070,1,0,0:0:0:0:
12,32,13130,1,0,0:0:0:0:
272,244,13175,1,0,0:0:0:0:
444,80,13235,1,0,0:0:0:0:
52,224,13280,1,0,0:0:0:0:
236,52,13310,1,0,0:0:0:0:
424,68,13340,1,0,0:0:0:0:
128,88,13400,1,0,0:0:0:0:
228,128,13415,1,0,0:0:0:0:
204,236,13505,1,0,0:0:0:0:
416,208,13520,1,0,0:0:0:0:
264,152,13565,1,0,0:0:0:0:
364,300,13610,1,0,0:0:0:0:
328,120,13625,1,0,0:0:0:0:
308,300,13715,1,0,0:0:0:0:
180,136,13730,1,0,0:0:0:0:
144,72,13820,1,0,0:0:0:0:
128,88,13835,1,0,0:0:0:0:
168,52,13880,1,0,0:0:0:0:
120,200,13955,1,0,0:0:0:0:
380,104,14000,1,0,0:0:0:0:
460,228,14060,1,0,0:0:0:0:
96,248,14075,1,0,0:0:0:0:
284,372,14105,1,0,0:0:0:0:
32,224,14165,1,0,0:0:0:0:
40,112,14210,1,0,0:0:0:0:
40,136,14270,1,0,0:0:0:0:
40,112,14330,1,0,0:0:0:0:
268,56,14375,1,0,0:0:0:0:
80,184,14450,1,0,0:0:0:0:
344,64,14480,1,0,0:0:0:0:
424,304,14510,1,0,0:0:0:0:
296,112,14570,1,0,0:0:0:0:
440,116,14585,1,0,0:0:0:0:
264,64,14690,1,0,0:0:0:0:
232,120,14765,1,0,0:0:0:0:
316,268,14780,1,0,0:0:0:0:
120,188,14870,1,0,0:0:0:0:
224,224,14885,1,0,0:0:0:0:
88,276,14990,1,0,0:0:0:0:
296,316,15050,1,0,0:0:0:0:
160,120,15095,1,0,0:0:0:0:
468,144,15110,1,0,0:0:0:0:
248,72,15170,1,0,0:0:0:0:
136,184,15200,1,0,0:0:0:0:
256,164,15290,1,0,0:0:0:0:
104,184,15320,1,0,0:0:0:0:
76,104,15425,1,0,0:0:0:0:
116,64,15515,1,0,0:0:0:0:
156,160,15560,1,0,0:0:0:0:
124,224,15590,1,0,0:0:0:0:
248,32,15620,1,0,0:0:0:0:
236,232,15650,1,0,0:0:0:0:
312,160,15710,1,0,0:0:0:0:
428,56,15725,1,0,0:0:0:0:
100,72,15755,1,0,0:0:0:0:
484,84,15815,1,0,0:0:0:0:
344,56,15875,1,0,0:0:0:0:
60,172,15935,1,0,0:0:0:0:
184,288,15995,1,0,0:0:0:0:
392,296,16040,1,0,0:0:0:0:
84,176,16055,1,0,0:0:0:0:
276,96,16115,1,0,0:0:0:0:
336,248,16160,1,0,0:0:0:0:
200,256,16250,1,0,0:0:0:0:
364,112,16265,1,0,0:0:0:0:
440,232,16310,1,0,0:0:0:0:
312,84,16340,1,0,0:0:0:0:
200,128,16370,1,0,0:0:0:0:
308,216,16460,1,0,0:0:0:0:
272,280,16550,1,0,0:0:0:0:
272,216,16565,1,0,0:0:0:0:
112,252,16640,1,0,0:0:0:0:
168,228,16670,1,0,0:0:0:0:
200,164,16700,1,0,0:0:0:0:
456,152,16775,1,0,0:0:0:0:
232,64,16865,1,0,0:0:0:0:
360,92,16910,1,0,0:0:0:0:
152,108,16955,1,0,0:0:0:0:
328,236,16970,1,0,0:0:0:0:
64,140,17030,1,0,0:0:0:0:
112,200,17060,1,0,0:0:0:0:
336,24,17090,1,0,0:0:0:0:
160,232,17150,1,0,0:0:0:0:
32,172,17165,1,0,0:0:0:0:
88,64,17255,1,0,0:0:0:0:
92,280,17285,1,0,0:0:0:0:
156,132,17375,1,0,0:0:0:0:
404,192,17435,1,0,0:0:0:0:
336,48,17465,1,0,0:0:0:0:
272,320,17495,1,0,0:0:0:0:
396,120,17570,1,0,0:0:0:0:
84,232,17630,1,0,0:0:0:0:
392,176,17660,1,0,0:0:0:0:
140,120,17690,1,0,0:0:0:0:
340,200,17750,1,0,0:0:0:0:
108,272,17810,1,0,0:0:0:0:
264,200,17840,1,0,0:0:0:0:
256,200,17945,2,0,B|288:164|288:164|300:152,35,35
80,56,18050,1,0,0:0:0:0:
296,240,18110,2,0,P|552:80|204:40,1,840
268,104,18155,2,0,L|-140:352,1,455
8,116,18200,2,0,B|600:376|-128:344,1,735
136,80,18215,1,0,0:0:0:0:
124,288,18335,1,0,0:0:0:0:
424,88,18500,1,0,0:0:0:0:
