osu file format v14

[General]
AudioFilename: audio.mp3
AudioLeadIn: 0
PreviewTime: 36562
Countdown: 0
SampleSet: Soft
StackLeniency: 0.4
Mode: 0
LetterboxInBreaks: 0
WidescreenStoryboard: 1

[Editor]
DistanceSpacing: 0.7
BeatDivisor: 3
GridSize: 8
TimelineZoom: 2

[Metadata]
Title:Sentou Amu
TitleUnicode:戦闘アム
Artist:Shade
ArtistUnicode:Shade
Creator:Shurelia
Version:ponbot's X
Source:ランス・クエスト マグナム
Tags:Rance Quest Magnum 8 VIII battle am isuel イスエル rock instrumental video game eroge visual novel rpg jrpg alicesoft pepega cup 3 ppg3 QF HD1 scubdomino ponbot supav kalibe frozz nakazawa amateurre
BeatmapID:4451457
BeatmapSetID:2111360

[Difficulty]
HPDrainRate:5.5
CircleSize:4
OverallDifficulty:8.7
ApproachRate:9.5
SliderMultiplier:1.8
SliderTickRate:1

[Events]
//Background and Video events
0,0,"ambgpic.jpg",0,0
//Break Periods
2,131048,139285
2,187113,194799
2,207300,213864
//Storyboard Layer 0 (Background)
//Storyboard Layer 1 (Fail)
//Storyboard Layer 2 (Pass)
//Storyboard Layer 3 (Foreground)
//Storyboard Layer 4 (Overlay)
//Storyboard Sound Samples

[TimingPoints]
745,280.373831775701,4,2,1,50,1,0
16445,-100,4,2,1,70,0,0
34670,-83.3333333333333,4,2,1,70,0,0
36212,-400,4,2,1,70,0,0
36632,-83.3333333333333,4,2,1,80,0,1
54576,-83.3333333333333,4,2,1,80,0,0
56819,-100,4,2,1,80,0,0
56889,-100,4,2,1,70,0,0
74763,-133.333333333333,4,2,1,70,0,0
83735,-100,4,2,1,70,0,0
94950,-83.3333333333333,4,2,1,80,0,1
112894,-100,4,2,1,75,0,0
121866,-83.3333333333333,4,2,1,80,0,1
130838,-100,4,2,1,70,0,0
148782,-133.333333333333,4,2,1,50,0,0
156632,-100,4,2,1,70,0,0
157754,-133.333333333333,4,2,1,50,0,0
161539,-100,4,2,1,70,0,0
168548,-399.999999999997,4,2,1,70,0,0
168969,-83.3333333333333,4,2,1,85,0,1
186352,-100,4,2,1,85,0,1
186913,-100,4,2,1,85,0,0
195324,-100,4,2,1,70,0,0
196165,-83.3333333333333,4,2,1,70,0,0
196445,-83.3333333333333,4,2,1,70,0,1
196726,-83.3333333333333,4,2,1,85,0,1
207100,-100,4,2,1,75,0,0
214389,-83.3333333333333,4,2,1,75,0,0
216072,-83.3333333333333,4,2,1,80,0,0
223782,-100,4,2,1,80,0,0
224623,-400,4,2,1,80,0,0
224763,-400,4,2,1,70,0,0
226165,-400,4,2,1,60,0,0
227287,-400,4,2,1,50,0,0
228409,-400,4,2,1,40,0,0
228969,-400,4,2,1,30,0,0
229530,-400,4,2,1,20,0,0
230371,-400,4,2,1,10,0,0
231773,-400,4,2,1,5,0,0

[Colours]
Combo1 : 255,60,60
Combo2 : 128,128,128
Combo3 : 198,0,0
Combo4 : 192,192,192

[HitObjects]
64,192,16445,5,12,1:2:0:0:
448,192,16726,1,8,1:2:0:0:
256,32,17567,5,0,1:0:0:0:
256,32,17637,1,0,1:0:0:0:
256,32,17707,1,0,1:0:0:0:
296,104,17847,6,0,B|298:151|298:151|209:180|209:180|211:227,1,180,8|8,1:2|3:3,0:0:0:0:
214,237,18221,1,8,3:3:0:0:
216,254,18315,1,8,3:3:0:0:
218,271,18408,1,4,3:3:0:0:
221,288,18502,1,4,3:3:0:0:
224,305,18595,1,4,3:3:0:0:
226,322,18688,6,0,L|46:318,1,180,0|10,1:1|3:2,0:0:0:0:
86,237,19109,1,0,1:0:0:0:
0,236,19249,1,2,1:3:0:0:
0,236,19389,2,0,B|6:190|6:190|-4:127,1,90,0|10,1:0|3:2,0:0:0:0:
44,68,19670,6,0,B|70:97|70:97|110:83|110:83|137:132|197:123,1,180,0|0,1:0|1:0,0:0:0:0:
192,123,20020,1,0,1:0:0:0:
192,123,20090,1,10,3:2:0:0:
155,205,20230,1,0,1:0:0:0:
228,266,20371,5,2,0:3:0:0:
188,346,20511,1,0,1:0:0:0:
277,346,20651,1,10,3:2:0:0:
234,248,20791,1,0,1:0:0:0:
234,248,20861,1,0,3:0:0:0:
234,248,20931,2,0,L|251:51,1,180,2|10,1:2|3:2,0:0:0:0:
337,91,21352,1,0,1:0:0:0:
319,7,21492,1,2,1:3:0:0:
319,7,21632,2,0,L|424:5,1,90,0|10,1:0|3:2,0:0:0:0:
494,152,21913,6,0,B|431:154|431:154|388:120|388:120|323:121,1,180,0|0,1:0|1:0,0:0:0:0:
325,121,22263,1,0,1:0:0:0:
325,121,22333,1,10,3:2:0:0:
354,217,22473,1,0,1:0:0:0:
275,261,22614,1,2,0:3:0:0:
278,273,22684,1,0,1:0:0:0:
281,285,22754,1,0,1:3:0:0:
284,297,22824,1,0,1:0:0:0:
288,309,22894,2,0,P|241:319|174:333,1,90,10|0,3:2|1:0,0:0:0:0:
144,384,23174,6,0,P|60:349|-21:313,1,180,0|10,1:1|3:2,0:0:0:0:
71,241,23595,1,0,1:0:0:0:
0,195,23735,1,2,1:3:0:0:
0,195,23875,2,0,B|15:150|15:150|5:107,1,90,0|10,1:0|3:2,0:0:0:0:
72,32,24156,6,0,B|107:74|107:74|157:83|157:83|159:123|199:150,1,180,0|0,1:0|1:0,0:0:0:0:
192,145,24506,1,0,1:0:0:0:
192,145,24576,1,10,3:2:0:0:
161,234,24716,1,0,1:0:0:0:
251,240,24857,5,2,0:3:0:0:
211,350,24997,1,0,1:0:0:0:
327,339,25137,1,10,3:2:0:0:
449,368,25277,5,0,1:0:0:0:
449,368,25347,1,0,3:0:0:0:
449,368,25417,2,0,B|469:330|469:330|438:298|438:298|471:253|442:202,1,180,2|10,1:2|3:2,0:0:0:0:
374,156,25838,1,0,1:0:0:0:
366,245,25978,5,2,1:3:0:0:
458,124,26118,2,0,B|442:88|442:88|458:26,1,90,0|10,1:0|3:2,0:0:0:0:
369,0,26399,2,0,P|312:37|188:109,1,180,4|0,1:2|1:0,0:0:0:0:
212,107,26749,1,0,1:0:0:0:
209,120,26819,1,10,3:2:0:0:
147,43,26959,1,0,1:0:0:0:
100,173,27100,5,8,2:0:0:0:
23,81,27240,1,0,1:0:0:0:
23,81,27310,1,0,3:0:0:0:
22,80,27380,2,0,P|67:80|112:77,1,90,8|8,2:0|2:0,0:0:0:0:
214,191,27660,5,0,1:1:0:0:
131,268,27801,1,0,1:0:0:0:
239,298,27941,1,10,3:2:0:0:
221,206,28081,5,0,1:0:0:0:
138,283,28222,1,2,1:3:0:0:
246,313,28362,1,0,1:0:0:0:
228,221,28502,5,10,3:2:0:0:
145,298,28642,2,0,L|331:350,1,180,0|0,1:0|1:0,0:0:0:0:
331,351,28992,1,0,1:0:0:0:
344,355,29062,5,10,3:2:0:0:
408,263,29202,1,0,1:0:0:0:
436,349,29343,5,2,0:3:0:0:
468,195,29483,1,0,1:0:0:0:
325,255,29623,1,10,3:2:0:0:
325,255,29763,1,0,1:0:0:0:
378,131,29903,5,2,1:2:0:0:
408,263,30044,1,0,1:0:0:0:
507,170,30184,1,10,3:2:0:0:
363,135,30324,5,0,1:0:0:0:
393,267,30465,1,2,1:3:0:0:
492,174,30605,1,0,1:0:0:0:
348,139,30745,5,10,3:2:0:0:
378,271,30885,2,0,L|497:128,1,180,0|0,1:0|1:0,0:0:0:0:
489,120,31235,1,0,1:0:0:0:
486,107,31305,1,10,3:2:0:0:
315,53,31445,1,0,1:0:0:0:
388,0,31586,5,8,3:3:0:0:
408,15,31679,2,0,P|408:44|408:74,1,60,8|8,3:3|3:3,0:0:0:0:
344,139,31866,5,4,3:3:0:0:
324,124,31959,2,0,P|323:94|323:64,1,60,4|4,3:3|3:3,0:0:0:0:
246,1,32146,5,4,1:1:0:0:
176,143,32287,1,0,1:0:0:0:
88,13,32427,1,10,3:2:0:0:
228,16,32567,5,0,1:0:0:0:
158,158,32708,1,2,1:3:0:0:
70,28,32848,1,0,1:0:0:0:
210,31,32987,5,10,3:2:0:0:
140,173,33128,2,0,L|36:21,1,180,0|0,1:0|1:0,0:0:0:0:
25,22,33478,1,0,1:0:0:0:
12,19,33548,1,10,3:2:0:0:
124,86,33688,1,0,1:0:0:0:
42,205,33829,5,2,0:3:0:0:
225,158,33969,1,0,1:0:0:0:
112,260,34109,1,10,3:2:0:0:
112,260,34249,1,0,1:0:0:0:
256,48,34389,5,4,1:2:0:0:
256,48,34670,2,0,B|251:115|188:144|188:144|251:223|260:157|326:239|326:239|242:268|251:351,1,431.999986816407,10|10,3:2|3:2,0:0:0:0:
250,338,35371,5,4,1:0:0:0:
334,354,35791,1,10,3:2:0:0:
415,369,36072,1,0,1:0:0:0:
422,362,36212,6,0,L|417:307,1,45,0|0,1:0|0:0,0:0:0:0:
455,204,36632,5,6,1:2:0:0:
316,357,36773,1,0,1:0:0:0:
276,156,36913,1,10,0:0:0:0:
431,234,37053,6,0,B|397:247|397:247|370:219|370:219|333:255|283:239,1,161.999995056153,0|0,1:0|0:0,0:0:0:0:
267,271,37333,1,0,1:0:0:0:
371,107,37473,1,10,0:0:0:0:
189,205,37614,6,0,B|182:159|182:159|188:138|188:138|180:89,1,107.999996704102,0|0,1:0|2:0,0:0:0:0:
258,10,37894,1,0,1:0:0:0:
258,10,37964,1,0,1:0:0:0:
258,10,38034,1,10,0:0:0:0:
64,58,38174,2,0,P|74:115|83:171,1,107.999996704102,0|0,1:0|1:0,0:0:0:0:
197,322,38455,5,0,1:0:0:0:
197,322,38525,1,0,0:0:0:0:
197,322,38595,2,0,B|153:314|119:296|119:296|84:320|56:353,1,161.999995056153,10|8,0:0|3:2,0:0:0:0:
61,372,38875,5,0,1:1:0:0:
0,249,39016,1,0,1:0:0:0:
118,181,39156,1,10,0:0:0:0:
54,65,39296,2,0,P|107:70|161:75,1,107.999996704102,0|0,1:0|1:0,0:0:0:0:
217,161,39576,5,0,1:0:0:0:
335,20,39716,1,10,0:0:0:0:
333,205,39857,2,0,P|236:194|116:181,1,215.999993408203,0|0,1:0|1:0,0:0:0:0:
106,190,40207,1,0,1:0:0:0:
94,199,40277,5,14,0:0:0:0:
137,298,40417,1,0,1:0:0:0:
209,164,40558,1,14,0:0:0:0:
272,295,40698,1,0,1:0:0:0:
342,126,40838,1,14,0:0:0:0:
428,299,40978,5,0,0:0:0:0:
428,299,41048,1,0,1:0:0:0:
428,299,41118,2,0,L|423:192,1,107.999996704102,4|0,1:1|1:0,0:0:0:0:
512,150,41399,1,10,0:0:0:0:
431,10,41539,2,0,P|353:13|265:11,1,161.999995056153,0|0,1:0|0:0,0:0:0:0:
251,26,41819,5,0,1:0:0:0:
342,126,41959,1,10,0:0:0:0:
213,167,42100,2,0,B|231:219|231:219|220:275,1,107.999996704102,0|0,1:0|2:0,0:0:0:0:
208,362,42380,1,0,1:0:0:0:
208,362,42450,1,0,1:0:0:0:
208,362,42520,1,10,0:0:0:0:
107,235,42660,2,0,P|123:155|139:76,1,161.999995056153,0|0,1:0|0:0,0:0:0:0:
146,50,42941,5,0,1:0:0:0:
17,148,43081,1,10,0:0:0:0:
197,222,43221,1,0,1:0:0:0:
280,80,43361,5,0,1:1:0:0:
232,304,43502,1,0,1:0:0:0:
280,80,43642,5,10,0:0:0:0:
232,304,43783,1,0,1:0:0:0:
280,80,43922,5,0,1:0:0:0:
232,304,44063,1,0,1:0:0:0:
280,80,44202,5,10,0:0:0:0:
232,304,44343,2,0,B|265:322|265:322|310:312|310:312|386:346,1,161.999995056153,4|0,1:0|0:0,0:0:0:0:
398,370,44623,1,0,1:0:0:0:
374,226,44763,1,14,0:0:0:0:
494,308,44903,1,0,0:0:0:0:
470,164,45044,5,8,3:3:0:0:
478,121,45137,1,8,3:3:0:0:
487,79,45230,1,8,3:3:0:0:
496,36,45324,1,4,3:3:0:0:
453,28,45417,1,4,3:3:0:0:
410,20,45511,1,4,3:3:0:0:
367,12,45604,5,4,1:2:0:0:
317,108,45745,1,0,1:0:0:0:
240,32,45885,1,10,0:0:0:0:
320,134,46025,2,0,B|318:203|318:203|306:229|306:229|304:301,1,161.999995056153,0|0,1:0|0:0,0:0:0:0:
304,323,46305,1,0,1:0:0:0:
403,216,46445,1,10,0:0:0:0:
218,279,46586,6,0,L|222:171,1,107.999996704102,0|0,1:0|2:0,0:0:0:0:
243,82,46866,1,0,1:0:0:0:
243,82,46936,1,0,1:0:0:0:
243,82,47006,1,10,0:0:0:0:
136,0,47146,2,0,P|132:87|124:231,1,215.999993408203,0|0,1:0|1:0,0:0:0:0:
120,232,47497,1,0,1:0:0:0:
116,248,47567,1,10,0:0:0:0:
221,171,47707,1,0,1:0:0:0:
33,158,47847,5,0,1:1:0:0:
111,347,47987,1,0,1:0:0:0:
0,251,48128,1,10,0:0:0:0:
140,151,48268,6,0,P|164:235|188:318,1,161.999995056153,0|0,1:0|0:0,0:0:0:0:
192,333,48548,1,0,1:0:0:0:
284,213,48688,1,10,0:0:0:0:
292,365,48829,2,0,B|337:381|337:381|376:347|376:347|436:379|486:326,1,215.999993408203,0|0,1:0|1:0,0:0:0:0:
482,330,49179,1,0,1:0:0:0:
482,330,49249,1,14,0:0:0:0:
412,241,49389,1,0,1:0:0:0:
512,166,49530,5,14,0:0:0:0:
400,330,49670,1,0,1:0:0:0:
389,334,49740,1,0,1:0:0:0:
378,338,49810,1,14,0:0:0:0:
416,142,49950,1,0,0:0:0:0:
339,190,50090,5,4,1:1:0:0:
484,78,50230,1,0,1:0:0:0:
306,26,50371,1,10,0:0:0:0:
399,0,50511,2,0,L|379:116,1,107.999996704102,0|0,1:0|1:2,0:0:0:0:
421,230,50791,1,0,1:0:0:0:
295,112,50931,1,10,0:0:0:0:
309,285,51072,6,0,P|256:281|188:273,1,107.999996704102,0|0,1:0|2:0,0:0:0:0:
132,372,51352,1,0,1:0:0:0:
132,372,51422,1,0,1:0:0:0:
132,372,51492,1,10,0:0:0:0:
59,278,51632,2,0,B|80:227|80:227|65:176,1,107.999996704102,0|0,1:0|1:0,0:0:0:0:
166,192,51913,6,0,P|181:113|204:4,1,161.999995056153,0|0,1:0|0:0,0:0:0:0:
190,19,52193,1,0,1:0:0:0:
101,76,52333,5,4,1:1:0:0:
258,171,52473,1,0,1:0:0:0:
328,0,52614,1,10,0:0:0:0:
270,91,52754,2,0,L|291:251,1,161.999995056153,4|0,1:2|0:0,0:0:0:0:
296,273,53034,5,0,1:0:0:0:
399,148,53174,1,10,0:0:0:0:
412,365,53315,2,0,B|361:336|361:336|290:364|290:364|220:323,1,215.999993408203,4|0,1:0|1:0,0:0:0:0:
202,233,53735,5,8,2:0:0:0:
119,384,53875,1,8,2:0:0:0:
70,217,54016,5,8,2:0:0:0:
262,303,54156,1,8,2:0:0:0:
189,106,54296,1,8,2:0:0:0:
105,299,54436,1,8,2:0:0:0:
32,102,54576,5,2,1:2:0:0:
32,102,54857,1,2,1:2:0:0:
128,69,55698,5,2,1:2:0:0:
128,69,55979,1,2,1:2:0:0:
221,36,56259,5,8,3:3:0:0:
258,56,56352,1,8,3:3:0:0:
295,76,56445,1,8,3:3:0:0:
332,97,56539,1,4,3:3:0:0:
370,78,56632,1,4,3:3:0:0:
409,59,56726,1,4,3:3:0:0:
446,40,56819,6,0,L|438:240,1,180,4|10,1:1|3:2,0:0:0:0:
438,219,57240,2,0,B|397:207|397:207|357:231,1,90,0|2,0:0|1:3,0:0:0:0:
349,324,57520,1,0,1:0:0:0:
349,324,57660,1,10,3:2:0:0:
270,279,57801,6,0,B|276:207|276:207|255:170|255:170|262:90,1,180,0|0,1:0|1:0,0:0:0:0:
338,60,58221,1,10,3:2:0:0:
259,15,58361,2,0,B|192:33|192:33|149:79|173:151,1,180,0|0,1:0|1:0,0:0:0:0:
186,224,58782,2,0,P|138:223|96:189,1,90,10|0,3:2|0:0,0:0:0:0:
75,115,59062,6,0,P|69:171|51:297,2,180,2|10|2,1:2|3:2|1:3,0:0:0:0:
8,53,59763,1,0,1:0:0:0:
89,11,59903,1,10,3:2:0:0:
89,11,60044,2,0,B|111:31|111:31|151:9|151:9|189:48|265:36,1,180,0|0,1:0|1:0,0:0:0:0:
286,119,60464,1,10,3:2:0:0:
286,119,60604,2,0,B|258:132|242:149|242:149|262:213|231:278,1,180,0|2,1:0|1:3,0:0:0:0:
181,346,61025,2,0,P|224:365|267:358,1,90,14|0,3:2|0:0,0:0:0:0:
322,289,61305,2,0,P|389:298|419:332,1,90,4|0,1:1|0:0,0:0:0:0:
459,383,61586,6,0,B|448:310|448:310|464:277|464:277|455:200,1,180,10|2,3:2|1:3,0:0:0:0:
381,156,62006,1,0,1:0:0:0:
463,116,62146,1,10,3:2:0:0:
463,116,62287,2,0,B|491:69|491:69|468:-2|392:2,1,180,0|0,1:0|1:0,0:0:0:0:
313,36,62707,2,0,P|296:86|312:136,1,90,10|0,3:2|1:0,0:0:0:0:
296,210,62987,1,2,0:3:0:0:
214,171,63128,2,0,P|207:77|195:-10,1,180,0|0,1:0|0:0,0:0:0:0:
117,37,63548,5,2,1:2:0:0:
185,95,63688,1,0,0:0:0:0:
123,161,63829,2,0,P|129:216|144:286,1,90,10|0,3:2|0:0,0:0:0:0:
207,303,64109,1,2,1:3:0:0:
127,345,64249,2,0,B|86:324|86:324|46:351,1,90,0|10,1:0|3:2,0:0:0:0:
1,272,64530,6,0,B|10:214|10:214|6:192|6:192|18:120,1,135,4|0,1:2|0:0,0:0:0:0:
8,108,64810,1,8,3:2:0:0:
99,188,64950,1,8,3:2:0:0:
148,77,65090,1,8,3:2:0:0:
274,163,65230,1,8,3:2:0:0:
194,205,65371,2,0,P|194:295|198:385,1,180,4|0,1:2|3:0,0:0:0:0:
288,328,65791,5,8,0:2:0:0:
288,328,66072,2,0,B|328:348|328:348|385:336,1,90,2|0,0:0|0:0,0:0:0:0:
452,379,66352,1,8,0:2:0:0:
503,305,66492,2,0,B|471:261|471:261|507:209|507:209|458:149,1,180,0|4,1:0|1:2,0:0:0:0:
378,177,66913,1,0,0:0:0:0:
378,177,67053,1,8,0:2:0:0:
408,92,67193,6,0,L|444:2,1,90,2|0,1:2|0:0,0:0:0:0:
380,267,67473,1,8,0:2:0:0:
380,267,67614,2,0,B|348:185|348:185|260:160,1,180,0|0,1:0|0:0,0:0:0:0:
260,159,68034,2,0,P|283:96|304:38,1,90,8|0,0:2|0:0,0:0:0:0:
194,6,68315,6,0,B|207:50|207:50|189:98,1,90,2|0,0:0|0:0,0:0:0:0:
161,175,68595,1,8,0:2:0:0:
221,241,68735,2,0,P|193:320|172:387,1,135,0|0,1:0|0:0,0:0:0:0:
190,384,69016,1,4,1:2:0:0:
87,361,69156,6,0,B|104:319|104:319|93:276,1,90,0|8,0:0|0:2,0:0:0:0:
296,292,69436,2,0,B|279:334|279:334|290:377,1,90,2|0,1:2|0:0,0:0:0:0:
143,187,69716,1,8,0:2:0:0:
233,144,69857,2,0,P|324:193|402:228,1,180,0|8,1:0|3:2,0:0:0:0:
401,236,70207,1,8,3:2:0:0:
409,247,70277,6,0,B|405:197|405:197|424:159,1,90,4|0,1:2|0:0,0:0:0:0:
508,131,70558,1,10,3:2:0:0:
458,55,70698,2,0,P|398:78|341:95,1,90,0|2,1:0|1:3,0:0:0:0:
309,168,70978,6,0,P|289:126|243:121,1,90,0|10,1:0|3:2,0:0:0:0:
216,8,71259,2,0,P|173:83|115:170,1,180,4|8,1:1|3:2,0:0:0:0:
215,205,71679,1,8,3:2:0:0:
133,268,71819,1,8,3:2:0:0:
231,302,71959,1,8,3:2:0:0:
59,350,72100,2,0,P|45:258|35:168,1,180,0|0,1:0|0:0,0:0:0:0:
23,82,72520,5,4,1:2:0:0:
105,116,72660,1,0,1:0:0:0:
128,28,72801,1,0,1:0:0:0:
213,56,72941,1,0,1:0:0:0:
192,143,73081,5,8,3:2:0:0:
277,170,73221,1,0,0:0:0:0:
210,230,73361,1,0,1:0:0:0:
296,257,73502,2,0,P|381:253|499:245,1,180,8|0,3:2|1:0,0:0:0:0:
476,247,73922,2,0,B|438:270|438:270|424:318,1,90,0|0,1:0|0:0,0:0:0:0:
376,384,74202,5,14,0:0:0:0:
360,368,74296,2,0,P|341:346|304:340,1,60,0|8,0:0|0:2,0:0:0:0:
304,230,74483,5,8,3:3:0:0:
288,246,74577,2,0,P|269:268|232:274,1,60,8|8,3:3|3:3,0:0:0:0:
200,376,74763,5,4,1:0:0:0:
166,346,74857,1,0,1:0:0:0:
121,339,74950,1,0,1:0:0:0:
76,348,75044,1,0,1:0:0:0:
33,332,75137,1,0,1:0:0:0:
10,293,75230,1,0,1:0:0:0:
18,248,75324,1,8,3:2:0:0:
18,248,75885,5,4,1:2:0:0:
45,283,75978,1,0,1:0:0:0:
88,296,76072,1,0,1:0:0:0:
127,274,76165,1,0,1:0:0:0:
141,231,76259,1,0,1:0:0:0:
173,199,76352,1,0,1:0:0:0:
217,199,76445,1,8,3:2:0:0:
217,199,77006,5,4,1:0:0:0:
186,165,77100,1,0,1:0:0:0:
141,160,77193,1,0,1:0:0:0:
100,179,77287,1,0,1:0:0:0:
55,172,77380,1,0,1:0:0:0:
23,139,77473,1,0,1:0:0:0:
27,93,77567,1,8,3:2:0:0:
27,93,78128,5,4,1:2:0:0:
66,113,78221,1,0,1:0:0:0:
109,102,78315,1,0,1:0:0:0:
137,67,78408,1,0,1:0:0:0:
173,39,78502,1,0,1:0:0:0:
217,33,78595,1,0,1:0:0:0:
257,51,78688,1,8,3:2:0:0:
257,51,79249,5,4,1:0:0:0:
230,87,79343,1,0,1:0:0:0:
229,131,79436,1,0,1:0:0:0:
241,174,79530,1,0,1:0:0:0:
253,216,79623,1,0,1:0:0:0:
242,259,79716,1,0,1:0:0:0:
214,294,79810,1,8,3:2:0:0:
214,294,80371,5,4,1:2:0:0:
258,287,80464,1,0,1:0:0:0:
301,299,80558,1,0,1:0:0:0:
337,324,80651,1,0,1:0:0:0:
372,351,80745,1,0,1:0:0:0:
412,369,80838,1,0,1:0:0:0:
456,365,80931,1,8,3:2:0:0:
456,365,81492,5,4,1:0:0:0:
437,323,81586,1,0,1:0:0:0:
437,278,81679,1,0,1:0:0:0:
457,237,81773,1,0,1:0:0:0:
480,198,81866,1,0,1:0:0:0:
482,153,81959,1,0,1:0:0:0:
460,111,82053,1,8,3:2:0:0:
460,111,82614,5,4,1:2:0:0:
432,146,82707,1,0,1:0:0:0:
386,147,82801,1,0,1:0:0:0:
357,112,82894,1,0,1:0:0:0:
368,68,82987,1,0,1:0:0:0:
341,31,83081,1,0,1:0:0:0:
296,32,83174,2,0,L|261:39,2,33.7500012874604,8|8|8,3:2|3:2|3:2,0:0:0:0:
240,144,83455,5,8,3:2:0:0:
174,0,83595,1,8,3:2:0:0:
108,144,83735,2,0,B|66:125|66:125|10:130,1,90,0|0,1:1|0:0,0:0:0:0:
80,17,84016,2,0,P|157:34|271:52,1,180,10|2,3:2|1:3,0:0:0:0:
175,211,84436,1,0,1:0:0:0:
324,110,84576,1,10,3:2:0:0:
246,272,84716,6,0,B|330:239|330:239|392:307,1,180,0|0,1:0|1:0,0:0:0:0:
390,305,85137,2,0,P|396:250|404:197,1,90,10|0,3:2|1:0,0:0:0:0:
489,202,85417,1,2,0:3:0:0:
455,119,85558,1,0,1:0:0:0:
455,119,85628,1,0,0:0:0:0:
455,119,85698,2,0,B|411:126|411:126|358:90,1,90,10|0,3:2|1:0,0:0:0:0:
304,156,85978,6,0,B|278:99|278:99|304:52|304:52|275:33|273:-3,1,180,2|10,1:2|3:2,0:0:0:0:
195,57,86399,2,0,P|193:125|189:172,1,90,0|2,1:0|1:3,0:0:0:0:
242,220,86679,1,0,1:0:0:0:
178,283,86819,1,10,3:2:0:0:
223,360,86959,6,0,B|147:311|147:311|62:338,1,180,0|0,1:0|1:0,0:0:0:0:
1,270,87380,2,0,P|6:226|7:178,1,90,10|0,3:2|1:0,0:0:0:0:
86,138,87660,1,2,0:3:0:0:
80,47,87801,1,0,1:3:0:0:
80,47,87871,1,0,1:0:0:0:
80,47,87941,2,0,B|124:52|124:52|186:39,1,90,10|0,3:2|1:0,0:0:0:0:
256,88,88221,5,0,3:1:0:0:
169,191,88361,1,0,3:1:0:0:
286,258,88502,1,0,3:1:0:0:
227,379,88642,1,0,3:1:0:0:
358,349,88782,1,8,3:2:0:0:
381,216,88922,1,0,3:2:0:0:
503,290,89062,1,8,3:2:0:0:
512,146,89202,2,0,P|478:98|454:62,1,90,0|8,3:1|3:2,0:0:0:0:
343,3,89483,5,8,3:2:0:0:
391,128,89623,1,8,3:2:0:0:
258,105,89763,1,8,3:2:0:0:
316,226,89903,1,8,3:2:0:0:
189,177,90044,1,8,3:2:0:0:
200,42,90184,2,0,P|129:57|79:63,1,90,8|8,3:2|3:2,0:0:0:0:
65,186,90464,6,0,P|86:209|103:232,3,60,8|8|8|4,3:2|3:2|3:3|3:3,0:0:0:0:
216,272,91025,6,0,P|201:299|184:323,3,60,8|8|8|4,3:2|3:2|3:3|3:3,0:0:0:0:
256,384,91586,6,0,P|279:363|302:346,3,60,8|8|8|4,3:2|3:2|3:3|3:3,0:0:0:0:
342,233,92147,5,8,3:2:0:0:
368,248,92240,1,8,3:2:0:0:
393,265,92333,1,8,3:2:0:0:
418,281,92427,1,8,3:2:0:0:
446,273,92520,1,8,3:2:0:0:
474,263,92613,1,8,3:2:0:0:
502,253,92707,5,12,3:2:0:0:
433,170,92847,1,8,3:2:0:0:
503,88,92987,1,8,3:2:0:0:
419,19,93128,1,8,3:2:0:0:
318,108,93268,1,8,3:2:0:0:
226,9,93408,1,8,3:2:0:0:
119,91,93548,1,8,3:2:0:0:
211,188,93688,1,4,1:1:0:0:
211,188,94950,5,4,1:2:0:0:
122,348,95090,1,0,1:0:0:0:
15,199,95230,1,10,0:0:0:0:
188,269,95371,2,0,B|203:237|203:237|182:210|182:210|198:162|179:117,1,161.999995056153,0|0,1:0|0:0,0:0:0:0:
166,96,95651,5,0,1:0:0:0:
90,263,95791,1,10,0:0:0:0:
279,120,95931,2,0,B|300:134|323:132|323:132|341:152|341:152|374:161,1,107.999996704102,0|0,1:0|2:0,0:0:0:0:
402,254,96212,1,0,1:0:0:0:
402,254,96282,1,0,1:0:0:0:
402,254,96352,1,10,0:0:0:0:
512,173,96492,6,0,B|491:179|465:181|465:181|459:152|461:126|461:126|409:92|363:48,1,215.999993408203,0|0,1:0|1:0,0:0:0:0:
264,12,96913,2,0,P|272:70|280:129,1,107.999996704102,10|0,0:0|1:0,0:0:0:0:
273,134,97123,1,8,3:2:0:0:
267,148,97193,1,0,1:1:0:0:
375,59,97333,1,0,1:0:0:0:
186,105,97473,1,10,0:0:0:0:
371,167,97614,6,0,B|335:239|335:239|347:319,1,161.999995056153,0|0,1:0|0:0,0:0:0:0:
351,341,97894,1,0,1:0:0:0:
248,230,98034,1,10,0:0:0:0:
242,381,98174,6,0,B|174:360|174:360|131:377|131:377|90:345|32:349,1,215.999993408203,0|0,1:0|1:0,0:0:0:0:
38,348,98525,1,0,1:0:0:0:
38,348,98595,1,14,0:0:0:0:
128,213,98735,1,0,1:0:0:0:
158,338,98875,1,14,0:0:0:0:
25,261,99016,1,0,1:0:0:0:
25,261,99086,1,0,1:0:0:0:
25,261,99156,2,0,P|22:164|20:132,1,107.999996704102,14|0,0:0|0:0,0:0:0:0:
77,24,99436,5,4,1:1:0:0:
125,190,99576,1,0,1:0:0:0:
266,91,99716,1,10,0:0:0:0:
225,226,99857,2,0,B|267:205|267:205|310:224|310:224|339:197|382:207,1,161.999995056153,0|0,1:0|0:0,0:0:0:0:
402,219,100137,5,0,1:0:0:0:
367,309,100277,1,10,0:0:0:0:
349,105,100417,2,0,P|403:117|467:128,1,107.999996704102,0|0,1:0|2:0,0:0:0:0:
512,224,100698,1,0,1:0:0:0:
512,224,100768,1,0,1:0:0:0:
512,224,100838,1,10,0:0:0:0:
356,331,100978,2,0,P|262:310|191:292,1,161.999995056153,0|0,1:0|0:0,0:0:0:0:
168,307,101259,1,0,1:0:0:0:
301,196,101399,1,10,0:0:0:0:
218,383,101539,1,0,1:0:0:0:
229,68,101679,5,0,1:1:0:0:
282,315,101820,1,0,1:0:0:0:
229,68,101960,5,10,0:0:0:0:
282,315,102101,1,0,1:0:0:0:
229,68,102240,5,0,1:0:0:0:
282,315,102381,1,0,1:0:0:0:
229,68,102520,5,10,0:0:0:0:
282,315,102661,2,0,B|246:335|246:335|196:324|196:324|113:361,1,161.999995056153,4|0,1:0|0:0,0:0:0:0:
114,372,102941,1,0,1:0:0:0:
207,201,103081,1,14,0:0:0:0:
40,300,103221,1,8,3:3:0:0:
117,145,103361,6,0,B|101:118|101:118|115:86,3,53.9999983520508,8|8|8|8,3:3|3:3|3:3|3:3,0:0:0:0:
188,109,103642,2,0,B|197:88|197:88|181:61,3,53.9999983520508,4|8|8|0,3:3|3:3|3:3|3:3,0:0:0:0:
113,18,103922,5,4,1:2:0:0:
254,159,104062,1,0,1:0:0:0:
62,212,104202,1,10,0:0:0:0:
188,109,104343,2,0,B|229:100|229:100|253:129|253:129|297:111|336:147,1,161.999995056153,0|0,1:0|0:0,0:0:0:0:
348,162,104623,1,0,1:0:0:0:
228,286,104763,1,10,0:0:0:0:
409,355,104903,6,0,B|411:312|411:312|423:287|423:287|425:246,1,107.999996704102,0|0,1:0|2:0,0:0:0:0:
512,169,105184,1,0,1:0:0:0:
512,169,105254,1,0,1:0:0:0:
512,169,105324,1,10,0:0:0:0:
392,31,105464,2,0,L|284:47,1,107.999996704102,0|0,1:0|1:0,0:0:0:0:
218,145,105745,1,0,1:0:0:0:
226,133,105815,1,0,1:0:0:0:
234,121,105885,2,0,L|99:98,1,107.999996704102,10|0,0:0|1:0,0:0:0:0:
70,12,106165,5,0,1:1:0:0:
90,172,106305,1,0,1:0:0:0:
160,26,106445,1,10,0:0:0:0:
0,158,106586,2,0,P|76:199|153:236,1,161.999995056153,0|0,1:0|0:0,0:0:0:0:
184,224,106866,1,0,1:0:0:0:
49,313,107006,1,10,0:0:0:0:
199,372,107146,6,0,B|227:329|227:329|275:343|275:343|289:279|351:266,1,215.999993408203,0|0,1:0|1:0,0:0:0:0:
350,266,107497,1,0,1:0:0:0:
350,266,107567,1,14,0:0:0:0:
477,346,107707,1,0,1:0:0:0:
376,370,107847,1,14,0:0:0:0:
454,253,107987,1,0,1:0:0:0:
460,249,108058,1,0,1:0:0:0:
466,246,108128,1,14,0:0:0:0:
343,179,108268,1,0,0:0:0:0:
432,78,108408,5,4,1:1:0:0:
348,197,108548,1,0,1:0:0:0:
241,98,108688,1,10,0:0:0:0:
288,0,108829,6,0,L|258:217,1,215.999993408203,0|0,1:0|1:0,0:0:0:0:
348,197,109249,1,10,0:0:0:0:
238,331,109389,2,0,B|202:291|202:291|148:297,1,107.999996704102,0|0,1:0|2:0,0:0:0:0:
104,221,109670,1,0,1:0:0:0:
104,221,109740,1,0,1:0:0:0:
104,221,109810,1,10,0:0:0:0:
305,179,109950,6,0,P|252:193|199:203,1,107.999996704102,0|0,1:0|1:0,0:0:0:0:
62,296,110230,1,0,1:0:0:0:
4,95,110371,2,0,B|58:115|58:115|104:108|104:108|164:131,1,161.999995056153,10|8,0:0|3:2,0:0:0:0:
158,128,110651,6,0,L|149:21,1,107.999996704102,4|0,1:1|1:0,0:0:0:0:
242,66,110931,1,10,0:0:0:0:
52,7,111072,2,0,L|73:221,1,215.999993408203,4|0,1:2|1:0,0:0:0:0:
328,128,111492,5,10,0:0:0:0:
328,128,111632,2,0,L|306:342,1,215.999993408203,4|0,1:0|1:0,0:0:0:0:
417,256,112053,1,8,2:0:0:0:
239,155,112193,1,8,2:0:0:0:
205,357,112333,1,8,2:0:0:0:
300,226,112473,1,8,2:0:0:0:
115,317,112614,1,8,2:0:0:0:
166,118,112754,1,8,2:0:0:0:
288,328,112894,5,6,1:2:0:0:
366,284,113174,1,0,1:0:0:0:
430,347,113455,1,12,3:2:0:0:
502,293,113735,1,0,0:0:0:0:
393,152,114016,5,0,0:0:0:0:
320,205,114296,1,0,1:0:0:0:
234,177,114576,1,12,3:2:0:0:
222,87,114857,1,0,0:0:0:0:
366,65,115137,5,0,1:0:0:0:
420,239,115417,1,0,1:0:0:0:
436,139,115698,1,12,3:2:0:0:
332,286,115978,1,0,0:0:0:0:
185,181,116259,5,0,0:0:0:0:
131,253,116539,1,0,1:0:0:0:
167,335,116819,1,12,3:2:0:0:
222,263,117100,1,0,0:0:0:0:
40,243,117380,5,0,1:0:0:0:
185,181,117660,1,0,1:0:0:0:
26,149,117941,1,12,3:2:0:0:
171,87,118221,1,0,0:0:0:0:
259,220,118502,5,0,0:0:0:0:
357,146,118782,1,0,1:0:0:0:
185,181,119062,1,12,3:2:0:0:
241,345,119343,1,0,0:0:0:0:
384,224,119623,5,0,1:0:0:0:
384,224,119903,1,0,1:0:0:0:
174,276,120184,1,12,3:2:0:0:
363,355,120464,5,0,0:0:0:0:
363,355,120604,2,0,B|346:290|346:290|374:252|374:252|348:167,1,180,12|4,3:2|1:3,0:0:0:0:
345,173,120955,1,4,1:3:0:0:
336,157,121025,2,0,L|347:94,3,45,8|8|8|8,3:0|1:3|3:2|3:2,0:0:0:0:
264,224,121305,2,0,L|218:256,3,45,4|8|8|4,3:0|3:2|3:2|3:0,0:0:0:0:
241,132,121586,1,0,1:0:0:0:
250,118,121656,1,0,1:0:0:0:
248,100,121726,1,8,3:2:0:0:
260,87,121796,1,8,3:2:0:0:
258,69,121866,5,4,1:2:0:0:
150,190,122006,1,0,1:0:0:0:
101,36,122146,1,10,0:0:0:0:
0,164,122287,2,0,B|75:132|75:132|144:179,1,161.999995056153,0|0,1:0|0:0,0:0:0:0:
153,172,122567,1,0,1:0:0:0:
52,300,122707,1,10,0:0:0:0:
203,359,122847,6,0,L|214:237,1,107.999996704102,0|0,1:0|2:0,0:0:0:0:
316,170,123128,1,0,1:0:0:0:
316,170,123198,1,0,1:0:0:0:
316,170,123268,1,10,0:0:0:0:
314,299,123408,1,0,1:0:0:0:
212,251,123548,5,0,1:0:0:0:
409,367,123688,1,0,1:0:0:0:
409,367,123759,1,0,0:0:0:0:
409,367,123829,2,0,B|416:300|416:300|442:273|442:273|448:216,1,161.999995056153,10|8,0:0|3:2,0:0:0:0:
452,184,124109,1,0,1:1:0:0:
316,170,124249,1,0,1:0:0:0:
398,60,124389,1,10,0:0:0:0:
286,185,124530,6,0,B|222:165|222:165|180:172|180:172|178:112|119:93,1,215.999993408203,0|0,1:0|1:0,0:0:0:0:
94,177,124950,1,10,0:0:0:0:
230,48,125090,2,0,P|204:141|170:257,1,215.999993408203,0|0,1:0|1:0,0:0:0:0:
176,271,125441,1,0,1:0:0:0:
182,286,125511,1,14,0:0:0:0:
282,204,125651,1,0,1:0:0:0:
82,270,125791,1,14,0:0:0:0:
259,384,125931,1,0,1:0:0:0:
376,248,126072,1,14,0:0:0:0:
491,384,126212,1,0,0:0:0:0:
512,245,126352,5,4,1:1:0:0:
393,355,126492,1,0,1:0:0:0:
448,169,126632,1,10,0:0:0:0:
293,247,126773,2,0,B|270:182|270:182|228:158|228:158|242:103|203:67,1,215.999993408203,0|0,1:0|1:0,0:0:0:0:
322,105,127193,1,10,0:0:0:0:
200,245,127333,6,0,P|219:292|243:344,1,107.999996704102,0|0,1:0|2:0,0:0:0:0:
337,338,127614,1,0,1:0:0:0:
337,338,127684,1,0,1:0:0:0:
337,338,127754,1,10,0:0:0:0:
160,384,127894,2,0,P|124:338|86:357,1,107.999996704102,0|0,1:0|1:0,0:0:0:0:
10,280,128174,2,0,B|62:269|62:269|70:217|70:217|132:213|144:147,1,215.999993408203,0|0,1:0|1:0,0:0:0:0:
143,148,128595,1,0,1:1:0:0:
39,107,128735,5,0,1:0:0:0:
170,261,128875,1,10,0:0:0:0:
227,66,129016,1,0,1:0:0:0:
19,127,129296,5,0,1:0:0:0:
190,269,129436,1,10,0:0:0:0:
215,46,129577,1,4,1:0:0:0:
2,153,129857,5,0,1:0:0:0:
214,273,129997,1,14,0:0:0:0:
198,28,130138,1,0,0:0:0:0:
86,261,130277,5,8,3:3:0:0:
267,147,130417,1,0,0:0:0:0:
76,47,130558,1,4,3:3:0:0:
204,247,130698,1,0,0:0:0:0:
323,42,130838,5,4,1:1:0:0:
78,111,139810,6,0,P|74:192|71:292,2,180,2|10|2,1:2|3:2|1:3,0:0:0:0:
148,53,140511,1,0,1:0:0:0:
148,53,140651,2,0,B|192:65|192:65|241:46,1,90,10|0,3:2|1:0,0:0:0:0:
285,121,140931,6,0,L|387:115,1,90,0|0,0:0|1:0,0:0:0:0:
387,109,141142,1,0,1:0:0:0:
399,103,141212,2,0,P|404:160|400:212,1,90,10|0,3:2|1:0,0:0:0:0:
200,252,141492,2,0,P|195:195|199:143,1,90,0|0,0:0|1:0,0:0:0:0:
407,292,141773,2,0,P|358:279|269:302,1,135,10|0,3:2|0:0,0:0:0:0:
259,342,142053,6,0,P|191:360|100:293,2,180,2|10|0,1:2|3:2|0:0,0:0:0:0:
200,252,142754,1,0,1:0:0:0:
200,252,142894,2,0,P|196:207|201:162,1,90,10|0,3:2|1:0,0:0:0:0:
269,104,143174,2,0,L|371:103,1,90,0|0,0:0|1:0,0:0:0:0:
369,113,143385,1,0,1:0:0:0:
380,121,143455,2,0,P|442:120|486:118,1,90,10|0,3:2|1:0,0:0:0:0:
512,192,143735,5,8,0:2:0:0:
485,239,143829,1,8,0:3:0:0:
436,261,143922,1,8,0:3:0:0:
383,247,144016,1,4,3:3:0:0:
340,214,144109,1,4,3:3:0:0:
286,217,144202,1,4,3:3:0:0:
249,256,144296,6,0,P|251:288|249:315,2,60,0|0|0,1:1|0:0|0:0,0:0:0:0:
202,145,144576,2,0,P|200:113|201:85,2,60,10|0|0,3:2|0:0|0:0,0:0:0:0:
135,247,144857,2,0,P|136:278|135:306,2,60,2|0|0,1:3|0:0|0:0,0:0:0:0:
91,168,145137,2,0,P|89:136|90:108,2,60,10|0|0,3:2|0:0|0:0,0:0:0:0:
26,231,145417,5,2,0:3:0:0:
19,241,145511,1,0,0:0:0:0:
18,252,145604,1,0,0:0:0:0:
24,261,145698,1,10,3:2:0:0:
29,271,145791,1,0,0:0:0:0:
31,282,145885,1,0,0:0:0:0:
29,293,145978,5,2,0:3:0:0:
82,283,146072,1,0,0:0:0:0:
132,301,146165,1,0,0:0:0:0:
162,345,146259,1,10,3:2:0:0:
206,374,146352,1,0,0:0:0:0:
259,371,146445,1,0,0:0:0:0:
300,335,146539,6,0,P|297:288|297:243,1,90,2|0,1:2|0:0,0:0:0:0:
274,158,146819,1,10,3:2:0:0:
331,89,146959,2,0,P|330:44|327:0,1,90,0|0,1:0|0:0,0:0:0:0:
234,54,147240,2,0,B|169:33|169:33|109:75,1,135,0|0,1:0|0:0,0:0:0:0:
125,87,147520,5,4,1:2:0:0:
256,192,147590,12,0,148642,0:0:0:0:
256,192,148782,6,0,P|321:196|351:236,1,90.0000034332277,4|0,1:0|0:0,0:0:0:0:
374,200,149062,1,10,2:0:0:0:
417,282,149249,2,0,P|393:281|359:295,1,45.0000017166138,0|0,0:0|1:0,0:0:0:0:
232,379,149530,1,0,0:0:0:0:
236,364,149623,2,0,B|224:337|224:337|238:310|238:310|223:274,1,90.0000034332277,10|0,2:0|0:0,0:0:0:0:
256,192,149903,6,0,P|261:119|261:52,2,135.000005149842,0|10|0,1:0|2:0|1:0,0:0:0:0:
173,71,150651,1,2,0:0:0:0:
165,82,150745,2,0,L|67:100,1,90.0000034332277,10|0,2:0|0:0,0:0:0:0:
52,125,151025,6,0,P|96:133|107:188,1,90.0000034332277,0|0,1:0|0:0,0:0:0:0:
148,177,151305,1,10,2:0:0:0:
100,272,151492,2,0,P|74:276|45:289,1,45.0000017166138,0|0,0:0|1:0,0:0:0:0:
204,370,151773,1,0,0:0:0:0:
224,365,151866,2,0,B|243:321|243:321|237:263,1,90.0000034332277,10|0,2:0|0:0,0:0:0:0:
175,228,152146,6,0,B|165:193|165:193|179:167|204:135,1,90.0000034332277,0|0,1:0|0:0,0:0:0:0:
267,111,152427,2,0,L|164:101,1,90.0000034332277,10|0,2:0|0:0,0:0:0:0:
156,73,152707,1,0,1:0:0:0:
289,201,152894,1,2,0:0:0:0:
289,201,152987,2,0,L|406:184,1,90.0000034332277,10|0,2:0|0:0,0:0:0:0:
411,149,153268,6,0,B|399:187|399:187|410:247,1,90.0000034332277,4|0,1:2|0:0,0:0:0:0:
417,267,153548,1,10,2:0:0:0:
487,319,153735,2,0,P|444:309|404:334,1,90.0000034332277
340,378,154016,1,0,0:0:0:0:
340,378,154109,2,0,L|248:376,1,90.0000034332277,10|0,2:0|0:0,0:0:0:0:
224,340,154389,6,0,B|242:300|242:300|242:246,1,90.0000034332277,0|0,1:0|0:0,0:0:0:0:
176,193,154670,2,0,B|158:233|158:233|158:287,1,90.0000034332277,10|0,2:0|0:0,0:0:0:0:
258,175,154950,1,0,1:0:0:0:
151,34,155137,1,2,0:0:0:0:
141,48,155230,2,0,L|48:60,1,90.0000034332277,10|0,2:0|0:0,0:0:0:0:
29,89,155511,6,0,P|77:97|93:132,1,90.0000034332277,0|0,1:0|0:0,0:0:0:0:
174,123,155791,2,0,P|242:94|264:83,1,90.0000034332277,10|0,2:0|0:0,0:0:0:0:
220,13,156072,1,0,1:0:0:0:
334,126,156259,1,2,0:0:0:0:
343,113,156352,2,0,P|357:57|395:51,1,90.0000034332277,10|0,2:0|0:0,0:0:0:0:
409,12,156632,6,0,P|436:123|445:168,1,120,10|0,1:2|0:0,0:0:0:0:
491,199,156913,2,0,P|380:226|335:235,1,120,10|0,1:2|0:0,0:0:0:0:
287,204,157193,2,0,P|300:262|315:320,1,120,10|0,1:2|0:0,0:0:0:0:
232,347,157473,2,0,P|218:288|203:230,1,120,14|0,1:2|0:0,0:0:0:0:
162,211,157754,6,0,B|202:188|202:188|218:140,1,90.0000034332277,4|0,1:0|0:0,0:0:0:0:
250,124,158034,1,10,2:0:0:0:
197,9,158221,2,0,L|139:-4,1,45.0000017166138,0|0,0:0|1:0,0:0:0:0:
42,70,158502,1,0,0:0:0:0:
56,84,158595,2,0,P|110:99|115:144,1,90.0000034332277,10|0,2:0|0:0,0:0:0:0:
151,155,158875,6,0,P|104:182|67:206,1,90.0000034332277,0|0,1:0|0:0,0:0:0:0:
44,202,159156,2,0,B|56:245|56:245|42:300,1,90.0000034332277,10|0,2:0|0:0,0:0:0:0:
64,314,159436,1,0,1:0:0:0:
193,281,159623,1,0,0:0:0:0:
211,265,159716,2,0,P|204:325|201:386,1,90.0000034332277,10|0,2:0|0:0,0:0:0:0:
220,384,159997,6,0,B|258:360|258:360|307:378,1,90.0000034332277,0|0,1:0|0:0,0:0:0:0:
328,360,160277,1,10,2:0:0:0:
312,259,160464,2,0,L|337:212,1,45.0000017166138,0|0,0:0|1:0,0:0:0:0:
331,81,160745,1,2,0:0:0:0:
312,97,160838,2,0,P|273:116|268:159,1,90.0000034332277,10|0,2:0|0:0,0:0:0:0:
252,189,161118,1,0,1:0:0:0:
474,283,161399,5,10,2:0:0:0:
474,283,161539,2,0,B|458:206|458:206|473:168|473:168|457:92,1,180,4|8,1:0|3:2,0:0:0:0:
439,12,161959,1,8,3:2:0:0:
347,135,162100,1,8,3:2:0:0:
268,4,162240,6,0,P|166:25|113:29,1,135,4|0,1:2|0:0,0:0:0:0:
128,41,162520,1,10,3:2:0:0:
224,160,162660,2,0,P|132:151|76:226,1,180,0|0,0:0|1:0,0:0:0:0:
137,314,163081,1,10,3:2:0:0:
245,267,163221,6,0,P|253:181|260:83,1,180,0|0,1:0|1:0,0:0:0:0:
159,28,163642,2,0,B|167:74|167:74|137:105,1,90,10|0,3:2|1:0,0:0:0:0:
163,192,163922,1,0,0:0:0:0:
351,75,164062,2,0,P|425:104|496:129,1,135,0|0,1:0|0:0,0:0:0:0:
498,132,164343,1,0,0:0:0:0:
454,0,164483,6,0,B|430:48|430:48|434:86|434:86|390:172,1,180,0|10,1:0|3:2,0:0:0:0:
468,242,164903,1,0,0:0:0:0:
382,309,165044,2,0,P|373:267|322:243,1,90,0|0,1:0|1:0,0:0:0:0:
288,146,165324,1,10,3:2:0:0:
203,338,165464,2,0,P|250:330|309:323,1,90,0|0,1:0|0:0,0:0:0:0:
334,243,165745,5,0,1:0:0:0:
190,352,165885,1,8,3:2:0:0:
168,174,166025,1,8,3:2:0:0:
271,162,166165,5,8,3:2:0:0:
108,261,166305,1,8,3:2:0:0:
85,128,166445,5,8,3:2:0:0:
247,273,166586,1,8,3:2:0:0:
339,78,166726,1,4,1:0:0:0:
256,192,166796,12,4,167847,1:0:0:0:
111,303,168128,5,8,3:3:0:0:
111,303,168408,1,0,1:3:0:0:
111,303,168548,2,0,L|156:319,1,45
176,352,168969,5,4,1:2:0:0:
263,155,169109,1,0,1:0:0:0:
54,207,169249,1,10,0:0:0:0:
229,278,169389,6,0,B|240:225|240:225|216:186|216:186|231:153|219:104,1,161.999995056153,0|0,1:0|0:0,0:0:0:0:
211,89,169670,1,0,1:0:0:0:
138,257,169810,1,10,0:0:0:0:
317,119,169950,2,0,P|382:149|434:169,1,107.999996704102,0|0,1:0|2:0,0:0:0:0:
349,248,170230,5,0,1:0:0:0:
349,248,170301,1,0,1:0:0:0:
349,248,170371,1,10,0:0:0:0:
197,0,170511,2,0,P|101:46|30:76,1,161.999995056153,0|0,1:0|0:0,0:0:0:0:
34,96,170791,1,0,1:0:0:0:
217,160,170931,1,10,0:0:0:0:
49,259,171072,1,0,1:0:0:0:
118,150,171212,5,0,1:1:0:0:
132,333,171352,1,0,1:0:0:0:
289,238,171492,1,10,0:0:0:0:
119,370,171632,2,0,P|57:365|-8:362,1,107.999996704102,0|0,1:0|1:0,0:0:0:0:
165,241,171913,5,0,1:0:0:0:
165,241,171983,1,0,0:0:0:0:
165,241,172053,1,10,0:0:0:0:
321,374,172193,2,0,B|347:331|347:331|396:356|396:356|418:304|491:306,1,215.999993408203,0|0,1:0|1:0,0:0:0:0:
486,305,172544,1,0,1:0:0:0:
486,305,172614,5,14,0:0:0:0:
346,213,172754,1,0,1:0:0:0:
502,128,172894,1,14,0:0:0:0:
375,3,173034,1,0,1:0:0:0:
266,143,173174,1,14,0:0:0:0:
156,15,173315,5,0,0:0:0:0:
156,15,173385,1,0,1:0:0:0:
156,15,173455,1,4,1:1:0:0:
113,188,173595,1,0,1:0:0:0:
17,38,173735,1,10,0:0:0:0:
165,163,173875,6,0,P|125:258|95:328,1,161.999995056153,0|0,1:0|0:0,0:0:0:0:
115,348,174156,1,0,1:0:0:0:
30,198,174296,1,10,0:0:0:0:
221,320,174436,6,0,B|248:269|248:269|297:249|297:249|303:213|328:175,1,161.999995056153,0|0,1:0|0:0,0:0:0:0:
341,175,174716,1,0,1:0:0:0:
313,346,174857,1,10,0:0:0:0:
256,105,174997,2,0,P|330:81|372:66,1,107.999996704102,0|0,1:0|1:0,0:0:0:0:
436,146,175277,1,0,1:0:0:0:
436,146,175347,1,0,0:0:0:0:
436,146,175417,1,10,0:0:0:0:
205,241,175558,1,0,1:0:0:0:
283,44,175698,5,0,1:1:0:0:
227,338,175838,1,0,1:0:0:0:
283,44,175978,5,10,0:0:0:0:
227,338,176118,1,0,1:0:0:0:
283,44,176259,5,0,1:0:0:0:
227,338,176399,1,0,1:0:0:0:
283,44,176539,5,10,0:0:0:0:
227,338,176679,2,0,B|201:293|201:293|137:286|137:286|114:234,1,161.999995056153,4|0,1:0|0:0,0:0:0:0:
103,205,176959,1,0,1:0:0:0:
150,384,177100,1,14,0:0:0:0:
279,253,177240,1,0,0:0:0:0:
23,293,177380,5,8,3:3:0:0:
19,235,177473,1,8,3:3:0:0:
12,177,177567,1,8,3:3:0:0:
7,119,177660,1,4,3:3:0:0:
59,95,177754,1,4,3:3:0:0:
112,73,177847,1,4,3:3:0:0:
165,50,177941,5,4,1:2:0:0:
238,194,178081,1,0,1:0:0:0:
328,60,178221,1,10,0:0:0:0:
238,216,178361,2,0,B|253:255|253:255|244:295|244:295|274:333|259:398,1,161.999995056153,0|0,1:0|0:0,0:0:0:0:
247,384,178642,1,0,1:0:0:0:
339,213,178782,1,10,0:0:0:0:
140,289,178922,6,0,P|238:299|357:314,1,215.999993408203,0|0,1:0|1:0,0:0:0:0:
357,327,179273,1,0,1:0:0:0:
360,340,179343,1,10,0:0:0:0:
503,243,179483,2,0,B|492:190|492:190|509:124,1,107.999996704102,0|0,1:0|1:0,0:0:0:0:
363,59,179763,1,0,1:0:0:0:
363,59,179833,1,0,1:0:0:0:
363,59,179903,1,10,0:0:0:0:
483,7,180044,1,0,1:0:0:0:
358,183,180184,5,0,1:1:0:0:
277,19,180324,1,0,1:0:0:0:
148,150,180464,1,10,0:0:0:0:
273,115,180604,2,0,B|252:152|252:152|251:188|251:188|207:268,1,161.999995056153,0|0,1:0|0:0,0:0:0:0:
224,297,180885,1,0,1:0:0:0:
75,211,181025,1,10,0:0:0:0:
28,377,181165,2,0,P|5:294|-9:239,1,107.999996704102,0|0,1:0|2:0,0:0:0:0:
0,173,181445,5,0,1:0:0:0:
0,173,181516,1,0,1:0:0:0:
0,173,181586,1,14,0:0:0:0:
177,155,181726,1,0,1:0:0:0:
35,47,181866,1,14,0:0:0:0:
207,0,182006,1,0,1:0:0:0:
271,166,182146,1,14,0:0:0:0:
115,254,182287,1,0,0:0:0:0:
264,349,182427,5,4,1:1:0:0:
362,201,182567,1,0,1:0:0:0:
417,370,182707,1,10,0:0:0:0:
512,220,182847,2,0,B|496:185|496:185|520:153|520:153|489:110|501:62,1,161.999995056153,0|0,1:0|0:0,0:0:0:0:
482,40,183128,1,0,1:0:0:0:
366,168,183268,1,10,0:0:0:0:
275,21,183408,6,0,P|260:106|221:246,1,215.999993408203,0|0,1:0|1:0,0:0:0:0:
229,247,183759,1,0,1:0:0:0:
232,263,183829,1,10,0:0:0:0:
169,57,183969,2,0,B|135:53|108:28|108:28|84:98|40:124,1,161.999995056153,0|0,1:0|0:0,0:0:0:0:
39,123,184249,1,0,1:0:0:0:
226,231,184389,2,0,B|265:195|265:195|335:205,1,107.999996704102,8|0,0:0|1:0,0:0:0:0:
452,59,184670,5,4,1:1:0:0:
506,245,184810,1,0,1:0:0:0:
319,298,184950,1,10,0:0:0:0:
507,345,185090,1,4,1:2:0:0:
369,208,185230,1,0,1:0:0:0:
253,365,185371,1,0,1:0:0:0:
134,211,185511,1,10,0:0:0:0:
4,355,185651,6,0,B|66:352|66:352|110:373|110:373|203:370,1,161.999995056153,4|0,1:0|0:0,0:0:0:0:
207,349,185931,1,0,1:0:0:0:
277,166,186072,1,8,2:0:0:0:
425,291,186212,1,0,0:0:0:0:
376,118,186352,6,0,P|406:111|436:98,2,60,8|8|8,2:0|0:3|0:3,0:0:0:0:
370,28,186632,2,0,P|399:20|426:9,2,60,8|8|8,2:0|0:3|0:3,0:0:0:0:
283,0,186913,1,2,1:2:0:0:
400,258,195324,6,0,P|401:288|403:318,2,60,8|8|8,2:3|2:3|2:3,0:0:0:0:
323,351,195604,6,0,P|322:321|320:291,2,60,4|4|4,2:3|2:3|2:3,0:0:0:0:
239,267,195885,6,0,L|188:274,3,45,0|0|0|0,1:0|0:0|3:0|3:0,0:0:0:0:
239,267,196165,2,0,P|233:188|221:128,1,107.999996704102,8|0,3:2|0:0,0:0:0:0:
130,61,196445,5,4,1:0:0:0:
97,100,196539,1,0,1:0:0:0:
47,109,196632,1,0,1:0:0:0:
5,80,196726,1,10,0:0:0:0:
92,202,196866,6,0,B|139:196|139:196|171:229|171:229|214:172|287:204,1,215.999993408203,0|0,1:0|1:0,0:0:0:0:
270,104,197287,1,10,0:0:0:0:
245,296,197427,2,0,B|298:303|298:303|348:279,1,107.999996704102,0|0,1:0|1:0,0:0:0:0:
377,187,197707,5,0,1:0:0:0:
386,359,197847,1,10,0:0:0:0:
512,241,197987,1,0,1:0:0:0:
416,278,198128,5,0,1:1:0:0:
492,355,198268,1,0,1:0:0:0:
470,151,198408,1,10,0:0:0:0:
314,284,198548,2,0,P|316:176|313:106,1,161.999995056153,0|0,1:0|0:0,0:0:0:0:
342,75,198829,1,0,1:0:0:0:
216,193,198969,1,10,0:0:0:0:
131,43,199109,6,0,B|88:76|30:80|30:80|16:138|54:192,1,215.999993408203,0|0,1:0|1:0,0:0:0:0:
248,208,199530,2,0,B|241:154|266:102|266:102|223:61|157:67,1,215.999993408203,14|14,0:0|0:0,0:0:0:0:
47,227,199950,2,0,B|97:248|130:296|130:296|187:279|215:219,1,215.999993408203,0|0,1:0|1:0,0:0:0:0:
144,162,200371,5,4,1:1:0:0:
33,321,200511,1,0,1:0:0:0:
249,322,200651,1,10,0:0:0:0:
240,144,200791,6,0,B|298:152|298:152|297:92|297:92|347:91|388:41,1,215.999993408203,0|0,1:0|1:0,0:0:0:0:
381,48,201212,1,10,0:0:0:0:
481,187,201352,2,0,P|440:155|389:166,1,107.999996704102,0|0,1:0|2:0,0:0:0:0:
341,247,201632,1,0,1:0:0:0:
341,247,201702,1,0,1:0:0:0:
341,247,201773,1,10,0:0:0:0:
216,61,201913,6,0,P|233:151|252:263,1,161.999995056153,0|0,1:0|0:0,0:0:0:0:
237,246,202193,1,0,1:0:0:0:
63,232,202333,2,0,B|102:194|102:194|159:208,1,107.999996704102,10|0,0:0|0:0,0:0:0:0:
263,136,202614,5,0,1:1:0:0:
151,307,202754,1,0,1:0:0:0:
127,103,202894,1,10,0:0:0:0:
142,340,203034,2,0,B|199:324|199:324|232:362|232:362|284:334|354:368,1,215.999993408203,0|0,1:0|1:0,0:0:0:0:
379,214,203455,5,10,0:0:0:0:
481,325,203595,2,0,B|470:262|522:218|522:218|531:166|487:124,1,215.999993408203,4|0,1:0|1:0,0:0:0:0:
485,131,203945,1,0,1:0:0:0:
476,129,204016,1,14,0:0:0:0:
375,234,204156,1,0,1:0:0:0:
386,29,204296,2,0,P|411:36|451:43,3,53.9999983520508,8|8|8|8,0:0|0:0|0:0|0:0,0:0:0:0:
403,66,204576,5,8,0:0:0:0:
372,44,204646,1,0,3:0:0:0:
335,35,204716,1,8,0:0:0:0:
296,39,204787,1,8,0:0:0:0:
263,58,204857,2,0,B|265:118|265:118|242:151|242:151|244:220,1,161.999995056153,4|0,1:2|0:0,0:0:0:0:
263,239,205137,1,10,0:0:0:0:
149,300,205277,2,0,B|133:248|133:248|143:195,1,107.999996704102,0|0,1:0|1:2,0:0:0:0:
349,181,205558,1,0,1:0:0:0:
262,354,205698,1,10,0:0:0:0:
219,121,205838,6,0,B|251:121|271:145|271:145|332:127|332:127|358:180|437:158,1,215.999993408203,0|0,1:0|1:0,0:0:0:0:
425,157,206188,1,0,0:0:0:0:
440,151,206259,2,0,P|439:177|441:204,3,53.9999983520508,10|0|8|0,0:0|3:0|0:0|3:0,0:0:0:0:
371,264,206539,2,0,P|373:291|372:318,3,53.9999983520508,8|0|8|0,0:0|3:0|0:0|3:0,0:0:0:0:
451,364,206819,1,8,0:0:0:0:
467,362,206889,1,8,0:0:0:0:
482,364,206959,1,8,0:0:0:0:
497,370,207030,1,8,0:0:0:0:
507,378,207100,1,4,1:1:0:0:
405,169,214389,6,0,B|383:192|383:192|386:160|386:160|356:164|356:164|330:102|256:109,1,215.999993408203,2|10,1:3|3:2,0:0:0:0:
211,17,214810,2,0,B|224:84|224:84|219:81|219:81|238:172|238:172|241:157|241:157|258:239|258:239|248:228|248:228|262:299|262:299|265:293|265:293|281:377,1,431.999986816407,0|0,1:0|1:0,0:0:0:0:
360,283,215511,1,2,0:3:0:0:
360,283,215581,1,0,1:0:0:0:
360,283,215651,1,0,1:3:0:0:
360,283,215721,1,0,1:0:0:0:
360,283,215791,2,0,L|348:226,3,53.9999983520508,10|0|0|0,3:2|0:0|0:0|3:0,0:0:0:0:
428,328,216072,6,0,B|397:317|397:317|316:345,1,107.999996704102,2|0,1:2|1:0,0:0:0:0:
253,171,216352,2,0,P|236:251|210:352,1,161.999995056153,10|0,3:2|0:0,0:0:0:0:
208,358,216632,1,2,1:3:0:0:
146,196,216773,2,0,B|113:206|113:206|66:133,1,107.999996704102,0|10,1:0|3:2,0:0:0:0:
20,310,217053,6,0,L|152:292,1,107.999996704102,0|0,1:0|0:0,0:0:0:0:
183,111,217333,1,0,1:0:0:0:
183,111,217403,1,0,1:0:0:0:
183,111,217473,1,10,3:2:0:0:
85,36,217614,2,0,P|77:100|70:165,1,107.999996704102,0|2,1:0|0:3,0:0:0:0:
253,171,217894,5,0,1:0:0:0:
317,5,218034,1,10,3:2:0:0:
178,10,218174,1,0,1:0:0:0:
313,100,218315,2,0,P|301:156|283:241,1,107.999996704102,2|0,1:2|1:0,0:0:0:0:
216,248,218595,1,10,3:2:0:0:
390,185,218735,6,0,P|359:309|345:369,1,161.999995056153,0|0,1:0|0:0,0:0:0:0:
361,367,219016,1,0,1:0:0:0:
462,298,219156,1,10,3:2:0:0:
290,205,219296,1,0,1:0:0:0:
454,137,219436,6,0,P|383:133|378:79,1,107.999996704102,2|0,0:3|1:0,0:0:0:0:
328,283,219716,1,10,3:2:0:0:
271,109,219857,1,0,1:0:0:0:
200,170,219997,5,8,3:3:0:0:
308,22,220137,1,0,0:0:0:0:
290,205,220277,2,0,B|236:192|236:192|186:199|186:199|131:187,1,161.999995056153,4|0,3:3|0:0,0:0:0:0:
102,147,220558,5,4,1:1:0:0:
6,235,220699,1,0,1:0:0:0:
130,270,220839,1,14,3:2:0:0:
110,164,220979,5,0,1:0:0:0:
14,253,221118,1,2,1:3:0:0:
138,287,221260,1,0,1:0:0:0:
118,181,221400,5,14,3:2:0:0:
22,270,221540,2,0,L|219:327,1,143.999995605469,0|0,1:0|0:0,0:0:0:0:
193,348,221819,5,0,1:0:0:0:
237,245,221959,1,10,3:2:0:0:
307,334,222100,1,0,1:0:0:0:
281,142,222240,5,2,0:3:0:0:
237,245,222379,1,0,1:0:0:0:
351,231,222520,1,14,3:2:0:0:
351,231,222660,1,0,1:0:0:0:
204,45,222801,5,2,1:2:0:0:
281,142,222942,1,0,1:0:0:0:
329,29,223082,1,10,3:2:0:0:
191,63,223221,5,0,1:0:0:0:
268,161,223362,1,2,1:3:0:0:
317,48,223502,1,0,1:0:0:0:
179,82,223642,5,10,3:2:0:0:
256,180,223782,2,0,L|224:397,1,180,4|0,1:0|0:0,0:0:0:0:
228,384,224202,5,8,3:2:0:0:
105,309,224483,1,0,1:0:0:0:
105,309,224623,2,0,L|99:260,1,45,0|0,1:0|0:0,0:0:0:0:
262,141,225044,5,4,1:2:0:0:
256,192,225114,12,4,229530,1:1:0:0:
