osu file format v14

[General]
AudioFilename: audio.mp3
AudioLeadIn: 0
PreviewTime: 36562
Countdown: 0
SampleSet: Soft
StackLeniency: 0.7
Mode: 0
LetterboxInBreaks: 0
WidescreenStoryboard: 1

[Editor]
DistanceSpacing: 0.2
BeatDivisor: 3
GridSize: 32
TimelineZoom: 2

[Metadata]
Title:Sentou Amu
TitleUnicode:戦闘アム
Artist:Shade
ArtistUnicode:Shade
Creator:Shurelia
Version:frozz's Insane
Source:ランス・クエスト マグナム
Tags:Rance Quest Magnum 8 VIII battle am isuel イスエル rock instrumental video game eroge visual novel rpg jrpg alicesoft pepega cup 3 ppg3 QF HD1 scubdomino ponbot supav kalibe frozz nakazawa amateurre
BeatmapID:4504322
BeatmapSetID:2111360

[Difficulty]
HPDrainRate:5
CircleSize:3.8
OverallDifficulty:7
ApproachRate:8
SliderMultiplier:1.72
SliderTickRate:1

[Events]
//Background and Video events
0,0,"ambgpic.jpg",0,0
//Break Periods
2,187393,194574
//Storyboard Layer 0 (Background)
//Storyboard Layer 1 (Fail)
//Storyboard Layer 2 (Pass)
//Storyboard Layer 3 (Foreground)
//Storyboard Layer 4 (Overlay)
//Storyboard Sound Samples

[TimingPoints]
745,280.373831775701,4,2,1,70,1,0

[Colours]
Combo1 : 255,60,60
Combo2 : 128,128,128
Combo3 : 198,0,0
Combo4 : 192,192,192

[HitObjects]
397,17,16445,6,0,L|375:269,1,172,12|8,1:2|1:2,0:0:0:0:
100,261,17567,6,0,L|112:323,3,43,0|0|0|0,1:0|1:0|1:0|1:2,0:0:0:0:
94,317,17847,2,0,P|38:314|7:220,1,129,8|0,1:2|0:0,0:0:0:0:
35,179,18128,2,0,L|46:107,2,57.3333333333333,8|8|8,3:3|3:3|3:3,0:0:0:0:
132,136,18408,2,0,L|177:79,2,57.3333333333333,4|4|4,3:3|3:3|3:3,0:0:0:0:
234,151,18688,6,0,P|307:138|346:137,1,86,0|0,1:1|1:0,0:0:0:0:
428,8,18969,2,0,P|501:21|540:22,1,86,10|0,3:2|1:0,0:0:0:0:
326,37,19249,1,2,1:3:0:0:
326,37,19389,1,0,1:0:0:0:
403,97,19530,1,10,3:2:0:0:
318,137,19670,6,0,L|134:120,1,172,0|0,1:0|1:0,0:0:0:0:
146,121,20020,1,0,1:0:0:0:
146,121,20090,1,10,3:2:0:0:
27,69,20230,2,0,P|81:49|118:29,1,86,0|2,1:0|0:3,0:0:0:0:
57,155,20511,1,0,1:0:0:0:
16,235,20651,1,10,3:2:0:0:
74,313,20791,1,0,1:0:0:0:
74,313,20861,1,0,3:0:0:0:
74,313,20931,6,0,P|140:295|177:290,1,86,2|0,1:2|1:0,0:0:0:0:
299,383,21212,2,0,P|365:365|402:360,1,86,10|0,3:2|1:0,0:0:0:0:
204,378,21492,1,2,1:3:0:0:
204,378,21632,1,0,1:0:0:0:
255,296,21773,1,10,3:2:0:0:
205,222,21913,6,0,L|178:43,1,172,0|0,1:0|1:0,0:0:0:0:
179,51,22263,1,0,1:0:0:0:
179,51,22333,1,10,3:2:0:0:
277,101,22473,1,0,1:0:0:0:
347,34,22614,1,2,0:3:0:0:
347,34,22684,1,0,1:0:0:0:
347,34,22754,2,0,L|399:20,2,43,0|0|10,1:3|1:0|3:2,0:0:0:0:
461,80,23034,1,0,1:0:0:0:
461,80,23104,1,0,3:0:0:0:
461,80,23174,6,0,P|448:145|443:183,1,86,0|0,1:1|1:0,0:0:0:0:
311,260,23455,2,0,P|298:325|293:363,1,86,10|0,3:2|1:0,0:0:0:0:
414,265,23735,1,2,1:3:0:0:
414,265,23875,1,0,1:0:0:0:
353,180,24016,1,10,3:2:0:0:
253,181,24156,6,0,L|61:207,1,172,0|0,1:0|1:0,0:0:0:0:
82,204,24506,1,0,1:0:0:0:
82,204,24576,1,10,3:2:0:0:
0,286,24716,2,0,P|57:292|103:302,1,86,0|2,1:0|0:3,0:0:0:0:
175,364,24997,1,0,1:0:0:0:
258,335,25137,1,10,3:2:0:0:
348,373,25277,1,0,1:0:0:0:
348,373,25347,1,0,3:0:0:0:
348,373,25417,6,0,P|359:314|366:279,1,86,2|0,1:2|1:0,0:0:0:0:
263,165,25698,2,0,P|274:106|281:71,1,86,10|0,3:2|1:0,0:0:0:0:
274,260,25978,1,2,1:3:0:0:
274,260,26118,1,0,1:0:0:0:
357,190,26259,1,10,3:2:0:0:
443,243,26399,6,0,P|503:206|479:91,1,172,4|0,1:2|1:0,0:0:0:0:
494,111,26749,1,0,1:0:0:0:
487,106,26819,2,0,P|421:100|372:89,1,86,10|0,3:2|1:0,0:0:0:0:
260,13,27100,2,0,P|194:19|145:30,1,86,8|0,2:0|1:0,0:0:0:0:
174,22,27310,1,0,3:0:0:0:
174,22,27380,2,0,P|157:85|145:130,1,86,8|8,2:0|2:0,0:0:0:0:
86,245,27660,6,0,P|31:250|-17:255,2,86,0|0|10,1:1|1:0|3:2,0:0:0:0:
253,344,28081,2,0,P|307:338|356:333,2,86,0|2|0,1:0|1:3|1:0,0:0:0:0:
96,342,28502,1,10,3:2:0:0:
96,342,28642,2,0,P|157:319|182:215,1,172,0|0,1:0|1:0,0:0:0:0:
179,220,28992,1,0,1:0:0:0:
174,214,29062,2,0,P|157:160|170:113,1,86,10|0,3:2|1:0,0:0:0:0:
8,49,29343,2,0,P|64:83|113:74,1,86,2|0,0:3|1:0,0:0:0:0:
251,22,29623,2,0,P|182:35|144:42,1,86,10|0,3:2|1:0,0:0:0:0:
273,197,29903,6,0,P|352:207|388:215,2,86,2|0|10,1:2|1:0|3:2,0:0:0:0:
493,104,30324,2,0,P|450:111|407:115,2,86,0|2|0,1:0|1:3|1:0,0:0:0:0:
469,262,30745,1,10,3:2:0:0:
469,262,30885,2,0,P|400:277|383:382,1,172,0|0,1:0|1:0,0:0:0:0:
380,371,31235,1,0,1:0:0:0:
384,375,31305,2,0,P|332:340|278:346,1,86,10|0,3:2|1:0,0:0:0:0:
142,361,31586,2,0,P|95:383|51:393,2,57.3333333333333,8|8|8,3:3|3:3|3:3,0:0:0:0:
224,379,31866,2,0,P|228:327|241:284,2,57.3333333333333,4|4|4,3:3|3:3|3:3,0:0:0:0:
157,269,32146,6,0,P|84:257|46:247,2,86,4|0|10,1:1|1:0|3:2,0:0:0:0:
328,192,32567,2,0,P|401:204|439:214,2,86,0|2|0,1:0|1:3|1:0,0:0:0:0:
161,180,32987,1,10,3:2:0:0:
161,180,33128,2,0,P|224:202|234:320,1,172,0|0,1:0|1:0,0:0:0:0:
243,304,33478,1,0,1:0:0:0:
241,315,33548,2,0,P|272:360|323:355,1,86,10|0,3:2|1:0,0:0:0:0:
453,281,33829,2,0,P|389:296|352:335,1,86,2|0,0:3|1:0,0:0:0:0:
174,382,34109,2,0,P|112:370|70:361,1,86,10|0,3:2|1:0,0:0:0:0:
9,250,34389,5,4,1:2:0:0:
9,250,34530,1,0,1:0:0:0:
126,115,34670,2,0,B|195:142|175:242|97:242|97:242|133:275|133:275|57:325|104:395,1,344,10|10,3:2|3:2,0:0:0:0:
251,352,35371,6,0,B|245:302|223:270|223:270|257:244|277:205,1,172,4|0,1:0|0:0,0:0:0:0:
489,238,35791,2,0,B|494:287|516:319|516:319|482:345|462:384,1,172,10|0,3:2|1:0,0:0:0:0:
328,289,36212,1,0,1:0:0:0:
328,289,36352,2,0,P|387:296|425:305,1,86,14|0,3:2|0:0,0:0:0:0:
505,127,36632,6,0,P|446:144|409:151,1,86,6|0,1:2|1:0,0:0:0:0:
257,145,36913,1,10,0:0:0:0:
266,7,37053,2,0,P|327:18|329:129,1,172,0|0,1:0|1:0,0:0:0:0:
237,235,37473,1,10,0:0:0:0:
141,110,37614,2,0,P|160:40|168:12,1,86,0|0,1:0|2:0,0:0:0:0:
42,158,37894,2,0,L|-28:173,2,43,0|0|10,1:0|1:0|0:0,0:0:0:0:
145,230,38174,2,0,P|65:251|65:356,1,172,0|0,1:0|1:0,0:0:0:0:
220,328,38595,2,0,P|239:255|246:231,1,86,10|0,0:0|1:0,0:0:0:0:
237,235,38805,1,8,3:2:0:0:
234,225,38875,6,0,P|223:168|217:133,1,86,0|0,1:1|1:0,0:0:0:0:
118,19,39156,1,10,0:0:0:0:
11,93,39296,2,0,P|46:157|151:133,1,172,0|0,1:0|1:0,0:0:0:0:
242,22,39716,1,10,0:0:0:0:
344,152,39857,2,0,P|330:207|323:246,1,86,0|0,1:0|2:0,0:0:0:0:
471,94,40137,1,0,1:0:0:0:
471,94,40207,1,0,1:0:0:0:
471,94,40277,2,0,P|407:94|385:-13,1,172,14|14,0:0|0:0,0:0:0:0:
501,189,40698,1,0,1:0:0:0:
501,189,40768,1,0,1:0:0:0:
501,189,40838,2,0,P|487:244|480:283,1,86,14|0,0:0|0:0,0:0:0:0:
325,384,41118,6,0,P|311:316|300:275,1,86,4|0,1:1|1:0,0:0:0:0:
230,146,41399,1,10,0:0:0:0:
402,133,41539,2,0,P|379:195|269:201,1,172,0|0,1:0|1:0,0:0:0:0:
211,55,41959,1,10,0:0:0:0:
114,206,42100,2,0,P|184:227|232:239,1,86,0|0,1:0|2:0,0:0:0:0:
323,306,42380,2,0,L|393:293,2,43,0|0|10,1:0|1:0|0:0,0:0:0:0:
182,367,42660,2,0,P|113:381|76:391,1,86,0|0,1:0|1:0,0:0:0:0:
9,237,42941,1,0,1:0:0:0:
9,237,43011,1,0,1:2:0:0:
9,237,43081,2,0,P|25:166|29:124,1,86,10|0,0:0|1:0,0:0:0:0:
132,35,43361,5,0,1:1:0:0:
234,8,43502,1,0,1:0:0:0:
293,100,43642,2,0,P|276:168|267:211,1,86,10|0,0:0|1:0,0:0:0:0:
416,364,43922,1,0,1:0:0:0:
508,305,44063,1,0,1:0:0:0:
481,203,44202,1,10,0:0:0:0:
394,262,44343,2,0,P|316:275|209:304,1,172,4|0,1:0|1:0,0:0:0:0:
66,358,44763,2,0,P|122:370|171:383,1,86,14|0,0:0|0:0,0:0:0:0:
171,222,45044,2,0,P|140:263|136:302,2,57.3333333333333,8|8|8,3:3|3:3|3:3,0:0:0:0:
196,132,45324,2,0,P|175:84|144:62,2,57.3333333333333,4|4|4,3:3|3:3|3:3,0:0:0:0:
258,198,45604,6,0,P|340:180|366:169,1,86,4|0,1:2|1:0,0:0:0:0:
500,135,45885,1,10,0:0:0:0:
450,0,46025,2,0,P|383:72|427:139,1,172,0|0,1:0|1:0,0:0:0:0:
406,298,46445,1,10,0:0:0:0:
237,281,46586,2,0,P|256:204|262:160,1,86,0|0,1:0|2:0,0:0:0:0:
113,101,46866,2,0,L|47:121,2,43,0|0|10,1:0|1:0|0:0,0:0:0:0:
295,13,47146,2,0,P|275:99|182:109,1,172,0|0,1:0|1:0,0:0:0:0:
193,128,47497,1,0,1:0:0:0:
185,141,47567,2,0,P|166:218|160:262,1,86,10|0,0:0|1:0,0:0:0:0:
60,336,47847,6,0,P|133:314|169:307,1,86,0|0,1:1|1:0,0:0:0:0:
327,245,48128,1,10,0:0:0:0:
307,384,48268,2,0,P|240:354|265:253,1,172,0|0,1:0|1:0,0:0:0:0:
372,140,48688,1,10,0:0:0:0:
227,32,48829,2,0,P|171:43|124:53,1,86,0|0,1:0|2:0,0:0:0:0:
91,231,49109,1,0,1:0:0:0:
91,231,49179,1,0,1:0:0:0:
91,231,49249,2,0,P|171:209|173:117,1,172,14|14,0:0|0:0,0:0:0:0:
0,221,49670,1,0,1:0:0:0:
0,221,49740,1,0,1:0:0:0:
0,221,49810,2,0,P|22:299|28:320,1,86,14|0,0:0|0:0,0:0:0:0:
181,382,50090,6,0,P|197:315|208:287,1,86,4|0,1:1|1:0,0:0:0:0:
263,148,50371,1,10,0:0:0:0:
87,133,50511,2,0,P|110:204|212:199,1,172,0|0,1:0|1:0,0:0:0:0:
346,108,50931,1,10,0:0:0:0:
416,261,51072,2,0,P|396:319|386:359,1,86,0|0,1:0|2:0,0:0:0:0:
222,370,51352,2,0,L|170:385,2,43,0|0|10,1:0|1:0|0:0,0:0:0:0:
319,256,51632,2,0,P|261:276|221:286,1,86,0|0,1:0|1:0,0:0:0:0:
400,356,51913,1,0,1:0:0:0:
489,209,52053,2,0,P|504:127|511:96,1,86,10|0,0:0|1:0,0:0:0:0:
344,15,52333,5,4,1:1:0:0:
261,40,52473,1,0,1:0:0:0:
227,131,52614,1,10,0:0:0:0:
144,156,52754,2,0,P|69:134|69:44,1,172,4|0,1:2|1:0,0:0:0:0:
235,143,53174,5,10,0:0:0:0:
140,261,53315,2,0,P|125:348|122:367,1,86,4|0,1:0|0:0,0:0:0:0:
278,353,53595,5,0,1:0:0:0:
357,318,53735,1,8,2:0:0:0:
380,234,53875,1,8,2:0:0:0:
330,162,54016,2,0,P|287:155|244:153,1,86,8|8,2:0|2:0,0:0:0:0:
389,245,54296,2,0,P|431:251|474:253,1,86,8|8,2:0|2:0,0:0:0:0:
284,338,54576,6,0,L|92:354,1,172,2|2,1:2|1:2,0:0:0:0:
284,338,55698,2,0,L|92:354,1,172,2|2,1:2|1:2,0:0:0:0:
46,185,56259,2,0,P|0:155|-13:128,2,57.3333333333333,8|8|8,3:3|3:3|3:3,0:0:0:0:
129,158,56539,2,0,P|177:133|207:135,2,57.3333333333333,4|4|4,3:3|3:3|3:3,0:0:0:0:
64,91,56819,6,0,P|104:35|216:40,1,172,4|10,1:1|3:2,0:0:0:0:
351,96,57240,2,0,P|413:76|431:40,2,86,0|2|0,0:0|1:3|1:0,0:0:0:0:
295,28,57660,5,10,3:2:0:0:
295,28,57801,2,0,P|319:84|347:211,1,172,0|0,1:0|1:0,0:0:0:0:
414,266,58221,1,10,3:2:0:0:
414,266,58361,2,0,P|388:328|278:314,1,172,0|0,1:0|1:0,0:0:0:0:
207,273,58782,6,0,B|103:268|151:327|49:328,2,172,10|2|10,3:2|1:2|3:2,0:0:0:0:
351,96,59623,2,0,P|359:39|369:0,1,86,2|0,1:3|1:0,0:0:0:0:
433,147,59903,1,10,3:2:0:0:
433,147,60044,6,0,P|341:149|311:227,1,172,0|0,1:0|1:0,0:0:0:0:
227,276,60464,2,0,P|258:320|262:364,2,86,10|0|2,3:2|1:0|0:3,0:0:0:0:
355,308,60885,1,2,1:3:0:0:
355,308,60955,1,0,0:0:0:0:
355,308,61025,2,0,P|444:311|490:381,1,172,14|4,3:2|1:1,0:0:0:0:
227,276,61586,6,0,P|105:257|28:240,1,172,10|2,3:2|1:3,0:0:0:0:
0,317,62006,2,0,P|12:365|70:387,1,86,0|10,1:0|3:2,0:0:0:0:
137,290,62287,6,0,P|156:168|173:91,1,172,0|0,1:0|1:0,0:0:0:0:
87,56,62707,2,0,P|31:80|-12:84,2,86,10|0|2,3:2|1:0|0:3,0:0:0:0:
251,65,63128,1,0,1:0:0:0:
251,65,63268,2,0,P|182:71|174:143,1,129,10|0,3:2|3:2,0:0:0:0:
171,135,63548,6,0,B|275:130|227:189|329:190,2,172,2|10|2,1:2|3:2|1:3,0:0:0:0:
103,210,64249,2,0,P|129:267|142:309,1,86,0|10,1:0|3:2,0:0:0:0:
327,364,64530,6,0,B|374:302|374:302|480:310,1,172,4|8,1:2|3:2,0:0:0:0:
512,237,64950,1,8,3:2:0:0:
501,153,65090,1,8,3:2:0:0:
438,95,65230,1,8,3:2:0:0:
352,91,65371,2,0,B|296:80|255:122|255:122|213:91|213:91|182:133|124:123,1,258,4|8,1:2|0:2,0:0:0:0:
0,76,65931,5,0,1:0:0:0:
0,76,66072,2,0,P|58:100|67:209,1,172,2|8,0:0|0:2,0:0:0:0:
213,280,66492,2,0,P|167:223|165:191,1,86,0|2,1:0|0:0,0:0:0:0:
0,384,66773,6,0,P|23:323|140:336,1,172,4|8,1:2|0:2,0:0:0:0:
262,203,67193,2,0,P|385:223|462:229,1,172,2|8,1:2|0:2,0:0:0:0:
260,347,67614,2,0,P|244:307|212:279,2,86,0|2|0,1:0|0:0|0:0,0:0:0:0:
78,382,68034,1,8,0:2:0:0:
68,372,68315,6,0,P|86:245|93:186,1,172,2|8,0:0|0:2,0:0:0:0:
0,72,68735,2,0,P|48:112|90:113,1,86,0|2,1:0|0:0,0:0:0:0:
292,52,69016,6,0,P|199:75|163:167,1,172,4|8,1:2|0:2,0:0:0:0:
111,293,69436,2,0,P|196:303|281:316,1,172,2|8,1:2|0:2,0:0:0:0:
460,268,69857,1,0,1:0:0:0:
387,321,69997,2,0,L|369:385,3,43,0|0|8|8,3:0|3:0|3:2|3:2,0:0:0:0:
375,376,70277,6,0,L|349:183,1,172,4|10,1:2|3:2,0:0:0:0:
475,95,70698,2,0,P|464:146|425:180,1,86,0|2,1:0|1:3,0:0:0:0:
301,109,70978,2,0,P|312:58|351:24,1,86,0|10,1:0|3:2,0:0:0:0:
352,205,71259,6,0,P|241:211|233:293,1,172,4|8,1:1|3:2,0:0:0:0:
184,330,71679,1,8,3:2:0:0:
137,257,71819,1,8,3:2:0:0:
97,334,71959,1,8,3:2:0:0:
224,253,72100,2,0,P|319:286|368:388,1,215,0|0,1:0|3:0,0:0:0:0:
369,360,72520,6,0,L|385:168,1,172,4|0,1:2|1:0,0:0:0:0:
445,123,72941,1,0,1:0:0:0:
334,30,73081,2,0,P|233:46|138:57,1,172,8|0,3:2|1:0,0:0:0:0:
239,162,73502,2,0,P|138:146|43:135,1,172,8|0,3:2|1:0,0:0:0:0:
152,242,73922,2,0,P|161:285|167:328,1,86,0|0,1:0|0:0,0:0:0:0:
266,379,74202,1,14,0:0:0:0:
266,379,74296,2,0,P|321:352|328:328,1,57.3333333333333,0|8,0:0|0:2,0:0:0:0:
405,367,74483,1,8,3:3:0:0:
405,367,74577,2,0,P|429:310|419:288,1,57.3333333333333,8|8,3:3|3:3,0:0:0:0:
388,240,74763,6,0,L|379:179,2,57.3333333333333,4|0|0,1:0|1:0|1:0,0:0:0:0:
311,270,75044,2,0,L|302:209,2,57.3333333333333,0|0|0,1:0|1:0|1:0,0:0:0:0:
235,300,75324,2,0,L|207:106,1,172,8|0,3:2|0:0,0:0:0:0:
413,36,75885,6,0,L|348:26,2,57.3333333333333,4|0|0,1:2|1:0|1:0,0:0:0:0:
456,105,76165,2,0,L|521:95,2,57.3333333333333,0|0|0,1:0|1:0|1:0,0:0:0:0:
403,170,76445,2,0,L|198:138,1,172,8|0,3:2|0:0,0:0:0:0:
14,199,77006,6,0,L|24:266,2,57.3333333333333,4|0|0,1:0|1:0|1:0,0:0:0:0:
96,204,77287,2,0,L|106:271,2,57.3333333333333,0|0|0,1:0|1:0|1:0,0:0:0:0:
178,211,77567,2,0,L|208:412,1,172,8|0,3:2|0:0,0:0:0:0:
416,308,78128,6,0,L|486:295,2,57.3333333333333,4|0|0,1:2|1:0|1:0,0:0:0:0:
351,251,78408,2,0,L|281:238,2,57.3333333333333,0|0|0,1:0|1:0|1:0,0:0:0:0:
415,195,78688,1,8,3:2:0:0:
108,41,79249,6,0,L|164:34,2,57.3333333333333,4|0|0,1:0|1:0|1:0,0:0:0:0:
95,121,79530,2,0,L|151:114,2,57.3333333333333,0|0|0,1:0|1:0|1:0,0:0:0:0:
80,204,79810,2,0,L|250:183,1,172,8|0,3:2|0:0,0:0:0:0:
485,70,80371,6,0,L|503:-3,2,57.3333333333333,4|0|0,1:2|1:0|1:0,0:0:0:0:
426,131,80651,2,0,L|439:186,2,57.3333333333333,0|0|0,1:0|1:0|1:0,0:0:0:0:
351,89,80931,2,0,L|368:-6,1,86,8|0,3:2|0:0,0:0:0:0:
284,5,81212,2,0,L|268:89,1,86
241,214,81492,6,0,L|152:227,2,57.3333333333333,4|0|0,1:0|1:0|1:0,0:0:0:0:
274,289,81773,2,0,L|185:302,2,57.3333333333333,0|0|0,1:0|1:0|1:0,0:0:0:0:
313,363,82053,2,0,L|224:376,1,86,8|0,3:2|0:0,0:0:0:0:
121,345,82333,2,0,L|108:256,1,86
184,100,82614,6,0,L|249:90,2,57.3333333333333,4|0|0,1:2|1:0|1:0,0:0:0:0:
112,159,82894,2,0,L|47:149,2,57.3333333333333,0|0|0,1:0|1:0|1:0,0:0:0:0:
184,222,83174,1,8,3:2:0:0:
184,222,83245,1,8,3:2:0:0:
184,222,83315,2,0,L|306:203,1,86,8|8,3:2|3:2,0:0:0:0:
337,144,83595,1,8,3:2:0:0:
463,203,83735,6,0,P|448:260|443:306,1,86,0|0,1:1|0:0,0:0:0:0:
512,384,84016,2,0,P|475:328|370:337,1,172,10|2,3:2|1:3,0:0:0:0:
289,384,84436,1,0,1:0:0:0:
214,287,84576,1,10,3:2:0:0:
289,384,84716,6,0,P|305:292|321:204,1,172,0|0,1:0|1:0,0:0:0:0:
232,160,85137,2,0,P|163:178|130:185,1,86,10|0,3:2|1:0,0:0:0:0:
62,139,85417,1,2,0:3:0:0:
62,139,85558,1,0,1:0:0:0:
109,268,85698,2,0,P|97:324|89:373,1,86,10|0,3:2|1:0,0:0:0:0:
270,384,85978,6,0,P|335:370|343:269,1,172,2|10,1:2|3:2,0:0:0:0:
392,163,86399,2,0,P|369:109|360:66,2,86,0|2|0,1:0|1:3|1:0,0:0:0:0:
512,235,86819,1,10,3:2:0:0:
512,235,86959,6,0,P|457:184|348:218,1,172,0|0,1:0|1:0,0:0:0:0:
252,158,87380,1,10,3:2:0:0:
252,158,87520,2,0,P|190:148|142:122,1,86,0|2,1:0|0:3,0:0:0:0:
162,144,87730,1,0,0:0:0:0:
155,150,87801,1,0,1:3:0:0:
60,126,87941,1,10,3:2:0:0:
129,51,88081,1,0,1:0:0:0:
89,225,88221,6,0,L|104:318,1,86,0|0,3:1|3:1,0:0:0:0:
245,270,88502,2,0,L|230:363,1,86,0|0,3:1|3:1,0:0:0:0:
76,218,88782,2,0,L|91:311,1,86,8|0,3:2|3:2,0:0:0:0:
258,263,89062,2,0,L|243:356,1,86,8|0,3:2|3:1,0:0:0:0:
63,211,89343,2,0,L|78:304,1,86,8|8,3:2|3:2,0:0:0:0:
271,256,89623,2,0,L|256:349,1,86,8|8,3:2|3:2,0:0:0:0:
50,204,89903,2,0,L|65:297,1,86,8|8,3:2|3:2,0:0:0:0:
284,249,90184,2,0,L|269:342,1,86,8|8,3:2|3:2,0:0:0:0:
191,140,90464,6,0,P|234:122|261:99,2,57.3333333333333,8|8|8,3:2|3:2|3:3,0:0:0:0:
111,136,90745,2,0,P|84:89|90:45,1,86,4|0,3:3|0:0,0:0:0:0:
194,236,91025,6,0,L|180:308,2,57.3333333333333,8|8|8,3:2|3:2|3:3,0:0:0:0:
284,249,91305,2,0,L|381:238,1,86,4|0,3:3|0:0,0:0:0:0:
457,108,91586,6,0,P|493:113|529:132,2,57.3333333333333,8|8|8,3:2|3:2|3:3,0:0:0:0:
377,73,91866,2,0,P|339:96|328:149,1,86,4|0,3:3|0:0,0:0:0:0:
453,235,92146,5,8,3:2:0:0:
453,235,92240,2,0,P|443:282|424:316,1,57.3333333333333,8|8,3:2|3:2,0:0:0:0:
355,321,92427,1,8,3:2:0:0:
355,321,92521,2,0,P|312:343|274:350,1,57.3333333333333,8|8,3:2|3:2,0:0:0:0:
215,317,92707,5,12,3:2:0:0:
129,377,92847,1,8,3:2:0:0:
50,307,92987,2,0,L|64:216,1,86,8|8,3:2|3:2,0:0:0:0:
134,113,93268,5,8,3:2:0:0:
109,16,93408,1,8,3:2:0:0:
38,87,93548,1,8,3:2:0:0:
208,44,93688,2,0,B|337:14|327:119|456:98,1,258,4|0,1:1|0:0,0:0:0:0:
402,301,94389,6,0,P|387:346|385:389,2,57.3333333333333,0|0|0,1:1|1:2|1:2,0:0:0:0:
313,308,94670,2,0,P|257:322|195:328,1,86,8|0,0:0|0:0,0:0:0:0:
8,192,94950,6,0,P|87:205|115:210,1,86,4|0,1:2|1:0,0:0:0:0:
241,149,95230,1,10,0:0:0:0:
210,0,95371,2,0,P|154:33|174:155,1,172,0|0,1:0|1:0,0:0:0:0:
288,230,95791,1,10,0:0:0:0:
333,103,95931,2,0,P|313:38|307:9,1,86,0|0,1:0|2:0,0:0:0:0:
435,126,96212,2,0,L|499:135,2,43,0|0|10,1:0|1:0|0:0,0:0:0:0:
395,223,96492,2,0,P|328:243|313:357,1,172,0|0,1:0|1:0,0:0:0:0:
135,384,96913,2,0,P|123:322|112:280,1,86,10|0,0:0|1:0,0:0:0:0:
123,288,97123,1,8,3:2:0:0:
129,276,97193,6,0,P|140:226|145:184,1,86,0|0,1:1|1:0,0:0:0:0:
163,22,97473,1,10,0:0:0:0:
0,44,97614,2,0,P|47:114|151:76,1,172,0|0,1:0|1:0,0:0:0:0:
254,0,98034,1,10,0:0:0:0:
316,136,98174,2,0,P|298:205|291:244,1,86,0|0,1:0|2:0,0:0:0:0:
403,342,98455,1,0,1:0:0:0:
403,342,98525,1,0,1:0:0:0:
403,342,98595,2,0,P|483:316|488:233,1,172,14|14,0:0|0:0,0:0:0:0:
308,318,99016,1,0,1:0:0:0:
308,318,99086,1,0,1:0:0:0:
308,318,99156,2,0,P|238:328|198:335,1,86,14|0,0:0|0:0,0:0:0:0:
93,200,99436,6,0,P|159:212|208:220,1,86,4|0,1:1|1:0,0:0:0:0:
323,175,99716,1,10,0:0:0:0:
315,47,99857,2,0,P|248:66|254:170,1,172,0|0,1:0|1:0,0:0:0:0:
115,293,100277,1,10,0:0:0:0:
21,144,100417,2,0,P|2:69|-11:33,1,86,0|0,1:0|2:0,0:0:0:0:
154,43,100698,2,0,L|164:-6,2,43,0|0|10,1:0|1:0|0:0,0:0:0:0:
241,156,100978,2,0,P|228:197|219:239,1,86,0|0,1:0|1:0,0:0:0:0:
328,375,101259,1,0,1:0:0:0:
328,375,101329,1,0,1:2:0:0:
328,375,101399,2,0,P|346:306|350:271,1,86,10|0,0:0|1:0,0:0:0:0:
477,203,101679,5,0,1:1:0:0:
433,106,101819,1,0,1:0:0:0:
322,144,101959,2,0,P|268:138|234:131,1,86,10|0,0:0|1:0,0:0:0:0:
5,92,102240,1,0,1:0:0:0:
85,21,102380,1,0,1:0:0:0:
135,117,102520,1,10,0:0:0:0:
53,192,102660,2,0,P|64:263|78:367,1,172,4|0,1:0|1:0,0:0:0:0:
217,308,103081,1,14,0:0:0:0:
302,377,103221,1,8,3:3:0:0:
390,311,103361,2,0,P|381:244|378:206,1,86,8|8,3:3|3:3,0:0:0:0:
386,214,103572,1,8,3:3:0:0:
393,203,103642,2,0,P|435:193|449:188,3,43,4|8|8|0,3:3|3:3|3:3|3:3,0:0:0:0:
499,125,103922,6,0,P|411:112|386:107,1,86,4|0,1:2|1:0,0:0:0:0:
250,157,104202,1,10,0:0:0:0:
249,0,104343,2,0,P|321:27|308:133,1,172,0|0,1:0|1:0,0:0:0:0:
217,242,104763,1,10,0:0:0:0:
132,121,104903,2,0,P|150:48|158:11,1,86,0|0,1:0|2:0,0:0:0:0:
51,163,105184,2,0,L|-15:179,2,43,0|0|10,1:0|1:0|0:0,0:0:0:0:
128,237,105464,2,0,P|61:259|62:369,1,172,0|0,1:0|1:0,0:0:0:0:
231,375,105885,2,0,P|290:363|346:359,1,86,10|0,0:0|1:0,0:0:0:0:
327,365,106095,1,8,3:2:0:0:
338,370,106165,6,0,P|355:300|365:267,1,86,0|0,1:1|1:0,0:0:0:0:
334,122,106445,1,10,0:0:0:0:
485,126,106586,2,0,P|470:183|364:195,1,172,0|0,1:0|1:0,0:0:0:0:
299,43,107006,1,10,0:0:0:0:
171,149,107146,2,0,P|184:207|189:245,1,86,0|0,1:0|2:0,0:0:0:0:
111,372,107427,1,0,1:0:0:0:
111,372,107497,1,0,1:0:0:0:
111,372,107567,2,0,P|38:364|10:267,1,172,14|14,0:0|0:0,0:0:0:0:
204,343,107987,1,0,1:0:0:0:
204,343,108058,1,0,1:0:0:0:
204,343,108128,2,0,P|269:319|310:313,1,86,14|0,0:0|0:0,0:0:0:0:
476,210,108408,6,0,P|397:197|361:192,1,86,4|0,1:1|1:0,0:0:0:0:
234,170,108688,1,10,0:0:0:0:
262,20,108829,2,0,P|334:71|309:157,1,172,0|0,1:0|1:0,0:0:0:0:
161,230,109249,1,10,0:0:0:0:
62,98,109389,2,0,P|78:35|90:-2,1,86,0|0,1:0|2:0,0:0:0:0:
39,194,109670,2,0,L|-3:203,2,43,0|0|10,1:0|1:0|0:0,0:0:0:0:
90,280,109950,2,0,P|29:288|10:399,1,172,0|0,1:0|1:0,0:0:0:0:
203,312,110371,2,0,P|275:299|307:294,1,86,10|0,0:0|1:0,0:0:0:0:
480,128,110651,5,4,1:1:0:0:
399,86,110791,1,0,1:0:0:0:
315,117,110931,1,10,0:0:0:0:
267,196,111072,2,0,P|171:206|125:137,1,172,4|0,1:2|1:0,0:0:0:0:
0,0,111492,5,10,0:0:0:0:
40,143,111632,2,0,P|23:223|13:263,1,86,4|0,1:0|0:0,0:0:0:0:
125,316,111913,5,0,1:0:0:0:
209,332,112053,1,8,2:0:0:0:
276,277,112193,1,8,2:0:0:0:
277,189,112334,2,0,P|245:158|211:132,1,86,8|8,2:0|2:0,0:0:0:0:
277,291,112614,2,0,P|307:320|342:346,1,86,8|8,2:0|2:0,0:0:0:0:
499,171,112894,6,0,P|423:170|364:277,2,172,6|0|12,1:2|1:0|3:2,0:0:0:0:
499,171,113875,6,0,P|427:178|347:85,1,172,0|0,1:0|1:0,0:0:0:0:
460,0,114296,2,0,P|449:56|427:98,1,86,0|0,1:0|1:0,0:0:0:0:
276,152,114576,1,12,3:2:0:0:
276,152,114716,2,0,P|230:110|113:132,1,172,0|0,1:0|3:0,0:0:0:0:
123,132,115067,1,8,2:0:0:0:
120,144,115137,6,0,P|135:225|150:320,1,172,0|0,1:0|1:0,0:0:0:0:
218,364,115558,1,0,0:0:0:0:
267,263,115698,1,12,3:2:0:0:
276,278,116118,6,0,P|354:280|411:375,1,172,0|0,1:0|0:0,0:0:0:0:
512,208,116539,2,0,P|470:234|400:227,1,86,0|0,1:0|1:0,0:0:0:0:
320,362,116819,1,12,3:2:0:0:
320,362,116959,1,0,1:0:0:0:
167,151,117240,5,0,3:0:0:0:
171,139,117310,1,8,2:0:0:0:
175,127,117380,2,0,P|252:109|278:211,2,172,0|0|12,1:0|1:0|3:2,0:0:0:0:
175,127,118361,6,0,P|250:125|266:22,1,172,0|0,1:0|1:0,0:0:0:0:
437,35,118782,2,0,P|376:56|349:103,1,86,0|0,1:0|1:0,0:0:0:0:
193,24,119062,1,12,3:2:0:0:
193,24,119202,2,0,P|121:9|45:86,1,172,0|0,1:0|3:0,0:0:0:0:
41,168,119623,5,0,1:0:0:0:
41,168,119763,1,0,1:0:0:0:
109,232,119903,1,0,1:0:0:0:
109,232,120044,1,0,1:0:0:0:
57,346,120184,1,12,3:2:0:0:
64,329,120604,6,0,P|134:311|207:386,1,172,12|4,3:2|1:3,0:0:0:0:
215,365,120955,1,4,1:3:0:0:
226,359,121025,2,0,L|287:345,3,43,8|8|8|8,3:0|1:3|3:2|3:2,0:0:0:0:
300,273,121305,2,0,L|239:259,3,43,4|8|8|4,3:0|3:2|3:2|3:0,0:0:0:0:
217,193,121586,2,0,L|278:179,3,43,0|0|8|8,1:0|1:0|3:2|3:2,0:0:0:0:
310,111,121866,6,0,P|253:101|211:89,1,86,4|0,1:2|1:0,0:0:0:0:
56,148,122146,1,10,0:0:0:0:
51,0,122287,2,0,P|119:16|128:118,1,172,0|0,1:0|1:0,0:0:0:0:
0,219,122707,1,10,0:0:0:0:
125,317,122847,2,0,P|192:327|232:336,1,86,0|0,1:0|2:0,0:0:0:0:
34,341,123128,2,0,L|46:396,2,43,0|0|10,1:0|1:0|0:0,0:0:0:0:
114,227,123408,2,0,P|178:213|282:187,1,172,0|0,1:0|1:0,0:0:0:0:
374,366,123829,2,0,P|307:351|252:349,1,86,10|0,0:0|1:0,0:0:0:0:
278,355,124039,1,8,3:2:0:0:
266,361,124109,6,0,P|251:302|244:262,1,86,0|0,1:1|1:0,0:0:0:0:
298,106,124389,1,10,0:0:0:0:
423,181,124530,2,0,P|362:224|269:160,1,172,0|0,1:0|1:0,0:0:0:0:
228,35,124950,1,10,0:0:0:0:
101,112,125090,2,0,P|113:171|118:214,1,86,0|0,1:0|2:0,0:0:0:0:
0,306,125371,1,0,1:0:0:0:
0,306,125441,1,0,1:0:0:0:
0,306,125511,2,0,P|34:367|144:341,1,172,14|14,0:0|0:0,0:0:0:0:
264,271,125931,1,0,1:0:0:0:
264,271,126002,1,0,1:0:0:0:
264,271,126072,2,0,P|276:202|285:172,1,86,14|0,0:0|0:0,0:0:0:0:
58,113,126352,6,0,P|102:106|144:96,1,86,4|0,1:1|1:0,0:0:0:0:
291,172,126632,1,10,0:0:0:0:
307,0,126773,2,0,P|242:23|247:133,1,172,0|0,1:0|1:0,0:0:0:0:
350,238,127193,1,10,0:0:0:0:
457,119,127333,2,0,P|480:47|490:13,1,86,0|0,1:0|2:0,0:0:0:0:
482,228,127614,2,0,L|417:210,2,43,0|0|10,1:0|1:0|0:0,0:0:0:0:
411,304,127894,2,0,P|351:298|305:415,1,172,0|0,1:0|1:0,0:0:0:0:
120,363,128315,2,0,P|178:350|220:330,1,86,0|0,0:0|1:0,0:0:0:0:
261,168,128595,5,0,1:1:0:0:
290,80,128735,1,0,1:0:0:0:
220,11,128875,1,10,0:0:0:0:
177,106,129016,2,0,P|107:130|16:70,1,172,0|0,1:0|1:0,0:0:0:0:
0,284,129436,5,10,0:0:0:0:
126,225,129576,2,0,P|189:235|239:250,1,86,4|0,1:0|0:0,0:0:0:0:
330,351,129857,1,0,1:0:0:0:
404,300,129997,1,14,0:0:0:0:
419,215,130137,1,0,0:0:0:0:
370,143,130277,2,0,P|305:134|273:128,1,86,8|0,3:3|0:0,0:0:0:0:
427,228,130558,2,0,P|492:237|524:243,1,86,4|0,3:3|0:0,0:0:0:0:
317,268,130838,6,0,P|229:273|181:356,2,172,4|10|0,1:1|3:2|0:0,0:0:0:0:
400,309,131539,2,0,P|375:343|335:355,1,86,0|10,1:0|3:2,0:0:0:0:
240,225,131819,1,0,1:0:0:0:
53,351,132100,2,0,L|1:360,2,43,0|0|10,1:0|1:0|3:2,0:0:0:0:
115,290,132380,2,0,L|207:305,2,86,0|2|0,1:0|0:3|1:0,0:0:0:0:
52,232,132801,2,0,P|44:154|39:116,1,86,10|0,3:2|1:0,0:0:0:0:
50,135,133011,1,0,3:0:0:0:
57,124,133081,6,0,P|99:77|203:85,1,172,2|10,1:2|3:2,0:0:0:0:
258,148,133502,1,0,1:0:0:0:
258,148,133642,2,0,P|316:129|335:56,2,129,2|0|0,1:3|0:0|1:0,0:0:0:0:
128,272,134343,2,0,L|53:259,2,43,0|0|10,1:0|1:0|3:2,0:0:0:0:
180,343,134623,1,0,1:0:0:0:
252,293,134763,1,2,0:3:0:0:
252,293,134833,1,0,1:0:0:0:
252,293,134903,2,0,L|306:279,2,43,0|0|10,1:3|1:0|3:2,0:0:0:0:
198,219,135184,1,0,1:0:0:0:
264,161,135324,6,0,P|328:169|365:174,1,86,0|0,1:1|0:0,0:0:0:0:
409,239,135604,2,0,P|466:223|475:113,1,172,10|0,3:2|0:0,0:0:0:0:
435,33,136025,2,0,P|405:65|416:137,1,86,0|10,1:0|3:2,0:0:0:0:
512,210,136305,1,0,1:0:0:0:
344,341,136586,2,0,L|339:394,2,43,0|0|10,1:0|1:0|3:2,0:0:0:0:
270,293,136866,2,0,L|243:186,2,86,0|2|0,1:0|0:3|1:0,0:0:0:0:
209,354,137287,2,0,P|144:342|98:338,1,86,10|0,3:2|1:0,0:0:0:0:
113,346,137497,1,0,3:0:0:0:
102,352,137567,6,0,P|38:331|36:232,1,172,2|10,1:2|3:2,0:0:0:0:
111,189,137987,2,0,P|169:174|189:137,2,86,0|0|0,1:0|0:0|1:0,0:0:0:0:
30,139,138408,1,10,3:2:0:0:
30,139,138548,2,0,P|41:78|161:66,1,172,0|0,1:0|1:0,0:0:0:0:
143,60,138899,1,0,1:0:0:0:
150,70,138969,2,0,P|206:69|234:42,1,86,10|0,3:2|1:0,0:0:0:0:
324,17,139249,2,0,P|309:79|300:123,1,86,8|0,3:2|3:2,0:0:0:0:
308,112,139459,1,0,3:2:0:0:
312,124,139530,2,0,P|302:165|292:207,1,86,8|8,3:2|3:2,0:0:0:0:
362,305,139810,6,0,P|418:285|436:250,1,86,2|0,1:2|1:0,0:0:0:0:
433,178,140090,1,10,3:2:0:0:
433,178,140230,2,0,P|420:124|416:86,2,86,0|2|0,1:0|1:3|1:0,0:0:0:0:
511,228,140651,1,10,3:2:0:0:
511,228,140791,1,0,1:0:0:0:
360,327,141072,2,0,L|350:380,2,43,0|0|10,1:0|1:0|3:2,0:0:0:0:
284,282,141352,2,0,P|223:294|186:302,1,86,0|0,1:0|0:0,0:0:0:0:
142,363,141632,1,0,1:0:0:0:
87,300,141773,2,0,P|106:233|115:196,1,86,10|0,3:2|1:0,0:0:0:0:
169,138,142053,6,0,P|155:111|96:101,1,86,2|0,1:2|0:0,0:0:0:0:
33,33,142333,1,10,3:2:0:0:
33,33,142473,2,0,P|91:14|131:-2,2,86,0|0|0,1:0|0:0|1:0,0:0:0:0:
21,123,142894,1,10,3:2:0:0:
21,123,143034,1,0,1:0:0:0:
229,43,143315,2,0,L|221:-9,2,43,0|0|10,1:0|1:0|3:2,0:0:0:0:
295,105,143595,1,0,1:0:0:0:
362,47,143735,2,0,P|412:34|448:38,2,57.3333333333333,8|8|8,0:2|0:3|0:3,0:0:0:0:
411,116,144016,2,0,P|457:138|482:164,2,57.3333333333333,4|4|4,3:3|3:3|3:3,0:0:0:0:
404,200,144296,6,0,P|425:246|427:282,2,57.3333333333333,6|2|2,1:2|0:0|0:0,0:0:0:0:
343,263,144576,2,0,P|329:312|308:341,2,57.3333333333333,10|2|2,0:0|0:0|0:0,0:0:0:0:
255,270,144857,2,0,P|212:298|177:307,2,57.3333333333333,2|2|2,1:3|0:0|0:0,0:0:0:0:
181,217,145137,2,0,P|130:210|97:195,2,57.3333333333333,10|2|2,0:0|0:0|0:0,0:0:0:0:
164,134,145417,6,0,P|128:96|114:63,2,57.3333333333333,2|2|2,0:3|0:0|0:0,0:0:0:0:
216,68,145698,1,10,0:0:0:0:
256,31,145791,1,2,0:0:0:0:
312,28,145885,1,2,0:0:0:0:
358,53,145978,2,0,P|381:92|387:124,2,57.3333333333333,2|2|2,1:3|0:0|0:0,0:0:0:0:
305,127,146259,2,0,P|322:178|324:229,1,86,8|0,0:0|1:2,0:0:0:0:
314,220,146469,1,0,3:0:0:0:
307,230,146539,6,0,P|256:218|198:321,1,172,2|10,1:2|3:2,0:0:0:0:
96,279,146959,2,0,P|52:268|18:235,1,86,0|0,1:0|0:0,0:0:0:0:
265,363,147240,2,0,P|325:340|358:296,1,86,0|10,1:0|3:2,0:0:0:0:
193,305,147520,6,0,B|150:223|224:164|224:164|192:150|192:150|253:78|188:-7,1,344,4|8,1:2|3:2,0:0:0:0:
87,44,148221,1,0,1:0:0:0:
87,44,148291,1,0,1:0:0:0:
87,44,148361,2,0,L|72:104,2,43,0|0|12,1:0|1:2|3:2,0:0:0:0:
273,247,148782,6,0,P|352:260|370:365,1,172,4|10,1:0|2:0,0:0:0:0:
297,374,149202,2,0,P|244:375|217:328,1,86
180,266,149483,1,0,1:0:0:0:
180,266,149623,1,10,2:0:0:0:
410,186,149903,1,0,1:0:0:0:
180,266,150184,1,10,2:0:0:0:
410,186,150464,5,0,1:0:0:0:
295,226,150604,1,0,1:0:0:0:
180,266,150745,1,10,2:0:0:0:
410,186,151025,6,0,P|369:137|258:148,1,172,0|10,1:0|2:0,0:0:0:0:
165,112,151445,2,0,P|205:81|216:19,1,86
306,36,151726,1,0,1:0:0:0:
306,36,151866,1,10,2:0:0:0:
74,13,152146,1,0,1:0:0:0:
306,36,152427,1,10,2:0:0:0:
74,13,152707,5,0,1:0:0:0:
190,25,152847,1,0,3:0:0:0:
306,36,152987,1,10,2:0:0:0:
74,13,153268,6,0,P|53:102|34:206,1,172,4|10,1:2|2:0,0:0:0:0:
113,238,153688,2,0,P|131:285|146:337,1,86
79,384,153969,1,0,1:0:0:0:
79,384,154109,1,10,2:0:0:0:
304,341,154389,1,0,1:0:0:0:
79,384,154670,1,10,2:0:0:0:
304,341,154950,5,0,1:0:0:0:
192,363,155090,1,0,1:0:0:0:
79,384,155230,1,10,2:0:0:0:
272,233,155511,5,0,1:0:0:0:
501,273,155791,1,10,2:0:0:0:
272,233,156072,5,0,1:0:0:0:
387,253,156212,1,0,1:0:0:0:
501,273,156352,1,10,2:0:0:0:
304,123,156632,6,0,P|244:131|155:146,1,129,10|0,1:2|0:0,0:0:0:0:
173,156,156913,2,0,P|95:143|89:81,1,129,10|0,1:2|0:0,0:0:0:0:
73,115,157193,2,0,P|63:192|54:264,1,129,10|0,1:2|0:0,0:0:0:0:
65,256,157473,2,0,P|121:246|170:313,1,129,14|0,1:2|0:0,0:0:0:0:
165,342,157754,6,0,P|195:293|328:297,1,172,4|10,1:0|2:0,0:0:0:0:
376,329,158174,2,0,P|426:308|446:264,1,86
404,194,158455,1,0,1:0:0:0:
404,194,158595,1,10,2:0:0:0:
420,105,158875,1,0,1:0:0:0:
358,36,159156,1,10,2:0:0:0:
264,26,159436,5,0,1:0:0:0:
197,90,159576,1,0,1:0:0:0:
108,102,159716,1,10,2:0:0:0:
27,53,159997,6,0,P|77:81|67:200,1,172,0|10,1:0|2:0,0:0:0:0:
17,254,160417,2,0,P|2:323|26:359,1,86
88,374,160698,1,0,1:0:0:0:
88,374,160838,1,10,2:0:0:0:
166,328,161118,1,0,1:0:0:0:
259,360,161399,1,10,2:0:0:0:
259,360,161539,6,0,P|268:273|283:175,1,172,4|8,1:0|3:2,0:0:0:0:
216,132,161959,1,8,3:2:0:0:
228,47,162100,1,8,3:2:0:0:
312,9,162240,6,0,P|394:11|432:100,1,172,4|10,1:2|3:2,0:0:0:0:
491,206,162660,2,0,P|505:147|518:109,2,86,0|0|0,0:0|1:0|1:0,0:0:0:0:
491,346,163081,1,10,3:2:0:0:
491,346,163221,2,0,P|456:287|336:300,1,172,0|0,1:0|1:0,0:0:0:0:
224,384,163642,2,0,P|282:364|307:331,1,86,10|0,3:2|1:0,0:0:0:0:
342,189,163922,1,0,0:0:0:0:
342,189,164062,2,0,P|287:173|252:135,2,86,0|8|0,1:0|0:0|0:0,0:0:0:0:
235,285,164483,6,0,P|179:213|81:233,2,172,0|10|0,1:0|3:2|1:0,0:0:0:0:
157,335,165184,2,0,P|101:343|64:373,1,86,0|10,1:0|3:2,0:0:0:0:
7,297,165464,1,0,1:0:0:0:
129,117,165745,1,0,1:0:0:0:
129,117,165885,2,0,P|106:53|89:22,1,86,8|8,3:2|3:2,0:0:0:0:
221,82,166165,2,0,P|287:94|323:94,1,86,8|8,3:2|3:2,0:0:0:0:
212,175,166445,2,0,P|168:226|149:257,1,86,8|8,3:2|3:2,0:0:0:0:
289,283,166726,6,0,P|337:269|376:270,2,57.3333333333333,4|8|8,1:0|1:2|1:2,0:0:0:0:
342,358,167006,2,0,P|387:378|417:403,2,57.3333333333333,8|4|4,3:3|3:3|1:3,0:0:0:0:
373,190,167287,6,0,P|421:176|460:177,2,57.3333333333333,4|8|8,1:0|1:2|1:2,0:0:0:0:
426,265,167567,2,0,P|471:285|501:310,2,57.3333333333333,8|4|4,3:3|3:3|1:3,0:0:0:0:
458,93,167847,5,4,1:0:0:0:
288,195,168128,1,8,3:3:0:0:
142,65,168408,2,0,P|120:9|100:-8,2,57.3333333333333,0|0|0,1:3|1:3|1:3,0:0:0:0:
174,161,168688,2,0,P|115:151|69:148,1,86,12|0,1:2|0:0,0:0:0:0:
86,341,168969,5,4,1:2:0:0:
86,341,169109,1,0,1:0:0:0:
234,227,169249,1,10,0:0:0:0:
281,367,169389,2,0,P|181:341|185:253,1,172,0|0,1:0|1:0,0:0:0:0:
294,151,169810,1,10,0:0:0:0:
403,288,169950,2,0,P|385:360|378:407,1,86,0|0,1:0|2:0,0:0:0:0:
468,217,170230,2,0,L|518:210,2,43,0|0|10,1:0|1:0|0:0,0:0:0:0:
383,145,170511,2,0,P|448:114|440:8,1,172,0|0,1:0|1:0,0:0:0:0:
245,68,170931,2,0,P|173:58|129:53,1,86,10|0,0:0|1:0,0:0:0:0:
148,62,171142,1,8,3:2:0:0:
136,68,171212,5,0,1:1:0:0:
96,148,171352,1,0,1:0:0:0:
162,329,171492,1,10,0:0:0:0:
0,295,171632,2,0,P|40:236|140:258,1,172,0|0,1:0|1:0,0:0:0:0:
240,384,172053,1,10,0:0:0:0:
340,257,172193,2,0,P|354:195|361:165,1,86,0|0,1:0|2:0,0:0:0:0:
480,19,172473,1,0,1:0:0:0:
480,19,172544,1,0,1:0:0:0:
480,19,172614,2,0,P|464:68|333:56,1,172,14|14,0:0|0:0,0:0:0:0:
187,174,173034,1,0,1:0:0:0:
187,174,173104,1,0,1:0:0:0:
187,174,173174,2,0,P|233:174|272:214,1,86,14|0,0:0|0:0,0:0:0:0:
375,300,173455,5,4,1:1:0:0:
375,300,173595,1,0,1:0:0:0:
201,254,173735,1,10,0:0:0:0:
194,384,173875,2,0,P|252:378|263:260,1,172,0|0,1:0|1:0,0:0:0:0:
187,174,174296,1,10,0:0:0:0:
91,300,174436,2,0,P|101:361|106:404,1,86,0|0,1:0|2:0,0:0:0:0:
42,223,174716,2,0,L|-21:214,2,43,0|0|10,1:0|1:0|0:0,0:0:0:0:
94,145,174997,2,0,P|97:84|196:38,1,172,0|0,1:0|1:0,0:0:0:0:
343,95,175417,2,0,P|399:84|447:74,1,86,10|0,0:0|1:0,0:0:0:0:
439,84,175628,1,8,3:2:0:0:
450,89,175698,5,0,1:1:0:0:
510,192,175838,1,0,1:0:0:0:
416,257,175978,2,0,P|343:246|307:239,1,86,10|0,0:0|1:0,0:0:0:0:
164,186,176259,1,0,1:0:0:0:
69,250,176399,1,0,1:0:0:0:
99,357,176539,1,10,0:0:0:0:
197,299,176679,2,0,P|248:246|254:131,1,172,4|0,1:0|1:0,0:0:0:0:
167,38,177100,1,14,0:0:0:0:
59,111,177240,1,0,0:0:0:0:
167,38,177380,2,0,P|225:29|268:48,2,57.3333333333333,8|8|8,3:3|3:3|3:3,0:0:0:0:
307,27,177660,2,0,P|357:57|377:99,2,57.3333333333333,4|4|4,3:3|3:3|3:3,0:0:0:0:
415,129,177941,5,4,1:2:0:0:
415,129,178081,1,0,1:0:0:0:
367,307,178221,1,10,0:0:0:0:
512,294,178361,2,0,P|472:228|380:227,1,172,0|0,1:0|1:0,0:0:0:0:
293,363,178782,1,10,0:0:0:0:
181,255,178922,2,0,P|199:176|204:147,1,86,0|0,1:0|2:0,0:0:0:0:
44,44,179202,2,0,L|33:-18,2,43,0|0|10,1:0|1:0|0:0,0:0:0:0:
177,89,179483,2,0,P|105:108|89:218,1,172,0|0,1:0|1:0,0:0:0:0:
17,363,179903,2,0,P|70:349|132:341,1,86,10|0,0:0|1:0,0:0:0:0:
110,334,180114,1,0,0:0:0:0:
119,325,180184,5,0,1:1:0:0:
204,365,180324,1,0,1:0:0:0:
365,237,180464,1,10,0:0:0:0:
362,382,180604,2,0,P|296:353|296:248,1,172,0|0,1:0|1:0,0:0:0:0:
439,176,181025,1,10,0:0:0:0:
317,56,181165,2,0,P|258:47|217:37,1,86,0|0,1:0|2:0,0:0:0:0:
134,220,181445,1,0,1:0:0:0:
134,220,181516,1,0,1:0:0:0:
134,220,181586,2,0,P|209:212|222:97,1,172,14|14,0:0|0:0,0:0:0:0:
46,157,182006,1,0,1:0:0:0:
46,157,182076,1,0,1:0:0:0:
46,157,182146,2,0,P|31:206|18:254,1,86,14|0,0:0|0:0,0:0:0:0:
146,358,182427,5,4,1:1:0:0:
146,358,182567,1,0,1:0:0:0:
294,234,182707,1,10,0:0:0:0:
320,373,182847,2,0,P|253:366|239:246,1,172,0|0,1:0|1:0,0:0:0:0:
348,155,183268,1,10,0:0:0:0:
217,55,183408,2,0,P|156:44|120:36,1,86,0|0,1:0|2:0,0:0:0:0:
0,162,183688,2,0,L|51:153,2,43,0|0|10,1:0|1:0|0:0,0:0:0:0:
184,196,183969,2,0,P|123:209|117:325,1,172,0|0,1:0|1:0,0:0:0:0:
303,291,184389,2,0,P|368:301|425:311,1,86,8|0,0:0|1:0,0:0:0:0:
400,299,184600,1,8,3:2:0:0:
412,294,184670,5,4,1:1:0:0:
490,218,184810,1,0,1:0:0:0:
426,135,184950,2,0,P|354:122|314:114,1,86,10|4,0:0|1:2,0:0:0:0:
160,29,185230,1,0,1:0:0:0:
86,110,185371,1,0,1:0:0:0:
147,205,185511,1,10,0:0:0:0:
220,123,185651,2,0,P|280:134|295:249,1,172,4|0,1:0|1:0,0:0:0:0:
155,365,186072,2,0,P|103:374|72:361,2,57.3333333333333,8|8|8,2:0|0:3|0:3,0:0:0:0:
121,286,186352,2,0,P|75:259|59:229,2,57.3333333333333,8|8|8,2:0|0:3|0:3,0:0:0:0:
147,205,186632,2,0,P|129:155|136:122,2,57.3333333333333,8|8|8,2:0|0:3|0:3,0:0:0:0:
211,155,186913,6,0,B|296:152|266:202|383:200,1,172,2|0,1:2|0:0,0:0:0:0:
379,209,195324,6,0,P|434:196|461:169,2,57.3333333333333,8|8|8,2:3|2:3|2:3,0:0:0:0:
391,127,195604,2,0,P|424:81|428:43,2,57.3333333333333,4|4|4,2:3|2:3|2:3,0:0:0:0:
345,53,195885,2,0,L|344:-9,4,43,0|0|0|0|8,1:0|0:0|3:0|3:0|3:2,0:0:0:0:
313,266,196445,6,0,P|363:291|401:288,2,57.3333333333333,4|0|0,1:0|2:0|2:0,0:0:0:0:
223,319,196726,1,10,0:0:0:0:
135,252,196866,2,0,P|147:170|160:72,1,172,0|0,1:0|1:0,0:0:0:0:
15,15,197287,1,10,0:0:0:0:
0,158,197427,2,0,P|9:216|14:254,1,86,0|0,1:0|1:0,0:0:0:0:
144,365,197707,1,0,1:0:0:0:
287,249,197847,2,0,P|343:234|381:230,1,86,10|0,0:0|1:0,0:0:0:0:
381,237,198058,1,0,0:0:0:0:
392,243,198128,5,0,1:1:0:0:
448,179,198268,1,0,1:0:0:0:
358,5,198408,1,10,0:0:0:0:
512,22,198548,2,0,P|483:83|376:70,1,172,0|0,1:0|1:0,0:0:0:0:
251,170,198969,1,10,0:0:0:0:
111,85,199109,2,0,P|125:4|131:-29,1,86,0|0,1:0|2:0,0:0:0:0:
240,150,199389,1,0,1:0:0:0:
58,175,199530,2,0,P|16:103|0:74,1,86,14|0,0:0|1:0,0:0:0:0:
225,139,199810,1,14,0:0:0:0:
80,269,199951,2,0,P|2:241|-28:229,1,86,0|14,1:0|0:0,0:0:0:0:
208,133,200230,1,0,1:0:0:0:
173,296,200371,5,4,1:1:0:0:
173,296,200511,1,0,1:0:0:0:
342,232,200651,1,10,0:0:0:0:
366,376,200791,2,0,P|308:369|276:251,1,172,0|0,1:0|1:0,0:0:0:0:
397,154,201212,1,10,0:0:0:0:
261,41,201352,2,0,P|191:32|154:27,1,86,0|0,1:0|2:0,0:0:0:0:
44,148,201632,2,0,L|-34:154,2,43,0|0|10,1:0|1:0|0:0,0:0:0:0:
160,285,201913,2,0,P|223:260|196:140,1,172,0|0,1:0|1:0,0:0:0:0:
44,148,202333,2,0,P|34:216|27:256,1,86,10|0,0:0|0:0,0:0:0:0:
39,248,202544,1,8,3:2:0:0:
46,263,202614,5,0,1:1:0:0:
94,346,202754,1,0,1:0:0:0:
258,245,202894,1,10,0:0:0:0:
267,376,203034,2,0,P|210:370|194:252,1,172,0|0,1:0|1:0,0:0:0:0:
315,161,203455,1,10,0:0:0:0:
384,347,203595,2,0,B|366:255|442:281|422:177,1,172,4|0,1:0|1:0,0:0:0:0:
414,172,203945,1,0,1:0:0:0:
405,158,204016,1,14,0:0:0:0:
440,67,204156,1,0,1:0:0:0:
334,15,204296,2,0,L|273:8,3,43,8|8|8|8,0:0|0:0|0:0|0:0,0:0:0:0:
242,36,204576,2,0,L|181:29,3,43,8|0|8|8,0:0|3:0|0:0|0:0,0:0:0:0:
146,61,204857,5,4,1:2:0:0:
89,132,204997,1,0,1:0:0:0:
200,272,205137,1,10,0:0:0:0:
277,145,205277,2,0,P|196:134|155:204,1,172,0|0,1:0|1:0,0:0:0:0:
243,351,205698,1,10,0:0:0:0:
359,249,205838,2,0,P|380:156|398:66,1,172,0|0,1:0|1:0,0:0:0:0:
406,67,206188,1,0,0:0:0:0:
417,53,206259,2,0,L|486:57,3,43,10|0|8|0,0:0|3:0|0:0|3:0,0:0:0:0:
490,112,206539,2,0,L|486:181,3,43,8|0|8|0,0:0|3:0|0:0|3:0,0:0:0:0:
455,208,206819,2,0,L|459:277,3,43,8|8|8|8,0:0|0:0|0:0|0:0,0:0:0:0:
431,306,207100,6,0,P|339:319|313:411,2,172,4|10|2,1:1|3:2|1:3,0:0:0:0:
359,249,207801,2,0,P|293:233|263:198,1,86,0|10,1:0|3:2,0:0:0:0:
266,130,208081,1,0,1:0:0:0:
153,284,208361,1,0,1:0:0:0:
153,284,208431,1,0,1:0:0:0:
153,284,208502,2,0,P|171:349|177:382,2,86,10|0|2,3:2|1:0|0:3,0:0:0:0:
55,240,208922,1,0,1:0:0:0:
55,240,209062,1,10,3:2:0:0:
108,64,209343,6,0,P|161:76|204:81,1,86,2|0,1:2|1:0,0:0:0:0:
302,37,209623,1,10,3:2:0:0:
302,37,209763,1,0,1:0:0:0:
202,179,209903,2,0,P|250:154|286:130,1,86,2|0,1:3|1:0,0:0:0:0:
302,37,210184,1,10,3:2:0:0:
302,37,210324,1,0,1:0:0:0:
342,201,210464,2,0,P|363:150|375:109,1,86,2|0,0:3|1:0,0:0:0:0:
388,115,210674,1,0,1:0:0:0:
404,110,210745,2,0,P|454:130|508:138,1,86,10|0,3:2|1:0,0:0:0:0:
453,271,211025,2,0,L|466:325,3,43,2|0|0|0,0:3|0:0|1:3|1:0,0:0:0:0:
466,336,211305,2,0,P|388:293|336:305,1,129,10|0,3:2|3:0,0:0:0:0:
333,314,211586,6,0,P|275:327|243:332,1,86,0|0,1:1|1:0,0:0:0:0:
181,267,211866,1,10,3:2:0:0:
96,300,212006,2,0,L|79:391,2,86,0|2|0,1:0|1:3|1:0,0:0:0:0:
50,205,212427,2,0,B|48:153|48:153|72:141|72:141|85:67,1,129,10|0,3:2|0:0,0:0:0:0:
62,68,212707,5,2,0:3:0:0:
62,68,212847,1,0,1:0:0:0:
176,90,212987,2,0,P|220:68|247:24,1,86,10|0,3:2|1:0,0:0:0:0:
62,68,213268,1,2,0:3:0:0:
62,68,213408,1,0,1:0:0:0:
134,168,213548,2,0,P|203:175|239:153,1,86,10|0,3:2|0:0,0:0:0:0:
324,86,213829,5,2,1:2:0:0:
324,86,213969,1,0,1:0:0:0:
381,162,214109,2,0,P|362:211|353:247,1,86,10|0,3:2|1:0,0:0:0:0:
462,315,214389,2,0,B|410:313|410:313|398:337|398:337|324:350,1,129,2|0,1:3|0:0,0:0:0:0:
338,357,214670,2,0,P|266:339|232:337,1,86,10|0,3:2|1:0,0:0:0:0:
176,376,214950,1,0,0:0:0:0:
110,317,215090,1,0,1:0:0:0:
110,317,215160,1,0,1:0:0:0:
110,317,215230,2,0,P|123:233|137:137,1,172,10|2,3:2|0:3,0:0:0:0:
53,84,215651,1,0,1:3:0:0:
53,84,215721,1,0,1:0:0:0:
53,84,215791,2,0,P|105:61|136:42,1,86,10|0,3:2|0:0,0:0:0:0:
220,189,216072,6,0,P|287:180|329:170,1,86,2|0,1:2|1:0,0:0:0:0:
422,64,216352,2,0,P|489:73|531:83,1,86,10|0,3:2|1:0,0:0:0:0:
325,83,216632,1,2,1:3:0:0:
325,83,216773,1,0,1:0:0:0:
394,151,216913,1,10,3:2:0:0:
304,176,217053,2,0,P|238:170|125:143,1,172,0|0,1:0|1:0,0:0:0:0:
128,152,217403,1,0,1:0:0:0:
121,157,217473,1,10,3:2:0:0:
68,232,217614,2,0,P|84:283|94:316,1,86,0|2,1:0|0:3,0:0:0:0:
192,370,217894,1,0,1:0:0:0:
257,308,218034,1,10,3:2:0:0:
332,364,218174,1,0,1:0:0:0:
382,289,218315,6,0,P|392:228|402:184,1,86,2|0,1:2|1:0,0:0:0:0:
451,124,218595,1,10,3:2:0:0:
313,186,218735,2,0,P|248:196|207:97,1,172,0|0,1:0|1:0,0:0:0:0:
257,36,219156,1,10,3:2:0:0:
109,97,219296,6,0,P|54:149|84:239,1,172,0|0,1:0|1:0,0:0:0:0:
85,235,219646,1,0,1:0:0:0:
93,236,219716,2,0,P|135:270|139:313,1,86,10|0,3:2|1:0,0:0:0:0:
280,378,219997,2,0,P|341:354|358:325,2,57.3333333333333,8|8|8,3:3|3:3|3:3,0:0:0:0:
218,321,220277,2,0,P|200:364|196:410,2,57.3333333333333,4|4|4,3:3|3:3|3:3,0:0:0:0:
290,281,220558,6,0,P|345:286|393:291,2,86,4|0|14,1:1|1:0|3:2,0:0:0:0:
123,380,220979,2,0,P|69:374|20:369,2,86,0|2|0,1:0|1:3|1:0,0:0:0:0:
280,378,221400,1,14,3:2:0:0:
280,378,221540,2,0,P|219:355|194:251,1,172,0|0,1:0|1:0,0:0:0:0:
197,256,221890,1,0,1:0:0:0:
202,250,221960,2,0,P|219:196|206:149,1,86,10|0,3:2|1:0,0:0:0:0:
368,85,222241,2,0,P|312:119|263:110,1,86,2|0,0:3|1:0,0:0:0:0:
125,58,222521,2,0,P|194:71|232:78,1,86,14|0,3:2|1:0,0:0:0:0:
291,270,222801,6,0,P|346:265|394:260,2,86,2|0|10,1:2|1:0|3:2,0:0:0:0:
118,208,223222,2,0,P|64:214|15:219,2,86,0|2|0,1:0|1:3|1:0,0:0:0:0:
214,333,223643,1,10,3:2:0:0:
214,333,223782,6,0,B|208:283|186:251|186:251|220:225|240:186,1,172,4|0,1:0|0:0,0:0:0:0:
452,219,224202,2,0,B|457:268|479:300|479:300|445:326|425:365,1,172,8|0,3:2|1:0,0:0:0:0:
291,270,224623,1,0,1:0:0:0:
291,270,224763,2,0,P|350:277|388:286,1,86,8|0,3:2|0:0,0:0:0:0:
361,28,225044,5,4,1:2:0:0:
256,192,225114,12,0,231773,0:0:0:0:
