osu file format v14

[General]
AudioFilename: audio.mp3
AudioLeadIn: 0
PreviewTime: 36562
Countdown: 0
SampleSet: Soft
StackLeniency: 0.4
Mode: 0
LetterboxInBreaks: 0
WidescreenStoryboard: 1

[Editor]
Bookmarks: 16445,130838,130978,131118,131188,131329,131469,131609,131749,131819,131889,131959,132100,132170,132240,132310,132380,132520,132590,132660,132730,132801,132871,132941,133011,133151,133221,133291,133361,133502,133572,133712,133782,133852,133922,133992,134062,134132,134202,134273,134343,134413,134483,134553,134623,134693,134763,134833,134903,134973,135044,135114,135184,135324,135394,135464,135534,135604,135674,135745,135815,135885,135955,136025,136095,136165,136235,136305,136375,136445,136516,136586,136656,136726,136796,136866,136936,137076,137146,137216,137287,137357,137427,137637,137707,137777,137847,138058,138128,138198,138268,138338,138478,138618,138688,138759,138829,138899,139039,139109,139179,139389,139459,139600,139670,139740,139880,139950,140160,140301,140371,140441,140511,140581,140651,140721,140861,140931,141002,141212,141352,141422,141492,141562,141632,141773,141843,141913,141983,142123,142193,142263,142333,142473,142544,142614,142684,142754,142824,142894,142964,143104,143174,143245,143315,143525,143665,143735,143875,144086,144226,144366,144506,144646,144787,144927,144997,145207,145277,145347,145417,145628,145768,145908,145978,146048,146118,146188,146329,146469,146539,146609,146679,146819,146959,147030,147240,147310,147380,147520,147660,147801,147941,148011,148081,148151,148221,186913,186983,187123,187193,187263,187403,187473,187544,187614,187684,187754,187824,187894,187964,188034,188104,188174,188245,188315,188385,188455,188525,188595,188665,188805,188875,188945,189016,189086,189156,189226,189296,189366,189436,189506,189646,189716,189787,189857,189927,189997,190067,190137,190207,190277,190417,190487,190558,190698,190768,190838,191048,191118,191188,191329,191399,191469,191609,191679,191749,191819,191889,191959,192030,192100,192170,192240,192310,192380,192450,192590,192660,192730,192871,192941,193011,193081,193151,193221,193291,193361,193502,193572,193642,193782,193852,193922,193992,194062,194132,194202,194273,194343,194413,194553,194623,194763,194833,194903,195044,195114,195184,195324,207100,207170,207240,207310,207380,207520,207590,207660,207730,207801,207871,207941,208011,208081,208151,208221,208361,208431,208572,208642,208782,208852,208922,208992,209062,209132,209202,209273,209343,209483,209553,209623,209693,209763,209903,209973,210044,210114,210184,210254,210394,210464,210534,210604,210674,210745,210815,210885,210955,211025,211095,211165,211235,211305,211375,211445,211516,211586,211656,211796,211866,211936,212006,212076,212146,212216,212287,212357,212427,212497,212567,212637,212707,212777,212847,212917,212987,213058,213128,213198,213338,213408,213478,213548,213618,213688,213759,213829,213899,213969,214039,214109,214179,214249,214319,214389,214530,214600,214670,214740,214810,214880,214950,215020,215160,215230,215301,215371,215511,215651,215721,215791,215861,215931,216002,216072,225044
DistanceSpacing: 1.3
BeatDivisor: 4
GridSize: 32
TimelineZoom: 2

[Metadata]
Title:Sentou Amu
TitleUnicode:戦闘アム
Artist:Shade
ArtistUnicode:Shade
Creator:Shurelia
Version:SupaV's Hard
Source:ランス・クエスト マグナム
Tags:Rance Quest Magnum 8 VIII battle am isuel イスエル rock instrumental video game eroge visual novel rpg jrpg alicesoft pepega cup 3 ppg3 QF HD1 scubdomino ponbot supav kalibe frozz nakazawa amateurre
BeatmapID:4503587
BeatmapSetID:2111360

[Difficulty]
HPDrainRate:4
CircleSize:3.6
OverallDifficulty:6
ApproachRate:8
SliderMultiplier:1.38
SliderTickRate:1

[Events]
//Background and Video events
0,0,"ambgpic.jpg",0,0
//Break Periods
2,131118,147471
2,187193,194574
2,207300,215322
//Storyboard Layer 0 (Background)
//Storyboard Layer 1 (Fail)
//Storyboard Layer 2 (Pass)
//Storyboard Layer 3 (Foreground)
//Storyboard Layer 4 (Overlay)
//Storyboard Sound Samples

[TimingPoints]
745,280.373831775701,4,2,1,50,1,0
745,-111.111111111111,4,2,1,50,0,0
16445,-111.111111111111,4,2,1,70,0,0
36632,-100,4,2,1,80,0,0
56819,-111.111111111111,4,2,1,80,0,0
56889,-111.111111111111,4,2,1,70,0,0
74763,-125,4,2,1,70,0,0
83735,-111.111111111111,4,2,1,70,0,0
94950,-100,4,2,1,80,0,0
112894,-111.111111111111,4,2,1,75,0,0
121866,-100,4,2,1,80,0,0
130838,-100,4,2,1,70,0,0
148782,-125,4,2,1,70,0,0
162240,-111.111111111111,4,2,1,70,0,0
168969,-100,4,2,1,85,0,0
195324,-100,4,2,1,70,0,0
196726,-100,4,2,1,85,0,0
207100,-100,4,2,1,75,0,0
216072,-100,4,2,1,80,0,0
224763,-100,4,2,1,70,0,0
226165,-100,4,2,1,60,0,0
227287,-100,4,2,1,50,0,0
228409,-100,4,2,1,40,0,0
228969,-100,4,2,1,30,0,0
229530,-100,4,2,1,20,0,0
230371,-100,4,2,1,10,0,0
231773,-100,4,2,1,5,0,0

[Colours]
Combo1 : 255,60,60
Combo2 : 128,128,128
Combo3 : 198,0,0
Combo4 : 192,192,192

[HitObjects]
255,195,16445,5,12,1:2:0:0:
353,44,16726,1,8,1:2:0:0:
353,44,17567,6,0,B|345:23|345:23|350:-5,2,41.3999987365723,0|0|0,1:0|0:0|0:0,0:0:0:0:
424,88,17847,6,0,B|489:135|489:135|414:139|373:162|373:162|418:179|429:207|429:207|403:218|390:244,1,310.499990524292,8|0,1:2|0:0,0:0:0:0:
340,292,18688,6,0,P|281:284|214:275,2,124.199996209717,0|10|2,1:1|3:2|1:3,0:0:0:0:
395,359,19389,1,0,1:0:0:0:
511,229,19670,2,0,P|503:164|496:104,1,124.199996209717,0|0,1:0|1:0,0:0:0:0:
475,21,20090,1,10,3:2:0:0:
388,9,20230,2,0,P|328:-6|266:33,1,124.199996209717,0|0,1:0|1:0,0:0:0:0:
230,97,20651,1,10,3:2:0:0:
230,97,20791,1,0,1:0:0:0:
288,162,20931,5,2,1:2:0:0:
190,306,21212,2,0,P|128:311|66:318,1,124.199996209717,10|2,3:2|1:3,0:0:0:0:
1,261,21632,1,0,1:0:0:0:
1,86,21913,2,0,P|50:60|126:79,1,124.199996209717,0|0,1:0|1:0,0:0:0:0:
182,134,22333,1,10,3:2:0:0:
182,134,22473,1,0,1:0:0:0:
357,94,22754,1,0,1:3:0:0:
357,94,22824,1,0,1:0:0:0:
357,94,22894,2,0,P|389:98|437:104,1,62.0999981048585,10|0,3:2|1:0,0:0:0:0:
477,166,23174,6,0,P|482:221|492:307,2,124.199996209717,0|10|2,1:1|3:2|1:3,0:0:0:0:
511,85,23875,1,0,1:0:0:0:
357,1,24156,2,0,P|299:7|220:15,1,124.199996209717,0|0,1:0|1:0,0:0:0:0:
147,1,24576,1,10,3:2:0:0:
72,45,24716,2,0,P|46:100|70:167,1,124.199996209717,0|0,1:0|1:0,0:0:0:0:
133,218,25137,1,10,3:2:0:0:
133,218,25277,1,0,1:0:0:0:
193,156,25417,5,2,1:2:0:0:
319,275,25698,2,0,P|383:279|458:286,1,124.199996209717,10|2,3:2|1:3,0:0:0:0:
507,226,26118,1,0,1:0:0:0:
457,58,26399,2,0,P|402:30|328:52,1,124.199996209717,4|0,1:2|1:0,0:0:0:0:
269,88,26819,2,0,P|273:122|279:167,1,62.0999981048585,10|0,3:2|1:0,0:0:0:0:
244,231,27100,1,8,2:0:0:0:
325,283,27240,1,0,1:0:0:0:
325,283,27310,1,0,3:0:0:0:
325,283,27380,2,0,P|321:313|317:344,1,62.0999981048585,8|8,2:0|2:0,0:0:0:0:
240,383,27660,6,0,P|187:360|112:378,1,124.199996209717,0|10,1:1|3:2,0:0:0:0:
45,343,28081,1,0,1:0:0:0:
45,343,28221,1,2,1:3:0:0:
155,207,28502,1,10,3:2:0:0:
96,143,28642,2,0,P|90:84|80:18,1,124.199996209717,0|0,1:0|1:0,0:0:0:0:
165,1,29062,2,0,P|198:4|246:8,1,62.0999981048585,10|0,3:2|1:0,0:0:0:0:
314,1,29343,1,2,0:3:0:0:
445,114,29623,1,10,3:2:0:0:
325,232,29903,6,0,P|319:293|313:355,1,124.199996209717,2|10,1:2|3:2,0:0:0:0:
401,382,30324,1,0,1:0:0:0:
401,382,30464,2,0,P|406:320|413:258,1,124.199996209717,2|10,1:3|3:2,0:0:0:0:
478,200,30885,1,0,1:0:0:0:
436,41,31165,1,0,1:0:0:0:
436,41,31235,1,0,1:0:0:0:
436,41,31305,2,0,P|402:44|354:48,1,62.0999981048585,10|0,3:2|1:0,0:0:0:0:
287,38,31586,6,0,B|279:17|279:17|285:-10,2,41.3999987365723,8|8|8,3:3|3:3|3:3,0:0:0:0:
256,115,31866,6,0,B|264:136|264:136|258:163,2,41.3999987365723,4|4|4,3:3|3:3|3:3,0:0:0:0:
188,76,32146,6,0,P|157:73|57:62,1,124.199996209717,4|10,1:1|3:2,0:0:0:0:
4,126,32567,1,0,1:0:0:0:
4,126,32707,1,2,1:3:0:0:
58,291,32987,1,10,3:2:0:0:
122,231,33128,2,0,P|152:228|252:217,1,124.199996209717,0|0,1:0|1:0,0:0:0:0:
319,172,33548,2,0,P|354:175|407:180,1,62.0999981048585,10|0,3:2|1:0,0:0:0:0:
469,160,33829,1,2,0:3:0:0:
469,160,33969,1,0,1:0:0:0:
511,235,34109,1,10,3:2:0:0:
421,383,34389,5,4,1:2:0:0:
248,361,34670,2,0,B|181:352|181:352|144:383|144:383|63:372,1,186.299994314575,10|0,3:2|0:0,0:0:0:0:
14,310,35230,1,10,3:2:0:0:
54,232,35371,2,0,P|121:239|188:247,1,124.199996209717,4|0,1:0|0:0,0:0:0:0:
252,201,35791,2,0,P|275:142|249:85,1,124.199996209717,10|0,3:2|1:0,0:0:0:0:
195,23,36212,1,0,1:0:0:0:
195,23,36352,1,14,3:2:0:0:
24,78,36632,6,0,P|29:110|34:149,1,69,6|0,1:2|1:0,0:0:0:0:
102,212,36913,1,10,0:0:0:0:
102,212,37053,2,0,P|98:251|87:363,1,138,0|0,1:0|1:0,0:0:0:0:
171,382,37473,1,10,0:0:0:0:
248,336,37614,2,0,P|296:314|390:345,1,138,0|0,1:0|1:0,0:0:0:0:
452,380,38034,1,10,0:0:0:0:
452,380,38174,1,0,1:0:0:0:
511,210,38455,1,0,1:0:0:0:
511,210,38595,2,0,P|505:171|499:128,1,69,10|0,0:0|1:0,0:0:0:0:
425,93,38875,6,0,P|431:54|437:11,1,69,0|0,1:1|1:0,0:0:0:0:
352,4,39156,1,10,0:0:0:0:
352,4,39296,2,0,P|318:60|336:136,1,138,0|0,1:0|1:0,0:0:0:0:
388,196,39716,1,10,0:0:0:0:
335,269,39857,2,0,P|262:276|180:285,1,138,0|0,1:0|1:0,0:0:0:0:
161,309,40207,1,0,1:0:0:0:
145,308,40277,1,14,0:0:0:0:
0,201,40558,1,14,0:0:0:0:
90,46,40838,1,14,0:0:0:0:
269,57,41118,6,0,P|273:91|280:140,1,69,4|0,1:1|1:0,0:0:0:0:
335,201,41399,1,10,0:0:0:0:
335,201,41539,2,0,P|331:235|321:344,1,138,0|0,1:0|1:0,0:0:0:0:
398,383,41959,1,10,0:0:0:0:
480,345,42100,2,0,P|510:275|478:203,1,138,0|0,1:0|1:0,0:0:0:0:
422,171,42520,1,10,0:0:0:0:
422,171,42660,1,0,1:0:0:0:
292,295,42941,1,0,1:0:0:0:
292,295,43081,2,0,P|250:300|201:307,1,69,10|0,0:0|1:0,0:0:0:0:
152,355,43361,5,0,1:1:0:0:
152,355,43502,1,0,1:0:0:0:
89,290,43642,2,0,P|94:255|98:221,1,69,10|0,0:0|1:0,0:0:0:0:
146,146,43922,2,0,P|141:111|137:77,1,69,0|0,1:0|1:0,0:0:0:0:
78,9,44202,1,10,0:0:0:0:
0,55,44343,2,0,P|5:90|18:195,1,138,4|0,1:0|1:0,0:0:0:0:
0,279,44763,1,14,0:0:0:0:
60,344,44903,1,0,0:0:0:0:
133,292,45044,6,0,B|140:267|140:267|133:239,2,46,8|8|8,3:3|3:3|3:3,0:0:0:0:
193,340,45324,6,0,B|186:365|186:365|193:393,2,46,4|4|4,3:3|3:3|3:3,0:0:0:0:
262,306,45604,6,0,P|300:303|344:299,1,69,4|0,1:2|1:0,0:0:0:0:
419,335,45885,1,10,0:0:0:0:
419,335,46025,2,0,P|443:244|410:198,1,138,0|0,1:0|1:0,0:0:0:0:
357,150,46445,1,10,0:0:0:0:
282,201,46586,2,0,P|215:196|126:188,1,138,0|0,1:0|1:0,0:0:0:0:
71,137,47006,1,10,0:0:0:0:
71,137,47146,1,0,1:0:0:0:
195,7,47427,1,0,1:0:0:0:
195,7,47497,1,0,1:0:0:0:
195,7,47567,2,0,P|231:4|281:0,1,69,10|0,0:0|1:0,0:0:0:0:
342,43,47847,6,0,P|378:46|428:50,1,69,0|0,1:1|1:0,0:0:0:0:
491,5,48128,1,10,0:0:0:0:
491,5,48268,2,0,P|524:67|506:140,1,138,0|0,1:0|1:0,0:0:0:0:
449,195,48688,1,10,0:0:0:0:
369,152,48829,2,0,P|301:160|213:170,1,138,0|0,1:0|1:0,0:0:0:0:
193,145,49179,1,0,1:0:0:0:
178,144,49249,1,14,0:0:0:0:
62,282,49530,1,14,0:0:0:0:
209,383,49810,1,14,0:0:0:0:
375,317,50090,6,0,P|414:321|457:325,1,69,4|0,1:1|1:0,0:0:0:0:
509,262,50371,1,10,0:0:0:0:
509,262,50511,2,0,P|523:200|484:124,1,138,0|0,1:0|1:0,0:0:0:0:
418,85,50931,1,10,0:0:0:0:
350,144,51072,2,0,P|360:202|373:291,1,138,0|0,1:0|1:0,0:0:0:0:
340,366,51492,1,10,0:0:0:0:
340,366,51632,1,0,1:0:0:0:
162,337,51913,2,0,P|132:288|142:207,1,138,0|0,1:0|1:0,0:0:0:0:
198,142,52333,6,0,P|194:104|189:62,1,69,4|0,1:1|1:0,0:0:0:0:
257,13,52614,1,10,0:0:0:0:
257,13,52754,2,0,P|322:-2|387:32,1,138,4|0,1:2|1:0,0:0:0:0:
442,95,53174,1,10,0:0:0:0:
407,178,53315,2,0,P|338:187|270:199,1,138,4|0,1:0|1:0,0:0:0:0:
208,263,53735,1,8,2:0:0:0:
208,263,53875,1,8,2:0:0:0:
131,215,54016,2,0,P|134:183|139:139,1,69,8|8,2:0|2:0,0:0:0:0:
53,116,54296,2,0,P|50:148|45:192,1,69,8|8,2:0|2:0,0:0:0:0:
1,250,54576,5,2,1:2:0:0:
94,378,54857,1,2,1:2:0:0:
94,378,55698,5,2,1:2:0:0:
217,278,55978,1,2,1:2:0:0:
363,340,56259,6,0,B|373:366|373:366|369:397,2,46,8|8|8,3:3|3:3|3:3,0:0:0:0:
429,297,56539,6,0,B|451:289|451:289|490:296,2,46,4|4|4,3:3|3:3|3:3,0:0:0:0:
390,226,56819,6,0,P|383:168|373:83,1,124.199996209717,4|10,1:1|3:2,0:0:0:0:
340,22,57240,2,0,B|263:-25|136:29|134:140|134:140|168:160|187:214,1,372.599988629151,0|0,0:0|1:0,0:0:0:0:
192,300,58221,1,10,3:2:0:0:
192,300,58361,2,0,P|133:307|53:317,1,124.199996209717,0|0,1:0|1:0,0:0:0:0:
0,259,58782,1,10,3:2:0:0:
107,122,59062,6,0,P|100:67|90:-17,2,124.199996209717,2|10|2,1:2|3:2|1:3,0:0:0:0:
260,214,59903,1,10,3:2:0:0:
260,214,60044,2,0,P|314:191|392:215,1,124.199996209717,0|0,1:0|1:0,0:0:0:0:
441,261,60464,2,0,P|434:316|424:400,2,124.199996209717,10|2|14,3:2|0:3|3:2,0:0:0:0:
511,101,61305,5,4,1:1:0:0:
365,5,61586,2,0,P|311:30|239:20,1,124.199996209717,10|2,3:2|1:3,0:0:0:0:
164,1,62006,1,0,1:0:0:0:
3,68,62287,2,0,P|10:122|20:206,1,124.199996209717,0|0,1:0|1:0,0:0:0:0:
3,276,62707,2,0,P|50:303|130:284,1,124.199996209717,10|2,3:2|0:3,0:0:0:0:
194,252,63128,1,0,1:0:0:0:
360,329,63408,5,0,0:0:0:0:
360,329,63478,1,0,3:2:0:0:
360,329,63548,2,0,P|423:317|495:362,2,124.199996209717,2|10|2,1:2|3:2|1:3,0:0:0:0:
288,378,64249,1,0,1:0:0:0:
119,332,64530,2,0,P|113:280|99:195,1,124.199996209717,4|8,1:2|3:2,0:0:0:0:
46,142,64950,2,0,P|49:108|53:58,1,62.0999981048585,8|8,3:2|3:2,0:0:0:0:
105,12,65230,1,8,3:2:0:0:
183,50,65371,2,0,P|246:44|322:37,1,124.199996209717,4|0,1:2|3:0,0:0:0:0:
385,2,65791,5,8,0:2:0:0:
510,122,66072,1,2,0:0:0:0:
443,284,66352,1,8,0:2:0:0:
443,284,66492,2,0,L|437:351,1,62.0999981048585,0|2,1:0|0:0,0:0:0:0:
358,382,66773,2,0,P|301:358|236:372,1,124.199996209717,4|8,1:2|0:2,0:0:0:0:
155,382,67193,1,2,1:2:0:0:
4,306,67473,1,8,0:2:0:0:
4,306,67614,2,0,P|10:245|17:165,1,124.199996209717,0|0,1:0|0:0,0:0:0:0:
1,96,68034,5,8,0:2:0:0:
148,3,68315,1,2,0:0:0:0:
262,140,68595,1,8,0:2:0:0:
262,140,68735,2,0,L|272:212,1,62.0999981048585,0|2,1:0|0:0,0:0:0:0:
331,264,69016,2,0,P|378:286|452:261,1,124.199996209717,4|8,1:2|0:2,0:0:0:0:
510,210,69436,1,2,1:2:0:0:
456,44,69716,1,8,0:2:0:0:
375,77,69857,2,0,P|313:70|248:63,1,124.199996209717,0|8,1:0|3:2,0:0:0:0:
187,4,70277,6,0,P|125:11|60:18,1,124.199996209717,4|10,1:2|3:2,0:0:0:0:
0,77,70698,1,0,1:0:0:0:
113,208,70978,1,0,1:0:0:0:
278,152,71259,2,0,P|339:158|401:165,1,124.199996209717,4|8,1:1|3:2,0:0:0:0:
484,139,71679,2,0,L|496:215,1,62.0999981048585,8|8,3:2|3:2,0:0:0:0:
509,285,71959,1,8,3:2:0:0:
509,285,72100,2,0,P|441:314|379:293,1,124.199996209717,0|0,1:0|0:0,0:0:0:0:
318,261,72520,6,0,P|311:321|303:395,2,124.199996209717,4|0|8,1:2|1:0|3:2,0:0:0:0:
184,157,73361,1,0,1:0:0:0:
184,157,73502,2,0,P|177:95|170:33,1,124.199996209717,8|0,3:2|1:0,0:0:0:0:
89,0,73922,1,0,1:0:0:0:
7,155,74202,1,14,0:0:0:0:
7,155,74343,2,0,P|-11:214|29:292,1,124.199996209717
68,335,74763,6,0,B|75:358|75:358|70:390,2,36.8,4|0|0,1:0|1:0|1:0,0:0:0:0:
133,289,75044,6,0,B|126:270|126:270|130:239,2,36.8,0|0|0,1:0|1:0|1:0,0:0:0:0:
198,334,75324,5,8,3:2:0:0:
206,327,75885,6,0,B|334:304|287:366|435:344,1,220.8,4|8,1:2|3:2,0:0:0:0:
423,346,77006,6,0,B|430:369|430:369|425:401,2,36.8,4|0|0,1:0|1:0|1:0,0:0:0:0:
477,288,77287,6,0,B|496:281|496:281|527:285,2,36.8,0|0|0,1:0|1:0|1:0,0:0:0:0:
415,238,77567,5,8,3:2:0:0:
406,229,78128,6,0,B|278:206|325:268|177:246,1,220.8,4|8,1:2|3:2,0:0:0:0:
189,247,79249,6,0,B|182:224|182:224|187:192,2,36.8,4|0|0,1:0|1:0|1:0,0:0:0:0:
141,312,79530,6,0,B|134:331|134:331|138:362,2,36.8,0|0|0,1:0|1:0|1:0,0:0:0:0:
72,270,79810,5,8,3:2:0:0:
57,263,80371,6,0,P|14:203|35:110,1,165.6,4|0,1:2|0:0,0:0:0:0:
87,50,80931,1,8,3:2:0:0:
230,153,81212,1,0,0:0:0:0:
361,35,81492,6,0,B|368:12|368:12|363:-20,2,36.8,4|0|0,1:0|1:0|1:0,0:0:0:0:
419,90,81773,6,0,B|442:97|442:97|474:92,2,36.8,0|0|0,1:0|1:0|1:0,0:0:0:0:
371,152,82053,5,8,3:2:0:0:
232,42,82333,1,0,0:0:0:0:
80,133,82614,2,0,B|103:261|41:214|63:362,1,220.8,4|8,1:2|3:2,0:0:0:0:
98,373,83245,1,8,3:2:0:0:
110,384,83315,2,0,P|140:379|183:374,1,55.2,8|8,3:2|3:2,0:0:0:0:
238,326,83595,1,8,3:2:0:0:
182,259,83735,1,0,1:1:0:0:
288,120,84016,6,0,B|394:98|358:140|475:118,1,186.299994314575,10|0,3:2|1:0,0:0:0:0:
512,201,84576,1,10,3:2:0:0:
512,201,84716,2,0,P|438:238|387:220,1,124.199996209717,0|0,1:0|1:0,0:0:0:0:
317,204,85137,1,10,3:2:0:0:
234,358,85417,1,2,0:3:0:0:
234,358,85558,2,0,P|169:364|99:370,1,124.199996209717,0|0,1:0|1:0,0:0:0:0:
24,382,85978,6,0,P|-3:333|17:253,1,124.199996209717,2|10,1:2|3:2,0:0:0:0:
1,180,86399,2,0,B|101:163|75:206|192:183,1,186.299994314575,0|10,1:0|3:2,0:0:0:0:
268,158,86959,2,0,P|292:95|265:35,1,124.199996209717,0|0,1:0|1:0,0:0:0:0:
201,4,87380,1,10,3:2:0:0:
201,4,87520,1,0,1:0:0:0:
42,63,87801,1,0,1:3:0:0:
42,63,87941,2,0,P|39:91|33:147,1,62.0999981048585,10|0,3:2|1:0,0:0:0:0:
93,189,88221,6,0,P|148:159|228:186,2,124.199996209717,0|0|8,3:1|3:1|3:2,0:0:0:0:
34,253,88922,1,0,3:2:0:0:
34,253,89062,1,8,3:2:0:0:
90,318,89202,2,0,P|151:325|235:332,1,124.199996209717,0|8,3:1|3:2,0:0:0:0:
283,382,89623,2,0,P|317:378|363:373,1,62.0999981048585,8|8,3:2|3:2,0:0:0:0:
413,321,89903,1,8,3:2:0:0:
413,321,90044,1,8,3:2:0:0:
366,247,90184,2,0,P|370:214|376:165,1,62.0999981048585,8|8,3:2|3:2,0:0:0:0:
430,119,90464,6,0,B|453:118|453:118|478:127,2,41.3999987365723,8|8|8,3:2|3:2|3:3,0:0:0:0:
374,65,90745,1,4,3:3:0:0:
228,159,91025,6,0,B|205:160|205:160|180:151,2,41.3999987365723,8|8|8,3:2|3:2|3:3,0:0:0:0:
284,213,91306,1,4,3:3:0:0:
430,119,91586,6,0,B|453:118|453:118|478:127,2,41.3999987365723,8|8|8,3:2|3:2|3:3,0:0:0:0:
374,65,91867,1,4,3:3:0:0:
228,159,92146,6,0,B|205:160|205:160|180:151,2,41.3999987365723,8|8|8,3:2|3:2|3:2,0:0:0:0:
284,213,92427,6,0,B|301:206|301:206|324:207,2,41.3999987365723,8|8|8,3:2|3:2|3:2,0:0:0:0:
237,277,92707,6,0,P|176:283|109:290,1,124.199996209717,12|8,3:2|3:2,0:0:0:0:
50,236,93128,1,8,3:2:0:0:
50,236,93268,2,0,P|52:207|56:169,1,62.0999981048585,8|8,3:2|3:2,0:0:0:0:
6,102,93548,1,8,3:2:0:0:
63,36,93688,2,0,P|116:7|192:35,1,124.199996209717,4|0,1:1|0:0,0:0:0:0:
239,80,94109,1,0,0:0:0:0:
407,39,94389,6,0,B|415:16|415:16|409:-5,2,41.3999987365723,0|0|0,1:1|0:0|0:0,0:0:0:0:
459,97,94670,2,0,L|468:173,1,62.0999981048585
511,235,94950,6,0,P|506:267|501:306,1,69,4|0,1:2|1:0,0:0:0:0:
459,384,95231,1,10,0:0:0:0:
459,384,95371,2,0,P|402:355|318:377,1,138,0|0,1:0|1:0,0:0:0:0:
243,383,95791,1,10,0:0:0:0:
177,320,95932,2,0,P|167:248|154:166,1,138,0|0,1:0|1:0,0:0:0:0:
99,122,96352,1,10,0:0:0:0:
99,122,96492,1,0,1:0:0:0:
4,276,96773,1,0,1:0:0:0:
4,276,96913,2,0,P|10:315|16:358,1,69,10|0,0:0|1:0,0:0:0:0:
95,381,97193,6,0,P|101:342|107:299,1,69,0|0,1:1|1:0,0:0:0:0:
167,248,97474,1,10,0:0:0:0:
167,248,97614,2,0,P|222:220|301:240,1,138,0|0,1:0|1:0,0:0:0:0:
366,287,98034,1,10,0:0:0:0:
433,226,98175,2,0,P|426:153|417:71,1,138,0|0,1:0|1:0,0:0:0:0:
393,51,98525,1,0,1:0:0:0:
394,35,98595,1,14,0:0:0:0:
217,1,98876,1,14,0:0:0:0:
115,148,99156,1,14,0:0:0:0:
262,249,99436,6,0,P|266:279|273:332,1,69,4|0,1:1|1:0,0:0:0:0:
211,384,99717,1,10,0:0:0:0:
211,384,99857,2,0,P|138:353|75:376,1,138,0|0,1:0|1:0,0:0:0:0:
6,324,100277,1,10,0:0:0:0:
42,241,100418,2,0,P|109:233|197:221,1,138,0|0,1:0|1:0,0:0:0:0:
248,166,100838,1,10,0:0:0:0:
248,166,100978,1,0,1:0:0:0:
401,270,101259,1,0,1:0:0:0:
401,270,101399,2,0,P|443:275|492:282,1,69,10|0,0:0|1:0,0:0:0:0:
512,201,101679,5,0,1:1:0:0:
512,201,101820,1,0,1:0:0:0:
466,123,101960,2,0,P|461:88|457:54,1,69,10|0,0:0|1:0,0:0:0:0:
382,4,102240,2,0,P|377:38|373:72,1,69,0|0,1:0|1:0,0:0:0:0:
300,124,102520,1,10,0:0:0:0:
220,80,102661,2,0,P|160:49|84:77,1,138,4|0,1:0|1:0,0:0:0:0:
36,134,103081,1,14,0:0:0:0:
86,208,103221,2,0,P|152:214|229:222,1,138,8|8,3:3|3:3,0:0:0:0:
289,282,103642,2,0,L|344:274,2,34.5,4|8|8,3:3|3:3|3:3,0:0:0:0:
249,362,103922,6,0,P|214:365|180:367,1,69,4|0,1:2|1:0,0:0:0:0:
94,383,104203,1,10,0:0:0:0:
94,383,104343,2,0,P|61:308|80:247,1,138,0|0,1:0|1:0,0:0:0:0:
122,180,104763,1,10,0:0:0:0:
204,215,104904,2,0,P|268:207|355:195,1,138,0|0,1:0|1:0,0:0:0:0:
426,237,105324,1,10,0:0:0:0:
426,237,105464,1,0,1:0:0:0:
512,84,105745,1,0,1:0:0:0:
512,84,105815,1,0,1:0:0:0:
512,84,105885,2,0,P|508:49|501:0,1,69,10|0,0:0|1:0,0:0:0:0:
415,0,106165,6,0,P|410:34|406:68,1,69,0|0,1:1|1:0,0:0:0:0:
360,147,106446,1,10,0:0:0:0:
360,147,106586,2,0,P|364:181|381:302,1,138,0|0,1:0|1:0,0:0:0:0:
340,364,107006,1,10,0:0:0:0:
255,331,107147,2,0,P|187:319|115:358,1,138,0|0,1:0|1:0,0:0:0:0:
97,381,107497,1,0,1:0:0:0:
82,380,107567,1,14,0:0:0:0:
0,219,107848,1,14,0:0:0:0:
153,126,108128,1,14,0:0:0:0:
312,207,108408,6,0,P|316:246|320:289,1,69,4|0,1:1|1:0,0:0:0:0:
351,364,108689,1,10,0:0:0:0:
351,364,108829,2,0,P|413:378|489:339,1,138,0|0,1:0|1:0,0:0:0:0:
511,265,109249,1,10,0:0:0:0:
449,199,109390,2,0,P|454:130|461:56,1,138,0|0,1:0|1:0,0:0:0:0:
399,3,109810,1,10,0:0:0:0:
399,3,109950,1,0,1:0:0:0:
229,62,110230,2,0,P|234:130|240:199,1,138,0|0,1:0|1:0,0:0:0:0:
295,271,110651,6,0,P|291:309|286:351,1,69,4|0,1:1|1:0,0:0:0:0:
211,384,110932,1,10,0:0:0:0:
211,384,111072,2,0,P|150:353|84:368,1,138,4|0,1:2|1:0,0:0:0:0:
12,315,111492,1,10,0:0:0:0:
54,235,111633,2,0,P|45:166|36:98,1,138,4|0,1:0|1:0,0:0:0:0:
87,26,112053,1,8,2:0:0:0:
87,26,112193,1,8,2:0:0:0:
165,70,112334,2,0,P|197:73|241:78,1,69,8|8,2:0|2:0,0:0:0:0:
308,27,112614,2,0,P|340:24|384:19,1,69,8|8,2:0|2:0,0:0:0:0:
461,0,112894,6,0,B|484:99|441:82|462:191,1,186.299994314575,6|0,1:2|0:0,0:0:0:0:
508,257,113455,1,12,3:2:0:0:
508,257,113875,2,0,P|441:291|381:270,1,124.199996209717,0|0,1:0|1:0,0:0:0:0:
309,292,114296,2,0,P|316:232|324:159,1,124.199996209717,0|12,1:0|3:2,0:0:0:0:
376,100,114716,1,0,1:0:0:0:
239,9,114997,5,0,3:0:0:0:
239,9,115067,1,8,2:0:0:0:
239,9,115137,2,0,B|125:-6|173:48|38:32,1,186.299994314575,0|0,1:0|0:0,0:0:0:0:
2,101,115698,1,12,3:2:0:0:
2,101,116118,2,0,P|10:157|21:238,1,124.199996209717,0|0,1:0|0:0,0:0:0:0:
2,309,116539,2,0,P|38:314|71:317,1,62.0999981048585,0|0,1:0|1:0,0:0:0:0:
135,365,116819,1,12,3:2:0:0:
143,373,117240,5,0,3:0:0:0:
143,373,117310,1,8,2:0:0:0:
143,373,117380,2,0,B|257:388|209:334|344:350,1,186.299994314575,0|0,1:0|0:0,0:0:0:0:
404,382,117941,1,12,3:2:0:0:
404,382,118361,2,0,P|430:299|400:255,1,124.199996209717,0|0,1:0|1:0,0:0:0:0:
351,210,118782,2,0,P|325:127|355:83,1,124.199996209717,0|12,1:0|3:2,0:0:0:0:
391,28,119202,1,0,1:0:0:0:
512,166,119483,5,0,3:0:0:0:
512,166,119553,1,8,2:0:0:0:
512,166,119623,2,0,B|401:148|447:209|330:190,1,186.299994314575,0|0,1:0|1:0,0:0:0:0:
255,232,120184,1,12,3:2:0:0:
255,232,120604,2,0,P|195:226|113:217,1,124.199996209717,12|4,3:2|1:3,0:0:0:0:
88,229,120955,1,4,1:3:0:0:
75,236,121025,2,0,P|61:269|67:307,1,62.0999981048585,8|8,3:0|3:2,0:0:0:0:
103,382,121305,1,4,3:0:0:0:
103,382,121375,1,8,3:2:0:0:
103,382,121445,2,0,P|161:376|234:368,1,124.199996209717,8|8,3:2|3:2,0:0:0:0:
309,333,121866,6,0,P|343:338|381:342,1,69,4|0,1:2|1:0,0:0:0:0:
461,384,122147,1,10,0:0:0:0:
511,309,122287,2,0,P|527:253|485:177,1,138,0|0,1:0|1:0,0:0:0:0:
415,141,122707,1,10,0:0:0:0:
351,204,122848,2,0,P|282:209|213:216,1,138,0|0,1:0|1:0,0:0:0:0:
133,250,123268,1,10,0:0:0:0:
133,250,123408,1,0,1:0:0:0:
12,133,123689,1,0,1:0:0:0:
12,133,123759,1,0,0:0:0:0:
12,133,123829,2,0,P|-3:102|7:51,1,69,10|0,0:0|1:0,0:0:0:0:
57,0,124109,6,0,P|91:5|125:9,1,69,0|0,1:1|1:0,0:0:0:0:
209,54,124390,1,10,0:0:0:0:
209,54,124530,2,0,P|243:50|364:33,1,138,0|0,1:0|1:0,0:0:0:0:
428,0,124950,1,10,0:0:0:0:
496,58,125091,2,0,P|523:120|508:187,1,138,0|0,1:0|1:0,0:0:0:0:
478,219,125441,1,0,1:0:0:0:
479,234,125511,1,14,0:0:0:0:
378,383,125792,1,14,0:0:0:0:
242,265,126072,1,14,0:0:0:0:
242,265,126212,1,0,0:0:0:0:
276,182,126352,6,0,P|272:143|268:100,1,69,4|0,1:1|1:0,0:0:0:0:
258,28,126633,1,10,0:0:0:0:
258,28,126773,2,0,P|196:0|129:13,1,138,0|0,1:0|1:0,0:0:0:0:
41,1,127193,1,10,0:0:0:0:
0,81,127334,2,0,P|8:149|15:228,1,138,0|0,1:0|1:0,0:0:0:0:
4,310,127754,1,10,0:0:0:0:
4,310,127894,1,0,1:0:0:0:
167,383,128174,2,0,P|229:355|304:372,1,138,0|0,1:0|1:0,0:0:0:0:
384,382,128595,6,0,P|422:378|464:373,1,69,0|0,1:1|1:0,0:0:0:0:
512,308,128876,1,10,0:0:0:0:
512,308,129016,2,0,P|528:245|486:171,1,138,0|0,1:0|1:0,0:0:0:0:
433,119,129436,1,10,0:0:0:0:
353,161,129577,2,0,P|362:229|370:297,1,138,4|0,1:0|1:0,0:0:0:0:
334,381,129997,1,14,0:0:0:0:
334,381,130137,1,0,0:0:0:0:
253,340,130278,2,0,P|221:337|177:332,1,69,8|0,3:3|0:0,0:0:0:0:
111,280,130558,2,0,P|79:283|35:288,1,69,4|0,3:3|0:0,0:0:0:0:
2,367,130838,1,4,1:1:0:0:
256,192,148221,6,0,B|202:216|202:216|236:222|267:237|267:237|249:249|233:262|233:262|257:275|266:302,1,207,0|0,1:0|0:0,0:0:0:0:
297,368,148782,2,0,P|351:371|416:378,1,110.4,4|10,1:0|2:0,0:0:0:0:
495,380,149202,2,0,P|517:310|490:265,1,110.4,0|0,0:0|1:3,0:0:0:0:
450,208,149623,1,10,2:0:0:0:
281,260,149903,2,0,P|284:314|291:379,1,110.4,0|10,1:0|2:0,0:0:0:0:
141,273,150464,2,0,P|146:327|149:383,1,110.4,0|10,1:0|2:0,0:0:0:0:
19,262,151025,6,0,P|-3:213|16:148,1,110.4,0|10,1:0|2:0,0:0:0:0:
67,94,151445,1,0,0:0:0:0:
210,207,151726,1,0,1:0:0:0:
210,207,151866,1,10,2:0:0:0:
363,120,152146,2,0,P|417:117|482:110,1,110.4,0|10,1:0|2:0,0:0:0:0:
369,254,152707,2,0,P|419:248|488:245,1,110.4,0|10,1:0|2:0,0:0:0:0:
367,382,153268,6,0,P|309:356|259:368,1,110.4,4|10,1:2|2:0,0:0:0:0:
181,337,153688,2,0,P|123:363|73:351,1,110.4,0|0,0:0|1:0,0:0:0:0:
8,299,154109,1,10,2:0:0:0:
96,146,154389,2,0,P|93:92|86:27,1,110.4,0|10,1:0|2:0,0:0:0:0:
235,132,154950,2,0,P|230:78|227:22,1,110.4,0|10,1:0|2:0,0:0:0:0:
402,1,155511,6,0,P|427:52|414:111,1,110.4,0|10,1:0|2:0,0:0:0:0:
303,238,156072,1,0,1:0:0:0:
303,238,156212,2,0,P|279:290|302:358,1,110.4,0|0,1:0|0:0,0:0:0:0:
366,383,156632,1,10,1:2:0:0:
511,282,156913,1,10,1:2:0:0:
370,175,157193,1,10,1:2:0:0:
218,266,157473,1,14,1:2:0:0:
47,216,157754,6,0,P|22:166|34:106,1,110.4,4|10,1:0|2:0,0:0:0:0:
1,30,158174,2,0,P|57:24|123:16,1,110.4,0|0,0:0|1:0,0:0:0:0:
197,0,158595,1,10,2:0:0:0:
234,172,158875,2,0,P|231:226|224:291,1,110.4,0|10,1:0|2:0,0:0:0:0:
373,186,159436,2,0,P|368:240|365:296,1,110.4,0|10,1:0|2:0,0:0:0:0:
511,197,159997,6,0,P|524:132|493:87,1,110.4,0|10,1:0|2:0,0:0:0:0:
353,1,160558,1,0,0:0:0:0:
353,1,160698,2,0,P|348:53|341:129,1,110.4,0|0,1:0|0:0,0:0:0:0:
378,191,161118,1,0,1:0:0:0:
255,286,161399,1,10,2:0:0:0:
167,247,161539,2,0,P|118:225|57:246,1,110.4,4|8,1:0|3:2,0:0:0:0:
5,304,161959,1,8,3:2:0:0:
5,304,162100,1,8,3:2:0:0:
46,380,162240,6,0,P|107:374|188:366,1,124.199996209717,4|10,1:2|3:2,0:0:0:0:
255,383,162660,2,0,B|237:282|281:309|261:200,1,186.299994314575,0|10,0:0|3:2,0:0:0:0:
328,144,163221,2,0,P|389:150|470:158,1,124.199996209717,0|0,1:0|1:0,0:0:0:0:
511,220,163642,1,10,3:2:0:0:
448,384,163922,1,0,0:0:0:0:
448,384,164062,2,0,P|386:377|324:371,1,124.199996209717,0|0,1:0|0:0,0:0:0:0:
247,331,164483,6,0,P|185:337|123:343,2,124.199996209717,0|10|0,1:0|3:2|1:0,0:0:0:0:
298,260,165184,1,0,1:0:0:0:
246,197,165324,1,10,3:2:0:0:
246,197,165464,1,0,1:0:0:0:
371,75,165745,1,0,1:0:0:0:
371,75,165885,2,0,L|378:3,1,62.0999981048585,8|8,3:2|3:2,0:0:0:0:
463,1,166165,2,0,L|471:71,1,62.0999981048585,8|8,3:2|3:2,0:0:0:0:
512,144,166445,1,8,3:2:0:0:
512,144,166586,1,8,3:2:0:0:
450,205,166726,6,0,B|390:297|461:371|461:371|518:325,2,248.399992419434,4|4|4,1:0|1:0|1:0,0:0:0:0:
280,164,168128,2,0,P|226:187|146:161,1,124.199996209717,8|0,3:3|1:3,0:0:0:0:
90,138,168548,1,0,0:0:0:0:
90,138,168688,2,0,P|53:134|14:130,1,62.0999981048585,12|0,1:2|0:0,0:0:0:0:
1,45,168969,6,0,P|33:40|72:35,1,69,4|0,1:2|1:0,0:0:0:0:
156,4,169250,1,10,0:0:0:0:
156,4,169390,2,0,P|195:8|307:19,1,138,0|0,1:0|1:0,0:0:0:0:
381,0,169810,1,10,0:0:0:0:
443,65,169951,2,0,P|470:116|451:203,1,138,0|0,1:0|1:0,0:0:0:0:
409,269,170371,1,10,0:0:0:0:
409,269,170511,1,0,1:0:0:0:
245,209,170791,1,0,1:0:0:0:
245,209,170931,2,0,P|206:213|161:218,1,69,10|0,0:0|1:0,0:0:0:0:
98,261,171212,6,0,P|59:257|14:252,1,69,0|0,1:1|1:0,0:0:0:0:
4,343,171493,1,10,0:0:0:0:
4,343,171633,2,0,P|59:373|135:350,1,138,0|0,1:0|1:0,0:0:0:0:
206,310,172053,1,10,0:0:0:0:
279,361,172193,2,0,P|343:379|403:348,1,138,0|0,1:0|1:0,0:0:0:0:
436,317,172544,1,0,1:0:0:0:
435,301,172614,1,14,0:0:0:0:
508,137,172895,1,14,0:0:0:0:
361,43,173175,1,14,0:0:0:0:
361,43,173315,1,0,0:0:0:0:
292,101,173455,6,0,P|297:135|303:184,1,69,4|0,1:1|1:0,0:0:0:0:
236,232,173736,1,10,0:0:0:0:
236,232,173876,2,0,P|166:204|102:227,1,138,0|0,1:0|1:0,0:0:0:0:
48,287,174296,1,10,0:0:0:0:
98,362,174437,2,0,P|161:368|241:379,1,138,0|0,1:0|1:0,0:0:0:0:
328,384,174857,1,10,0:0:0:0:
328,384,174997,1,0,1:0:0:0:
494,310,175278,1,0,1:0:0:0:
494,310,175418,2,0,P|489:268|482:219,1,69,10|0,0:0|1:0,0:0:0:0:
512,159,175698,5,0,1:1:0:0:
512,159,175839,1,0,1:0:0:0:
453,91,175979,2,0,P|458:56|462:22,1,69,10|0,0:0|1:0,0:0:0:0:
375,0,176259,2,0,P|370:35|366:69,1,69,0|0,1:0|1:0,0:0:0:0:
303,132,176539,1,10,0:0:0:0:
229,79,176680,2,0,P|177:52|101:71,1,138,4|0,1:0|1:0,0:0:0:0:
36,130,177100,1,14,0:0:0:0:
89,201,177240,1,0,0:0:0:0:
43,279,177381,6,0,B|20:286|20:286|-15:280,2,46,8|8|8,3:3|3:3|3:3,0:0:0:0:
92,340,177660,6,0,B|99:363|99:363|93:398,2,46,4|4|4,3:3|3:3|3:3,0:0:0:0:
160,303,177941,6,0,P|198:307|243:312,1,69,4|0,1:2|1:0,0:0:0:0:
299,374,178222,1,10,0:0:0:0:
299,374,178361,2,0,P|367:367|436:362,1,138,0|0,1:0|1:0,0:0:0:0:
507,307,178782,1,10,0:0:0:0:
455,232,178923,2,0,P|399:203|318:229,1,138,0|0,1:0|1:0,0:0:0:0:
269,287,179343,1,10,0:0:0:0:
269,287,179483,1,0,1:0:0:0:
126,195,179764,1,0,1:0:0:0:
126,195,179834,1,0,1:0:0:0:
126,195,179904,2,0,P|90:198|40:202,1,69,10|0,0:0|1:0,0:0:0:0:
3,128,180184,6,0,P|-7:93|10:42,1,69,0|0,1:1|1:0,0:0:0:0:
68,3,180465,1,10,0:0:0:0:
68,3,180605,2,0,P|133:8|216:15,1,138,0|0,1:0|1:0,0:0:0:0:
271,74,181025,1,10,0:0:0:0:
222,149,181166,2,0,P|230:217|240:305,1,138,0|0,1:0|1:0,0:0:0:0:
258,325,181516,1,0,1:0:0:0:
273,326,181586,1,14,0:0:0:0:
443,382,181867,1,14,0:0:0:0:
512,219,182147,1,14,0:0:0:0:
512,219,182287,1,0,0:0:0:0:
452,152,182427,6,0,P|447:113|439:72,1,69,4|0,1:1|1:0,0:0:0:0:
390,15,182708,1,10,0:0:0:0:
390,15,182848,2,0,P|328:1|252:40,1,138,0|0,1:0|1:0,0:0:0:0:
207,101,183268,1,10,0:0:0:0:
269,166,183409,2,0,P|278:227|290:316,1,138,0|0,1:0|1:0,0:0:0:0:
245,382,183829,1,10,0:0:0:0:
245,382,183969,1,0,1:0:0:0:
66,358,184250,2,0,P|36:309|46:228,1,138,0|0,1:0|1:0,0:0:0:0:
99,162,184670,5,4,1:1:0:0:
99,162,184810,1,0,1:0:0:0:
161,226,184950,1,10,0:0:0:0:
238,181,185090,1,4,1:2:0:0:
300,244,185230,2,0,P|335:240|386:236,1,69,0|0,1:0|1:0,0:0:0:0:
448,279,185511,1,10,0:0:0:0:
511,215,185652,2,0,P|526:155|489:78,1,138,4|0,1:0|1:0,0:0:0:0:
419,44,186072,6,0,B|412:18|412:18|422:-19,2,46,8|8|8,2:0|0:3|0:3,0:0:0:0:
363,97,186352,6,0,B|337:104|337:104|300:94,2,46,8|8|8,2:0|0:3|0:3,0:0:0:0:
417,155,186632,6,0,B|424:181|424:181|414:218,2,46,8|8|8,2:0|0:3|0:3,0:0:0:0:
481,105,186913,5,2,1:2:0:0:
201,190,195324,6,0,B|175:197|175:197|138:187,2,46,8|8|8,2:3|2:3|2:3,0:0:0:0:
254,246,195604,6,0,B|261:272|261:272|251:309,2,46,4|4|4,2:3|2:3|2:3,0:0:0:0:
312,192,195884,6,0,B|338:185|338:185|375:195,2,46,0|0|0,1:0|0:0|0:0,0:0:0:0:
258,131,196165,5,8,3:2:0:0:
398,18,196445,5,4,1:0:0:0:
413,12,196539,2,0,L|476:18,1,46
499,44,196726,1,10,0:0:0:0:
511,132,196866,2,0,P|445:164|371:141,1,138,0|0,1:0|1:0,0:0:0:0:
320,94,197287,1,10,0:0:0:0:
320,94,197427,1,0,1:0:0:0:
146,116,197707,1,0,1:0:0:0:
146,116,197847,2,0,P|112:120|61:125,1,69,10|0,0:0|1:0,0:0:0:0:
8,181,198128,6,0,P|4:215|-1:266,1,69,0|0,1:1|1:0,0:0:0:0:
5,342,198408,1,10,0:0:0:0:
5,342,198548,2,0,P|61:377|138:357,1,138,0|0,1:0|1:0,0:0:0:0:
206,319,198969,1,10,0:0:0:0:
159,242,199109,2,0,P|153:181|144:91,1,138,0|0,1:0|1:0,0:0:0:0:
198,31,199530,2,0,P|259:25|349:16,1,138,14|14,0:0|0:0,0:0:0:0:
415,57,199950,2,0,P|421:118|430:208,1,138,0|0,1:0|1:0,0:0:0:0:
495,254,200371,6,0,P|492:291|488:341,1,69,4|0,1:1|1:0,0:0:0:0:
425,384,200651,1,10,0:0:0:0:
425,384,200791,2,0,P|362:355|294:376,1,138,0|0,1:0|1:0,0:0:0:0:
220,328,201212,1,10,0:0:0:0:
267,252,201352,2,0,P|260:191|247:109,1,138,0|0,1:0|1:0,0:0:0:0:
223,77,201702,1,0,1:0:0:0:
225,63,201772,1,10,0:0:0:0:
150,12,201913,2,0,P|80:-2|18:39,1,138,0|0,1:0|1:0,0:0:0:0:
1,116,202333,1,10,0:0:0:0:
151,214,202614,6,0,P|182:210|229:204,1,69,0|0,1:1|1:0,0:0:0:0:
299,161,202894,1,10,0:0:0:0:
299,161,203034,2,0,P|330:165|442:177,1,138,0|0,1:0|1:0,0:0:0:0:
511,225,203455,1,10,0:0:0:0:
478,308,203595,2,0,P|415:341|339:318,1,138,4|0,1:0|1:0,0:0:0:0:
314,303,203945,1,0,1:0:0:0:
299,304,204016,1,14,0:0:0:0:
138,383,204296,2,0,L|93:377,3,34.5,8|8|8|8,0:0|0:0|0:0|0:0,0:0:0:0:
72,346,204576,2,0,L|25:350,3,34.5,8|0|8|8,0:0|3:0|0:0|0:0,0:0:0:0:
0,322,204857,6,0,P|4:288|8:250,1,69,4|0,1:2|1:0,0:0:0:0:
56,179,205137,1,10,0:0:0:0:
56,179,205277,2,0,P|52:145|48:107,1,69,0|0,1:0|1:2,0:0:0:0:
134,83,205558,2,0,P|138:117|142:155,1,69,0|10,1:0|0:0,0:0:0:0:
197,221,205838,2,0,P|255:252|336:227,1,138,0|0,1:0|1:0,0:0:0:0:
410,216,206259,2,0,L|415:170,3,34.5,10|0|8|0,0:0|3:0|0:0|3:0,0:0:0:0:
443,148,206539,2,0,L|438:102,3,34.5,8|0|8|0,0:0|3:0|0:0|3:0,0:0:0:0:
458,73,206819,2,0,L|463:27,3,34.5,8|8|8|8,0:0|0:0|0:0|0:0,0:0:0:0:
489,2,207100,1,4,1:1:0:0:
253,191,216072,6,0,P|261:256|268:343,2,138,2|10|2,1:2|3:2|1:3,0:0:0:0:
192,123,216773,1,0,1:0:0:0:
24,185,217053,2,0,P|-4:253|19:322,1,138,0|0,1:0|1:0,0:0:0:0:
69,381,217473,1,10,3:2:0:0:
154,352,217614,2,0,P|218:357|309:364,1,138,0|0,1:0|1:0,0:0:0:0:
372,320,218034,1,10,3:2:0:0:
372,320,218174,1,0,1:0:0:0:
441,377,218315,5,2,1:2:0:0:
512,216,218595,1,10,3:2:0:0:
512,216,218735,2,0,P|505:155|494:65,1,138,0|0,1:0|1:0,0:0:0:0:
442,6,219156,1,10,3:2:0:0:
354,25,219296,2,0,P|324:81|345:153,1,138,0|0,1:0|1:0,0:0:0:0:
398,219,219716,2,0,P|395:258|392:299,1,69,10|0,3:2|1:0,0:0:0:0:
319,340,219997,6,0,B|314:364|314:364|328:404,2,46,8|8|8,3:3|3:3|3:3,0:0:0:0:
253,301,220277,6,0,B|258:277|258:277|244:237,2,46,4|4|4,3:3|3:3|3:3,0:0:0:0:
193,350,220558,6,0,P|135:370|55:328,1,138,4|14,1:1|3:2,0:0:0:0:
4,286,220978,1,0,1:0:0:0:
4,286,221118,1,2,1:3:0:0:
117,146,221399,1,14,3:2:0:0:
188,200,221539,2,0,P|251:194|333:187,1,138,0|0,1:0|1:0,0:0:0:0:
411,164,221959,2,0,P|446:169|502:174,1,69,10|0,3:2|1:0,0:0:0:0:
511,88,222240,1,2,0:3:0:0:
458,15,222380,1,0,1:0:0:0:
375,48,222520,2,0,P|340:43|289:37,1,69,14|0,3:2|1:0,0:0:0:0:
226,1,222801,6,0,P|196:48|221:139,1,138,2|10,1:2|3:2,0:0:0:0:
266,201,223221,1,0,1:0:0:0:
266,201,223361,1,2,1:3:0:0:
427,121,223642,1,10,3:2:0:0:
490,183,223782,2,0,P|498:251|510:332,1,138,4|0,1:0|0:0,0:0:0:0:
444,382,224202,1,8,3:2:0:0:
293,293,224483,1,0,1:0:0:0:
293,293,224623,1,0,1:0:0:0:
212,333,224763,2,0,P|137:323|60:315,1,138,8|4,3:2|1:2,0:0:0:0:
256,192,225114,12,4,231773,1:2:0:0:
