osu file format v14

[General]
AudioFilename: audio.mp3
AudioLeadIn: 0
PreviewTime: 36562
Countdown: 0
SampleSet: Soft
StackLeniency: 0.7
Mode: 0
LetterboxInBreaks: 0
WidescreenStoryboard: 1

[Editor]
Bookmarks: 186913,194763
DistanceSpacing: 1.3
BeatDivisor: 4
GridSize: 4
TimelineZoom: 2.699999

[Metadata]
Title:Sentou Amu
TitleUnicode:戦闘アム
Artist:Shade
ArtistUnicode:Shade
Creator:Shurelia
Version:Kalibe's Extra
Source:ランス・クエスト マグナム
Tags:Rance Quest Magnum 8 VIII battle am isuel イスエル rock instrumental video game eroge visual novel rpg jrpg alicesoft pepega cup 3 ppg3 QF HD1 scubdomino ponbot supav kalibe frozz nakazawa amateurre
BeatmapID:4503586
BeatmapSetID:2111360

[Difficulty]
HPDrainRate:6
CircleSize:4
OverallDifficulty:8.5
ApproachRate:9.3
SliderMultiplier:1.7
SliderTickRate:1

[Events]
//Background and Video events
0,0,"ambgpic.jpg",0,0
//Break Periods
2,187113,194490
//Storyboard Layer 0 (Background)
//Storyboard Layer 1 (Fail)
//Storyboard Layer 2 (Pass)
//Storyboard Layer 3 (Foreground)
//Storyboard Layer 4 (Overlay)
//Storyboard Sound Samples

[TimingPoints]
745,280.373831775701,4,2,1,50,1,0
745,-250.000000000001,4,2,1,50,0,0
16445,-100,4,2,1,70,0,0
35371,-55.5555555555556,4,2,1,70,0,0
35791,-181.818181818181,4,2,1,70,0,0
35861,-181.818181818181,4,2,1,5,0,0
35931,-181.818181818181,4,2,1,70,0,0
36002,-181.818181818181,4,2,1,5,0,0
36072,-181.818181818181,4,2,1,70,0,0
36142,-181.818181818181,4,2,1,5,0,0
36212,-181.818181818181,4,2,1,70,0,0
36352,-181.818181818181,4,2,1,70,0,0
36422,-181.818181818181,4,2,1,70,0,0
36492,-181.818181818181,4,2,1,70,0,0
36562,-181.818181818181,4,2,1,70,0,0
36632,-100,4,2,1,80,0,1
54576,-100,4,2,1,80,0,0
56819,-111.111111111111,4,2,1,80,0,0
56889,-111.111111111111,4,2,1,70,0,0
65931,-142.857142857143,4,2,1,70,0,0
70277,-99.9999999999999,4,2,1,70,0,0
72520,-142.857142857143,4,2,1,70,0,0
74763,-142.857142857143,4,2,1,70,0,0
83735,-99.9999999999999,4,2,1,70,0,0
88642,-133.333333333333,4,2,1,70,0,0
88922,-200,4,2,1,70,0,0
89343,-99.9999999999999,4,2,1,70,0,0
93969,-181.818181818181,4,2,1,70,0,0
94950,-95.2380952380952,4,2,1,80,0,1
103502,-74.0740740740741,4,2,1,80,0,1
103922,-95.2380952380952,4,2,1,80,0,1
107847,-66.6666666666667,4,2,1,80,0,1
107987,-153.846153846154,4,2,1,80,0,1
108408,-95.2380952380952,4,2,1,80,0,1
112894,-111.111111111111,4,2,1,75,0,0
116819,-222.222222222222,4,2,1,75,0,0
117380,-111.111111111111,4,2,1,75,0,0
119062,-222.222222222222,4,2,1,75,0,0
119623,-111.111111111111,4,2,1,75,0,0
121866,-95.2380952380952,4,2,1,80,0,1
130838,-125,4,2,1,70,0,0
144296,-111.111111111111,4,2,1,70,0,0
145417,-100,4,2,1,70,0,0
148782,-166.666666666667,4,2,1,70,0,0
157754,-133.333333333333,4,2,1,70,0,0
161539,-80,4,2,1,70,0,0
162240,-99.9999999999999,4,2,1,70,0,0
168688,-200,4,2,1,70,0,0
168969,-90.9090909090908,4,2,1,85,0,1
186913,-166.666666666667,4,2,1,85,0,0
195324,-90.9090909090909,4,2,1,70,0,0
196165,-76.9230769230769,4,2,1,70,0,0
196516,-90.9090909090909,4,2,1,70,0,0
196726,-90.9090909090909,4,2,1,85,0,1
207100,-166.666666666667,4,2,1,75,0,0
212427,-66.6666666666667,4,2,1,75,0,0
212567,-166.666666666667,4,2,1,75,0,0
214389,-66.6666666666667,4,2,1,75,0,0
214530,-100,4,2,1,75,0,0
216072,-100,4,2,1,80,0,0
224763,-200,4,2,1,70,0,0
225044,-90.9090909090909,4,2,1,70,0,0
226165,-200,4,2,1,60,0,0
227287,-200,4,2,1,50,0,0
228409,-200,4,2,1,40,0,0
228969,-200,4,2,1,30,0,0
229530,-200,4,2,1,20,0,0
230371,-200,4,2,1,10,0,0
231773,-200,4,2,1,5,0,0

[Colours]
Combo1 : 255,60,60
Combo2 : 128,128,128
Combo3 : 255,183,183
Combo4 : 192,192,192

[HitObjects]
79,242,745,5,2,0:0:0:0:
118,205,1866,5,2,0:0:0:0:
156,132,2987,5,2,0:0:0:0:
118,64,4109,6,0,L|122:342,1,272,2|2,0:0|0:0,0:0:0:0:
147,341,5791,2,0,L|6:358,2,136,0|2|0,0:0|0:0|0:0,0:0:0:0:
256,142,7473,5,2,0:0:0:0:
256,142,8034,1,0,0:0:0:0:
256,142,8595,2,0,P|130:198|-6:230,1,272,2|2,0:0|0:0,0:0:0:0:
74,196,10277,5,0,0:0:0:0:
74,196,10838,2,0,P|171:222|270:277,1,204,2|0,0:0|0:0,0:0:0:0:
335,324,11959,2,0,P|385:305|453:258,1,136,2|0,0:0|0:0,0:0:0:0:
372,384,13081,6,0,P|392:357|406:326,1,68,2|0,0:0|0:0,0:0:0:0:
448,122,13642,2,0,P|456:151|481:195,1,68
474,185,14202,5,2,0:0:0:0:
305,264,14763,5,0,0:0:0:0:
204,367,15324,5,2,0:0:0:0:
256,192,15394,12,12,16445,1:2:0:0:
298,60,16726,6,0,L|197:86,1,85,8|0,1:2|0:0,0:0:0:0:
208,52,17006,2,0,L|300:82,1,85
433,178,17567,5,0,1:0:0:0:
433,178,17637,1,0,1:0:0:0:
322,157,17777,5,0,1:2:0:0:
322,157,17847,2,0,L|450:182,1,113.333333333333,8|0,1:2|0:0,0:0:0:0:
338,267,18128,5,8,3:3:0:0:
356,272,18221,2,0,P|364:248|370:208,1,56.6666666666667,8|8,3:3|3:3,0:0:0:0:
223,134,18408,1,4,3:3:0:0:
203,139,18502,2,0,P|201:166|210:211,1,56.6666666666667,4|4,3:3|3:3,0:0:0:0:
270,283,18688,6,0,B|259:215|333:196|309:113,2,170,0|10|2,1:1|3:2|1:3,0:0:0:0:
217,371,19389,2,0,P|212:329|168:285,1,85,0|10,1:0|3:2,0:0:0:0:
254,197,19670,2,0,P|229:226|94:237,1,170,0|0,1:0|1:0,0:0:0:0:
93,233,20020,1,0,1:0:0:0:
89,218,20090,1,10,3:2:0:0:
190,270,20230,1,0,1:0:0:0:
80,323,20371,2,0,P|39:326|-1:345,1,85,2|0,0:3|1:0,0:0:0:0:
299,358,20651,6,0,L|309:261,1,85,10|0,3:2|1:0,0:0:0:0:
307,273,20861,1,0,3:0:0:0:
307,273,20931,2,0,L|293:90,2,170,2|10|2,1:2|3:2|1:3,0:0:0:0:
364,357,21632,2,0,P|374:323|412:289,1,85,0|10,1:0|3:2,0:0:0:0:
512,179,21913,6,0,P|424:88|380:103,1,170,0|0,1:0|1:0,0:0:0:0:
322,109,22263,2,0,P|338:122|384:125,1,42.5,0|10,1:0|3:2,0:0:0:0:
463,3,22473,6,0,L|291:30,1,170,0|0,1:0|1:3,0:0:0:0:
295,29,22824,1,0,1:0:0:0:
295,29,22894,1,10,3:2:0:0:
422,101,23034,1,0,1:0:0:0:
326,99,23174,6,0,P|280:80|226:90,1,85,0|0,1:1|1:0,0:0:0:0:
170,188,23455,2,0,B|78:150|67:207|-21:181,1,170,10|2,3:2|1:3,0:0:0:0:
96,255,23875,1,0,1:0:0:0:
19,169,24016,1,10,3:2:0:0:
124,254,24156,2,0,P|121:280|-1:357,1,170,0|0,1:0|1:0,0:0:0:0:
0,350,24506,1,0,1:0:0:0:
24,338,24576,2,0,P|60:337|100:366,1,85,10|0,3:2|1:0,0:0:0:0:
229,348,24857,5,2,0:3:0:0:
341,296,24997,1,0,1:0:0:0:
231,307,25137,5,10,3:2:0:0:
365,373,25277,1,0,1:0:0:0:
244,238,25417,6,0,P|209:258|151:278,1,85,2|0,1:2|1:0,0:0:0:0:
218,159,25698,2,0,P|291:213|379:216,1,170,10|2,3:2|1:3,0:0:0:0:
458,164,26118,1,0,1:0:0:0:
338,203,26259,1,10,3:2:0:0:
477,276,26399,6,0,L|502:97,1,170,4|0,1:2|1:0,0:0:0:0:
474,79,26749,1,0,1:0:0:0:
458,70,26819,1,10,3:2:0:0:
297,24,26959,5,0,1:0:0:0:
297,24,27100,2,0,P|305:62|308:122,1,85,8|0,2:0|1:0,0:0:0:0:
281,160,27310,6,0,P|282:136|294:106,1,42.5,0|8,3:0|2:0,0:0:0:0:
335,15,27520,1,8,2:0:0:0:
206,89,27660,6,0,P|178:103|101:111,1,85,0|0,1:1|1:0,0:0:0:0:
200,292,27941,1,10,3:2:0:0:
337,204,28081,6,0,B|373:191|373:191|422:234,1,85,0|2,1:0|1:3,0:0:0:0:
282,138,28361,1,0,1:0:0:0:
251,342,28502,6,0,L|265:244,1,85,10|0,3:2|1:0,0:0:0:0:
292,29,28922,6,0,L|296:58,2,28.3333333333333,0|0|0,1:0|0:0|0:0,0:0:0:0:
292,29,29062,2,0,P|321:61|366:74,1,85,10|0,3:2|1:0,0:0:0:0:
443,126,29343,2,0,P|420:159|370:190,1,85,2|0,0:3|1:0,0:0:0:0:
379,294,29623,5,10,3:2:0:0:
216,200,29763,1,0,1:0:0:0:
186,285,29903,6,0,P|226:284|272:294,1,85,2|0,1:2|1:0,0:0:0:0:
421,204,30184,1,10,3:2:0:0:
216,200,30324,6,0,P|217:160|237:183,1,85,0|2,1:0|1:3,0:0:0:0:
342,250,30604,1,0,1:0:0:0:
112,287,30745,6,0,L|10:303,1,85,10|0,3:2|1:0,0:0:0:0:
39,311,31165,5,0,1:0:0:0:
39,311,31235,1,0,1:0:0:0:
39,311,31305,1,10,3:2:0:0:
213,225,31445,1,0,1:0:0:0:
63,382,31586,5,8,3:3:0:0:
86,370,31679,2,0,P|104:346|131:291,1,56.6666666666667,8|8,3:3|3:3,0:0:0:0:
151,160,31866,5,4,3:3:0:0:
130,187,31959,2,0,P|132:212|142:246,1,56.6666666666667,4|4,3:3|3:3,0:0:0:0:
229,364,32146,6,0,P|261:368|401:298,2,170,4|10|2,1:1|3:2|1:3,0:0:0:0:
384,317,32987,5,10,3:2:0:0:
338,224,33128,2,0,L|238:210,1,85,0|2,1:0|0:3,0:0:0:0:
502,122,33408,5,0,1:0:0:0:
502,122,33478,1,0,1:0:0:0:
502,122,33548,1,10,3:2:0:0:
422,224,33688,1,0,1:0:0:0:
502,122,33829,2,0,L|324:100,1,170,2|10,0:3|3:2,0:0:0:0:
80,123,34319,5,0,0:0:0:0:
53,128,34389,2,0,P|86:131|185:171,1,127.5,4|0,1:2|0:0,0:0:0:0:
148,171,34670,6,0,B|250:107|289:261|399:244,1,255,10|0,3:2|0:0,0:0:0:0:
482,202,35230,1,10,3:2:0:0:
483,292,35371,6,0,B|457:290|457:290|451:280|451:280|445:284|445:284|321:262,1,152.999995330811,4|0,1:0|0:0,0:0:0:0:
263,29,35791,6,0,L|254:51,1,23.3750007133484,10|0,3:2|0:0,0:0:0:0:
275,67,35931,6,0,L|282:90,1,23.3750007133484
242,187,36072,6,0,L|253:150,1,23.3750007133484,0|0,1:0|0:0,0:0:0:0:
184,20,36212,5,0,1:0:0:0:
184,20,36282,1,0,0:0:0:0:
184,20,36352,2,0,B|161:25|161:25|149:23|149:23|137:28|137:28|101:33,1,70.1250021400452,14|0,3:2|0:0,0:0:0:0:
19,107,36632,6,0,B|87:74|115:165|178:153,1,170,6|10,1:2|0:0,0:0:0:0:
311,252,37053,2,0,L|301:305,2,42.5,0|0|0,1:0|0:0|1:2,0:0:0:0:
394,150,37333,2,0,L|296:174,1,85,0|10,1:0|0:0,0:0:0:0:
100,293,37614,6,0,P|134:280|106:246,1,85,0|0,1:0|2:0,0:0:0:0:
27,96,37894,1,0,1:0:0:0:
32,109,37964,2,0,L|41:167,1,42.5,0|10,1:0|0:0,0:0:0:0:
116,321,38174,6,0,B|122:302|122:302|119:290|119:290|126:275|126:275|145:147,1,170,0|0,1:0|1:0,0:0:0:0:
143,155,38595,2,0,B|156:151|156:151|166:159|166:159|184:152,1,42.5,10|0,0:0|0:0,0:0:0:0:
307,105,38735,2,0,B|321:110|321:110|331:102|331:102|344:106,1,42.5,0|8,1:0|3:2,0:0:0:0:
405,228,38875,6,0,L|305:217,1,85,0|0,1:1|1:0,0:0:0:0:
508,314,39156,1,10,0:0:0:0:
481,168,39296,6,0,B|425:179|425:179|376:207|376:207|311:222,1,170,0|0,1:0|1:0,0:0:0:0:
226,356,39716,1,10,0:0:0:0:
25,161,39857,6,0,B|74:157|112:190|112:190|112:229|146:259,1,170,0|0,1:0|1:0,0:0:0:0:
170,276,40207,1,0,1:0:0:0:
170,276,40277,2,0,P|169:236|207:192,1,85,14|0,0:0|1:0,0:0:0:0:
379,77,40558,5,14,0:0:0:0:
268,138,40698,2,0,P|275:118|297:94,1,42.5,0|0,1:0|1:0,0:0:0:0:
379,77,40838,5,14,0:0:0:0:
486,164,40978,2,0,P|472:180|445:190,1,42.5,0|0,0:0|1:0,0:0:0:0:
236,27,41118,6,0,P|307:18|382:84,1,170,4|10,1:1|0:0,0:0:0:0:
275,281,41539,2,0,P|263:264|270:234,2,42.5,0|0|0,1:0|0:0|1:2,0:0:0:0:
236,160,41819,2,0,P|275:154|323:186,1,85,0|10,1:0|0:0,0:0:0:0:
461,332,42100,6,0,P|437:373|416:340,1,85,0|0,1:0|2:0,0:0:0:0:
346,246,42380,1,0,1:0:0:0:
359,248,42450,2,0,L|417:258,1,42.5,0|10,1:0|0:0,0:0:0:0:
506,318,42660,6,0,L|326:338,1,170,0|0,1:0|1:0,0:0:0:0:
337,336,43011,1,0,0:0:0:0:
337,336,43081,1,10,0:0:0:0:
376,248,43221,1,0,1:0:0:0:
227,291,43361,5,0,1:1:0:0:
227,291,43502,1,0,1:0:0:0:
187,292,43642,5,10,0:0:0:0:
266,365,43782,1,0,1:0:0:0:
232,217,43922,5,0,1:0:0:0:
100,288,44062,1,0,1:0:0:0:
303,246,44202,5,10,0:0:0:0:
76,160,44343,6,0,B|149:154|154:224|236:216,1,170,4|0,1:0|1:0,0:0:0:0:
222,18,44763,2,0,B|233:56|233:56|216:104,1,85,14|0,0:0|0:0,0:0:0:0:
35,187,45044,5,8,3:3:0:0:
106,180,45137,1,8,3:3:0:0:
157,204,45230,1,8,3:3:0:0:
204,238,45324,1,4,3:3:0:0:
279,251,45417,1,4,3:3:0:0:
335,229,45511,1,4,3:3:0:0:
379,167,45604,6,0,P|372:113|261:63,1,170,4|10,1:2|0:0,0:0:0:0:
180,227,46025,2,0,L|188:277,2,42.5,0|0|0,1:0|0:0|1:2,0:0:0:0:
291,146,46305,2,0,L|276:242,1,85,0|10,1:0|0:0,0:0:0:0:
61,266,46586,6,0,B|88:367|88:367|160:337,1,170,0|0,1:0|1:0,0:0:0:0:
199,315,46936,1,0,1:0:0:0:
209,310,47006,1,10,0:0:0:0:
315,384,47146,1,0,1:0:0:0:
437,276,47287,1,0,1:0:0:0:
437,276,47357,1,0,1:0:0:0:
437,276,47427,2,0,L|491:263,1,42.5,0|0,1:0|1:0,0:0:0:0:
511,333,47567,2,0,L|428:319,1,85,10|0,0:0|1:0,0:0:0:0:
226,246,47847,5,0,1:1:0:0:
330,192,47987,1,0,1:0:0:0:
255,335,48128,1,10,0:0:0:0:
123,219,48268,2,0,B|135:171|135:171|95:113|95:113|114:51,1,170,0|0,1:0|1:0,0:0:0:0:
0,152,48688,1,10,0:0:0:0:
182,100,48829,6,0,B|217:101|241:60|298:69|288:115|364:129,1,170,0|0,1:0|1:0,0:0:0:0:
407,149,49179,1,0,1:0:0:0:
407,149,49249,2,0,P|368:158|337:195,1,85,14|0,0:0|1:0,0:0:0:0:
239,338,49530,2,0,L|301:319,2,42.5,14|0|0,0:0|0:0|1:0,0:0:0:0:
239,338,49740,1,0,1:0:0:0:
239,338,49810,1,14,0:0:0:0:
399,256,49950,1,0,0:0:0:0:
228,257,50090,6,0,P|186:249|132:212,1,85,4|0,1:1|1:0,0:0:0:0:
0,333,50371,2,0,P|69:312|173:328,1,170,10|0,0:0|1:2,0:0:0:0:
229,384,50791,2,0,P|237:364|237:343,2,42.5,0|0|10,1:0|0:0|0:0,0:0:0:0:
461,291,51072,6,0,P|471:328|430:326,1,85,0|0,1:0|2:0,0:0:0:0:
212,222,51352,1,0,1:0:0:0:
224,218,51422,2,0,L|276:213,1,42.5,0|10,1:0|0:0,0:0:0:0:
461,291,51632,6,0,B|397:277|397:277|404:217|404:217|356:206,1,170,0|0,1:0|1:0,0:0:0:0:
309,370,52053,2,0,L|321:275,1,85,10|0,0:0|1:0,0:0:0:0:
359,68,52333,5,4,1:1:0:0:
291,102,52473,1,0,1:0:0:0:
235,60,52614,1,10,0:0:0:0:
473,133,52754,6,0,P|432:138|375:157,1,85,4|0,1:2|0:0,0:0:0:0:
271,202,53034,1,0,1:0:0:0:
279,208,53104,1,0,0:0:0:0:
291,205,53174,1,10,0:0:0:0:
501,122,53315,6,0,P|421:114|309:89,1,170,4|0,1:0|1:0,0:0:0:0:
165,65,53735,5,8,2:0:0:0:
165,65,53875,1,8,2:0:0:0:
68,126,54016,1,8,2:0:0:0:
189,85,54156,1,8,2:0:0:0:
315,191,54296,1,8,2:0:0:0:
148,111,54436,1,8,2:0:0:0:
0,304,54576,5,2,1:2:0:0:
0,304,54857,1,2,1:2:0:0:
512,224,55698,5,2,1:2:0:0:
512,224,55979,1,2,1:2:0:0:
512,224,56259,6,0,P|493:241|451:249,2,56.6666666666667,8|8|8,3:3|3:3|3:3,0:0:0:0:
432,125,56539,2,0,P|407:111|371:108,2,56.6666666666667,4|4|4,3:3|3:3|3:3,0:0:0:0:
390,204,56819,6,0,B|325:183|292:237|227:208,1,152.999995330811,4|10,1:1|3:2,0:0:0:0:
183,139,57240,2,0,P|114:54|58:50,1,152.999995330811,0|0,0:0|1:0,0:0:0:0:
55,247,57660,2,0,P|68:210|73:155,1,76.4999976654053,10|0,3:2|1:0,0:0:0:0:
260,78,57941,2,0,P|262:96|270:134,2,38.2499988327027,2|0|0,0:3|0:0|1:0,0:0:0:0:
152,220,58221,5,10,3:2:0:0:
284,325,58361,2,0,B|214:297|214:297|122:318,1,152.999995330811,0|0,1:0|1:0,0:0:0:0:
269,214,58782,2,0,L|167:192,1,76.4999976654053,10|0,3:2|0:0,0:0:0:0:
260,293,59062,2,0,L|448:273,2,152.999995330811,2|10|2,1:2|3:2|1:3,0:0:0:0:
371,210,59763,1,0,1:0:0:0:
218,279,59903,1,10,3:2:0:0:
458,211,60044,6,0,P|421:109|361:110,1,152.999995330811,0|0,1:0|1:0,0:0:0:0:
512,49,60464,1,10,3:2:0:0:
426,192,60604,6,0,P|374:211|245:199,1,152.999995330811,0|2,1:0|1:3,0:0:0:0:
150,72,61025,2,0,B|161:72|161:72|170:78|170:78|192:78,1,38.2499988327027,14|0,3:2|0:0,0:0:0:0:
221,138,61165,2,0,B|209:138|209:138|201:144|201:144|179:144,1,38.2499988327027
155,305,61305,6,0,L|168:215,1,76.4999976654053,4|0,1:1|0:0,0:0:0:0:
342,53,61586,2,0,B|351:91|351:91|317:152|317:152|325:211,1,152.999995330811,10|2,3:2|1:3,0:0:0:0:
339,357,62006,5,0,1:0:0:0:
414,262,62146,1,10,3:2:0:0:
232,212,62287,2,0,P|190:227|70:254,1,152.999995330811,0|0,1:0|1:0,0:0:0:0:
84,252,62637,1,0,0:0:0:0:
84,252,62707,1,10,3:2:0:0:
272,129,62847,2,0,P|298:136|347:176,1,76.4999976654053,0|2,1:0|0:3,0:0:0:0:
341,234,63128,5,0,1:0:0:0:
191,139,63268,2,0,P|180:108|188:41,1,76.4999976654053,10|0,3:2|0:0,0:0:0:0:
198,46,63478,1,0,3:2:0:0:
198,46,63548,2,0,B|146:81|98:58|40:97,2,152.999995330811,2|10|2,1:2|3:2|1:3,0:0:0:0:
265,187,64249,2,0,P|244:218|234:278,1,76.4999976654053,0|10,1:0|3:2,0:0:0:0:
444,157,64530,2,0,P|406:132|353:72,1,114.749996498108,4|0,1:2|0:0,0:0:0:0:
343,44,64810,5,8,3:2:0:0:
402,84,64950,1,8,3:2:0:0:
381,173,65090,1,8,3:2:0:0:
269,224,65230,1,8,3:2:0:0:
129,93,65371,6,0,B|215:51|247:168|320:132,1,191.249994163513,4|0,1:2|3:0,0:0:0:0:
333,110,65791,6,0,L|280:92,2,38.2499988327027,8|0|0,0:2|0:0|1:0,0:0:0:0:
511,234,66072,2,0,P|461:229|387:199,1,118.999996368408,2|8,0:0|0:2,0:0:0:0:
396,204,66492,2,0,P|373:217|337:219,1,59.4999981842042,0|2,1:0|0:0,0:0:0:0:
249,288,66773,2,0,P|221:325|146:363,1,118.999996368408,4|8,1:2|0:2,0:0:0:0:
3,231,67193,2,0,P|38:263|127:280,1,118.999996368408,2|8,1:2|0:2,0:0:0:0:
190,231,67614,2,0,L|175:270,2,29.7499990921021,0|0|2,1:0|0:0|0:0,0:0:0:0:
49,240,68034,6,0,B|85:246|85:246|123:268|123:268|172:277,1,118.999996368408,8|2,0:2|0:0,0:0:0:0:
160,274,68455,1,0,0:0:0:0:
254,196,68595,2,0,P|291:185|381:154,1,118.999996368408,8|2,0:2|0:0,0:0:0:0:
492,332,69016,2,0,P|446:324|391:258,1,118.999996368408,4|8,1:2|0:2,0:0:0:0:
452,140,69436,2,0,P|444:94|397:46,1,89.2499972763062,2|0,1:2|0:0,0:0:0:0:
438,49,69716,2,0,P|411:30|378:20,1,59.4999981842042,8|0,0:2|1:0,0:0:0:0:
182,59,69997,5,0,3:0:0:0:
156,76,70067,1,0,3:0:0:0:
140,70,70137,1,8,3:2:0:0:
121,83,70207,1,8,3:2:0:0:
106,78,70277,6,0,B|106:132|138:178|138:178|110:177|72:204,1,170,4|10,1:2|3:2,0:0:0:0:
4,233,70698,2,0,P|36:225|177:280,1,170,0|0,1:0|1:0,0:0:0:0:
291,322,71118,1,10,3:2:0:0:
401,206,71259,2,0,P|354:226|293:242,1,85,4|0,1:1|0:0,0:0:0:0:
146,286,71539,5,8,3:2:0:0:
184,219,71679,1,8,3:2:0:0:
257,170,71819,1,8,3:2:0:0:
199,253,71959,1,8,3:2:0:0:
74,309,72100,1,0,1:0:0:0:
284,239,72240,5,0,3:0:0:0:
303,249,72310,1,0,3:0:0:0:
324,270,72380,1,0,3:0:0:0:
333,298,72450,1,0,3:0:0:0:
324,320,72520,6,0,P|302:269|335:140,1,178.499994552612,4|0,1:2|1:0,0:0:0:0:
227,258,73081,2,0,P|204:224|200:135,1,118.999996368408,8|0,3:2|1:0,0:0:0:0:
374,260,73502,2,0,P|272:346|226:333,1,178.499994552612,8|0,3:2|1:0,0:0:0:0:
12,267,74202,5,14,0:0:0:0:
12,267,74296,2,0,L|62:249,1,39.6666654561361,0|8,0:0|0:2,0:0:0:0:
16,196,74483,1,8,3:3:0:0:
16,196,74576,2,0,L|58:209,1,39.6666654561361,8|8,3:3|3:3,0:0:0:0:
185,252,74763,5,4,1:0:0:0:
227,263,74857,1,0,1:0:0:0:
263,239,74950,1,0,1:0:0:0:
305,197,75044,1,0,1:0:0:0:
347,187,75137,1,0,1:0:0:0:
385,207,75230,1,0,1:0:0:0:
417,268,75324,1,8,3:2:0:0:
205,278,75885,5,4,1:2:0:0:
246,264,75979,1,0,1:0:0:0:
268,226,76072,1,0,1:0:0:0:
266,167,76166,1,0,1:0:0:0:
278,125,76259,1,0,1:0:0:0:
319,113,76352,1,0,1:0:0:0:
383,123,76446,1,8,3:2:0:0:
261,292,77006,5,4,1:0:0:0:
290,259,77100,1,0,1:0:0:0:
280,216,77193,1,0,1:0:0:0:
234,170,77287,1,0,1:0:0:0:
205,137,77380,1,0,1:0:0:0:
210,93,77473,1,0,1:0:0:0:
262,52,77567,1,8,3:2:0:0:
314,243,78128,5,4,1:2:0:0:
280,214,78222,1,0,1:0:0:0:
236,211,78315,1,0,1:0:0:0:
179,235,78409,1,0,1:0:0:0:
137,246,78502,1,0,1:0:0:0:
95,234,78595,1,0,1:0:0:0:
57,175,78689,1,8,3:2:0:0:
288,189,79249,5,4,1:0:0:0:
245,177,79343,1,0,1:0:0:0:
208,200,79436,1,0,1:0:0:0:
182,263,79530,1,0,1:0:0:0:
163,302,79623,1,0,1:0:0:0:
123,320,79716,1,0,1:0:0:0:
57,312,79810,1,8,3:2:0:0:
229,155,80371,5,4,1:2:0:0:
212,195,80465,1,0,1:0:0:0:
229,234,80558,1,0,1:0:0:0:
288,253,80652,1,0,1:0:0:0:
330,246,80745,1,0,1:0:0:0:
366,269,80838,1,0,1:0:0:0:
394,328,80932,1,8,3:2:0:0:
191,218,81492,5,4,1:0:0:0:
238,215,81586,1,0,1:0:0:0:
276,186,81679,1,0,1:0:0:0:
293,118,81773,1,0,1:0:0:0:
246,106,81866,1,0,1:0:0:0:
206,132,81959,1,0,1:0:0:0:
247,191,82053,1,8,3:2:0:0:
402,189,82614,5,4,1:2:0:0:
355,186,82708,1,0,1:0:0:0:
317,157,82801,1,0,1:0:0:0:
300,89,82895,1,0,1:0:0:0:
347,77,82988,1,0,1:0:0:0:
387,103,83081,1,0,1:0:0:0:
342,158,83174,6,0,L|338:113,2,29.7499990921021,8|8|8,3:2|3:2|3:2,0:0:0:0:
272,254,83455,5,8,3:2:0:0:
426,168,83595,1,8,3:2:0:0:
265,172,83735,6,0,B|228:173|202:153|202:153|166:194|109:198,1,170,0|10,1:1|3:2,0:0:0:0:
112,197,84296,2,0,P|95:228|63:275,1,85,2|0,1:3|1:0,0:0:0:0:
67,269,84576,1,10,3:2:0:0:
219,321,84716,2,0,B|241:326|282:326|282:326|311:361|311:361|347:364|385:379,1,170,0|0,1:0|1:0,0:0:0:0:
439,265,85137,2,0,P|400:279|353:288,1,85,10|0,3:2|1:0,0:0:0:0:
199,222,85417,5,2,0:3:0:0:
332,142,85558,1,0,1:0:0:0:
332,142,85628,1,0,0:0:0:0:
332,142,85698,2,0,P|372:157|419:200,1,85,10|0,3:2|1:0,0:0:0:0:
196,143,85978,6,0,B|96:157|132:205|32:214,1,170,2|10,1:2|3:2,0:0:0:0:
129,34,86399,2,0,P|231:105|286:94,1,170,0|0,1:0|1:0,0:0:0:0:
371,254,86819,1,10,3:2:0:0:
297,190,86959,2,0,P|271:184|234:168,2,42.5,0|0|2,1:0|0:0|0:3,0:0:0:0:
178,313,87240,2,0,P|208:306|279:279,1,85,0|10,1:0|3:2,0:0:0:0:
446,180,87520,6,0,B|409:170|409:170|374:136|374:136|326:123,1,127.5,0|0,1:0|0:0,0:0:0:0:
317,106,87801,2,0,L|329:63,1,42.5,0|0,1:3|1:0,0:0:0:0:
239,166,87941,1,10,3:2:0:0:
410,64,88081,1,0,1:0:0:0:
184,100,88221,6,0,P|148:92|95:57,2,85,0|0|0,3:1|3:1|3:1,0:0:0:0:
95,179,88642,2,0,P|67:190|31:196,2,63.7500024318696,0|8|0,3:1|3:2|3:2,0:0:0:0:
34,279,89062,2,0,P|18:293|0:302,1,42.5,8|0,3:2|3:1,0:0:0:0:
34,279,89343,5,8,3:2:0:0:
4,318,89483,1,8,3:2:0:0:
105,300,89623,5,8,3:2:0:0:
71,371,89763,1,8,3:2:0:0:
214,265,89903,5,8,3:2:0:0:
413,351,90044,5,8,3:2:0:0:
343,301,90184,1,8,3:2:0:0:
278,204,90324,1,8,3:2:0:0:
478,111,90464,5,8,3:2:0:0:
478,111,90534,1,8,3:3:0:0:
478,111,90604,2,0,P|477:129|447:153,1,42.5,8|0,0:3|0:0,0:0:0:0:
367,231,90745,2,0,P|353:215|351:194,1,42.5,4|8,3:3|0:3,0:0:0:0:
305,78,90885,2,0,P|325:80|341:93,1,42.5,8|8,0:3|0:3,0:0:0:0:
396,156,91025,5,8,3:2:0:0:
396,156,91095,1,8,0:3:0:0:
396,156,91165,2,0,L|345:170,1,42.5,8|0,0:3|0:0,0:0:0:0:
274,218,91305,1,4,3:3:0:0:
274,218,91375,1,8,0:3:0:0:
274,218,91445,2,0,L|223:204,1,42.5,8|8,0:3|0:3,0:0:0:0:
68,192,91586,6,0,B|41:199|41:199|2:226,2,56.6666666666667,8|8|8,3:2|3:2|3:3,0:0:0:0:
205,114,91866,2,0,B|223:93|223:93|238:44,2,56.6666666666667,4|0|0,3:3|1:3|1:3,0:0:0:0:
126,238,92146,5,8,3:2:0:0:
196,217,92240,1,8,3:2:0:0:
244,239,92333,1,8,3:2:0:0:
290,290,92427,1,8,3:2:0:0:
340,310,92520,1,8,3:2:0:0:
410,285,92614,1,8,3:2:0:0:
455,238,92707,6,0,L|367:219,1,85,12|8,3:2|3:2,0:0:0:0:
371,220,92917,1,0,3:1:0:0:
371,220,92987,1,8,3:2:0:0:
182,138,93128,1,8,3:2:0:0:
98,150,93268,6,0,L|200:136,1,85,8|8,3:2|3:2,0:0:0:0:
182,138,93478,1,0,3:0:0:0:
182,138,93548,1,8,3:2:0:0:
342,35,93688,2,0,B|349:107|287:121|286:199,1,170,4|0,1:1|0:0,0:0:0:0:
333,314,94109,2,0,P|279:289|256:288,1,70.1250021400452,2|0,0:0|0:0,0:0:0:0:
196,300,94389,5,8,3:3:0:0:
134,311,94483,5,8,3:3:0:0:
71,268,94576,5,8,3:3:0:0:
68,217,94670,6,0,P|94:232|127:271,1,70.1250021400452,8|0,3:2|0:0,0:0:0:0:
201,384,94950,6,0,B|200:356|227:310|227:310|204:294,1,89.2499972763062,4|0,1:2|1:0,0:0:0:0:
289,86,95230,2,0,L|296:204,1,89.2499972763062,10|0,0:0|1:0,0:0:0:0:
292,229,95441,1,0,0:0:0:0:
298,242,95511,1,0,1:2:0:0:
438,186,95651,1,0,1:0:0:0:
313,312,95791,1,10,0:0:0:0:
470,300,95931,6,0,B|393:264|393:264|311:313,1,178.499994552612,0|0,1:0|1:0,0:0:0:0:
379,364,96282,2,0,L|429:375,1,44.6249986381531,0|10,1:0|0:0,0:0:0:0:
383,175,96492,6,0,B|363:126|363:126|292:125|292:125|269:70,1,178.499994552612,0|0,1:0|1:0,0:0:0:0:
467,20,96913,2,0,L|452:114,1,89.2499972763062,10|0,0:0|1:0,0:0:0:0:
327,284,97193,5,0,1:1:0:0:
263,212,97333,1,0,1:0:0:0:
422,301,97473,1,10,0:0:0:0:
215,331,97614,6,0,B|200:272|232:241|232:241|230:234|230:234|185:245|148:212,1,178.499994552612,0|0,1:0|1:0,0:0:0:0:
33,117,98034,1,10,0:0:0:0:
101,18,98174,6,0,B|68:117|68:117|89:146|163:141,1,178.499994552612,0|0,1:0|1:0,0:0:0:0:
135,141,98525,1,0,1:0:0:0:
135,141,98595,1,14,0:0:0:0:
99,282,98735,1,0,1:0:0:0:
275,261,98875,5,14,0:0:0:0:
275,261,98945,2,0,P|277:226|289:160,1,89.2499972763062,0|0,0:0|1:0,0:0:0:0:
285,172,99156,2,0,P|301:178|335:187,1,44.6249986381531,14|0,0:0|0:0,0:0:0:0:
459,250,99296,2,0,P|438:256|403:265,1,44.6249986381531,0|0,0:0|1:0,0:0:0:0:
422,179,99436,6,0,P|465:168|509:171,1,89.2499972763062,4|0,1:1|1:0,0:0:0:0:
340,336,99716,1,10,0:0:0:0:
203,242,99857,5,0,1:0:0:0:
203,242,99927,1,0,0:0:0:0:
203,242,99997,2,0,P|175:255|187:211,1,89.2499972763062,0|0,1:2|1:0,0:0:0:0:
340,336,100277,1,10,0:0:0:0:
251,168,100417,6,0,B|217:173|193:183|193:183|166:164|166:164|161:163|161:163|138:144|138:144|110:153|76:160,1,178.499994552612,0|0,1:0|1:0,0:0:0:0:
21,160,100768,1,0,1:0:0:0:
4,168,100838,1,10,0:0:0:0:
93,232,100978,1,0,1:0:0:0:
14,131,101118,1,0,1:0:0:0:
153,284,101259,2,0,B|147:303|147:303|141:327,2,44.6249986381531,0|0|10,1:0|0:0|0:0,0:0:0:0:
322,161,101539,1,0,1:0:0:0:
190,88,101679,6,0,P|205:104|234:184,1,89.2499972763062,0|0,1:1|1:0,0:0:0:0:
417,61,101959,2,0,P|375:46|340:18,1,89.2499972763062,10|0,0:0|1:0,0:0:0:0:
374,241,102240,2,0,P|404:209|444:189,1,89.2499972763062,0|0,1:0|1:0,0:0:0:0:
328,126,102520,1,10,0:0:0:0:
463,269,102660,6,0,B|360:244|382:303|277:273,1,178.499994552612,4|0,1:0|1:0,0:0:0:0:
147,360,103081,1,14,0:0:0:0:
335,365,103221,5,8,3:3:0:0:
335,365,103291,1,8,3:3:0:0:
335,365,103361,2,0,P|321:379|294:368,1,44.6249986381531,8|8,3:3|3:3,0:0:0:0:
160,371,103502,5,8,3:3:0:0:
160,371,103572,1,8,3:3:0:0:
160,371,103642,2,0,P|175:352|180:307,1,57.3750002188683,4|8,3:3|3:3,0:0:0:0:
288,227,103782,2,0,L|221:237,1,57.3750002188683,8|0,3:3|3:3,0:0:0:0:
77,211,103922,6,0,P|43:237|67:287,1,89.2499972763062,4|0,1:2|1:0,0:0:0:0:
166,384,104202,1,10,0:0:0:0:
305,323,104343,2,0,P|323:324|361:336,2,44.6249986381531,0|0|0,1:0|0:0|1:2,0:0:0:0:
411,384,104623,2,0,P|393:358|386:287,1,89.2499972763062,0|10,1:0|0:0,0:0:0:0:
488,93,104903,6,0,P|465:197|397:201,1,178.499994552612,0|0,1:0|1:0,0:0:0:0:
407,204,105254,1,0,1:0:0:0:
407,204,105324,1,10,0:0:0:0:
305,177,105464,1,0,1:0:0:0:
151,231,105604,5,0,1:0:0:0:
151,231,105674,1,0,1:0:0:0:
151,231,105745,2,0,L|83:244,1,44.6249986381531,0|0,1:0|1:0,0:0:0:0:
30,257,105885,2,0,B|51:268|80:266|80:266|108:295|108:295|133:292|169:308,1,133.874995914459,10|8,0:0|3:2,0:0:0:0:
220,338,106165,5,0,1:1:0:0:
283,255,106305,1,0,1:0:0:0:
190,139,106445,1,10,0:0:0:0:
336,50,106586,2,0,B|408:10|452:100|515:78,1,178.499994552612,0|0,1:0|1:0,0:0:0:0:
298,173,107006,5,10,0:0:0:0:
254,13,107146,2,0,B|203:34|203:34|223:164,1,178.499994552612,0|0,1:0|1:0,0:0:0:0:
221,155,107497,1,0,1:0:0:0:
221,155,107567,2,0,L|116:149,1,89.2499972763062,14|0,0:0|1:0,0:0:0:0:
0,164,107847,6,0,P|-1:196|36:223,1,63.7500024318696,14|0,0:0|0:0,0:0:0:0:
133,312,107987,5,0,1:0:0:0:
133,312,108058,1,0,1:0:0:0:
133,312,108128,2,0,L|98:323,1,27.6249987354279,14|0,0:0|0:0,0:0:0:0:
158,287,108268,2,0,L|193:301,1,27.6249987354279,0|0,0:0|1:0,0:0:0:0:
306,339,108408,5,4,1:1:0:0:
240,211,108548,2,0,L|183:220,2,44.6249986381531,0|0|10,1:0|0:0|0:0,0:0:0:0:
390,110,108829,2,0,L|466:124,2,44.6249986381531,0|0|0,1:0|0:0|1:2,0:0:0:0:
294,4,109109,2,0,B|311:52|311:52|285:99,1,89.2499972763062,0|10,1:0|0:0,0:0:0:0:
344,262,109389,6,0,B|412:225|466:331|526:294,1,178.499994552612,0|0,1:0|1:0,0:0:0:0:
512,277,109740,1,0,1:0:0:0:
502,274,109810,1,10,0:0:0:0:
338,186,109950,2,0,P|287:198|214:273,1,133.874995914459,0|0,1:0|0:0,0:0:0:0:
141,312,110230,6,0,B|147:299|140:283|155:251,1,44.6249986381531,0|0,1:0|0:0,0:0:0:0:
212,126,110371,2,0,P|175:125|134:67,1,89.2499972763062,10|0,0:0|1:0,0:0:0:0:
114,19,110581,1,8,3:2:0:0:
114,19,110651,5,4,1:1:0:0:
171,72,110791,1,0,1:0:0:0:
232,25,110931,1,10,0:0:0:0:
441,82,111072,2,0,B|406:93|380:92|380:92|346:140|346:140|319:141|277:162,1,178.499994552612,4|0,1:2|1:0,0:0:0:0:
130,199,111492,5,10,0:0:0:0:
36,260,111632,2,0,B|123:236|123:236|218:296,1,178.499994552612,4|0,1:0|1:0,0:0:0:0:
380,359,112053,5,8,2:0:0:0:
329,294,112193,1,8,2:0:0:0:
428,338,112333,5,8,2:0:0:0:
278,298,112473,1,8,2:0:0:0:
458,274,112614,5,8,2:0:0:0:
238,362,112754,1,8,2:0:0:0:
512,212,112894,6,0,P|419:188|342:198,1,152.999995330811,6|0,1:2|1:0,0:0:0:0:
117,18,113455,2,0,B|107:71|162:99|162:99|165:104|165:104|108:127|110:174,1,191.249994163513,12|0,3:2|0:0,0:0:0:0:
121,226,113875,2,0,L|130:177,1,38.2499988327027,0|0,1:0|0:0,0:0:0:0:
32,105,114016,6,0,P|36:133|7:180,1,76.4999976654053,0|0,0:0|1:0,0:0:0:0:
222,263,114296,2,0,P|254:244|298:248,1,76.4999976654053,0|0,1:0|1:0,0:0:0:0:
49,342,114576,5,12,3:2:0:0:
219,175,114716,6,0,P|263:181|248:277,1,152.999995330811,0|0,1:0|3:0,0:0:0:0:
190,299,115067,1,8,2:0:0:0:
140,268,115137,2,0,P|174:256|359:310,1,229.499992996216,0|0,1:0|0:0,0:0:0:0:
512,360,115698,5,12,3:2:0:0:
512,360,116118,2,0,L|506:291,1,38.2499988327027,0|0,1:0|0:0,0:0:0:0:
502,145,116259,6,0,P|475:172|417:163,1,76.4999976654053
232,250,116539,2,0,P|205:223|168:220,1,76.4999976654053,0|0,1:0|1:0,0:0:0:0:
417,295,116819,5,12,3:2:0:0:
417,295,116959,2,0,P|387:272|372:229,1,76.4999976654053,0|0,1:0|3:0,0:0:0:0:
372,236,117310,1,8,2:0:0:0:
372,236,117380,6,0,P|333:274|238:262,1,152.999995330811,0|0,1:0|1:0,0:0:0:0:
208,246,117730,1,8,0:0:0:0:
178,240,117801,1,8,0:0:0:0:
132,252,117871,1,8,0:0:0:0:
91,297,117941,1,12,3:2:0:0:
83,325,118361,6,0,L|131:333,2,38.2499988327027,0|8|8,1:0|0:3|0:3,0:0:0:0:
45,266,118642,1,0,1:0:0:0:
45,266,118712,1,0,1:0:0:0:
45,266,118782,2,0,L|130:256,1,76.4999976654053,0|0,1:0|1:0,0:0:0:0:
417,161,119062,5,12,3:2:0:0:
477,159,119202,2,0,L|389:147,1,76.4999976654053,0|0,1:0|3:0,0:0:0:0:
218,66,119623,5,0,1:0:0:0:
242,105,119763,1,0,1:0:0:0:
260,178,119903,1,0,1:0:0:0:
242,105,120044,1,0,1:0:0:0:
146,7,120184,5,12,3:2:0:0:
146,7,120324,1,0,0:0:0:0:
146,7,120604,2,0,P|129:35|84:73,1,76.4999976654053,12|0,3:2|0:0,0:0:0:0:
8,189,120885,6,0,B|45:194|16:175|51:177,5,38.2499988327027,4|8|8|8|8|0,1:3|3:3|1:3|3:2|3:2|3:2,0:0:0:0:
55,193,121305,5,4,3:0:0:0:
82,177,121375,1,8,3:2:0:0:
124,174,121445,1,8,3:2:0:0:
155,187,121516,1,4,3:0:0:0:
188,219,121586,1,0,1:0:0:0:
230,248,121656,1,0,1:0:0:0:
278,257,121726,1,8,3:2:0:0:
328,236,121796,1,8,3:2:0:0:
377,190,121866,6,0,B|357:184|357:184|361:181|361:181|332:173,1,44.6249986381531,4|0,1:2|0:0,0:0:0:0:
364,119,122006,2,0,B|344:125|344:125|348:128|348:128|329:132,1,44.6249986381531,0|0,1:0|0:0,0:0:0:0:
272,180,122146,1,10,0:0:0:0:
445,156,122287,6,0,P|361:153|265:183,1,178.499994552612,0|0,1:0|1:0,0:0:0:0:
130,310,122707,1,10,0:0:0:0:
0,210,122847,6,0,B|143:188|143:188|174:216,1,178.499994552612,0|0,1:0|1:0,0:0:0:0:
206,277,123198,1,0,1:0:0:0:
206,277,123268,1,10,0:0:0:0:
319,118,123408,2,0,B|266:111|266:111|255:104|255:104|240:107|240:107|175:98,1,133.874995914459,0|0,1:0|0:0,0:0:0:0:
82,114,123688,6,0,P|91:95|98:52,1,44.6249986381531,0|0,1:0|0:0,0:0:0:0:
208,235,123829,2,0,P|245:228|295:197,1,89.2499972763062,10|0,0:0|1:0,0:0:0:0:
455,70,124109,5,0,1:1:0:0:
303,125,124249,1,0,1:0:0:0:
412,274,124389,1,10,0:0:0:0:
455,70,124530,6,0,B|403:42|403:42|422:177,1,178.499994552612,0|0,1:0|1:0,0:0:0:0:
247,223,124950,1,10,0:0:0:0:
498,272,125090,6,0,L|296:249,1,178.499994552612,0|0,1:0|1:0,0:0:0:0:
253,230,125441,1,0,1:0:0:0:
253,230,125511,1,14,0:0:0:0:
321,327,125651,1,0,1:0:0:0:
155,195,125791,2,0,L|172:131,2,44.6249986381531,14|0|0,0:0|0:0|1:0,0:0:0:0:
155,195,126002,1,0,1:0:0:0:
155,195,126072,1,14,0:0:0:0:
1,295,126212,1,0,0:0:0:0:
18,87,126352,6,0,B|31:129|31:129|12:178,1,89.2499972763062,4|0,1:1|1:0,0:0:0:0:
234,266,126632,1,10,0:0:0:0:
367,172,126773,1,0,1:0:0:0:
360,164,126843,1,0,0:0:0:0:
351,156,126913,2,0,L|249:141,1,89.2499972763062,0|0,1:2|1:0,0:0:0:0:
108,253,127193,5,10,0:0:0:0:
66,345,127333,2,0,L|173:327,1,89.2499972763062,0|0,1:0|2:0,0:0:0:0:
420,212,127614,5,0,1:0:0:0:
426,204,127684,1,0,1:0:0:0:
432,197,127754,1,10,0:0:0:0:
488,368,127894,2,0,B|436:346|378:336|378:336|358:286,1,133.874995914459,0|0,1:0|0:0,0:0:0:0:
361,285,128174,2,0,L|341:396,1,89.2499972763062,0|0,1:0|0:0,0:0:0:0:
512,243,128455,2,0,L|502:166,1,44.6249986381531,0|0,1:0|0:0,0:0:0:0:
480,118,128595,5,0,1:1:0:0:
410,208,128735,1,0,1:0:0:0:
275,105,128875,1,10,0:0:0:0:
185,276,129016,2,0,P|143:295|-12:317,1,178.499994552612,0|0,1:0|1:0,0:0:0:0:
163,167,129436,5,10,0:0:0:0:
310,253,129576,1,4,1:0:0:0:
310,253,129646,2,0,P|339:269|419:346,1,133.874995914459,0|0,0:0|1:0,0:0:0:0:
174,309,129997,5,14,0:0:0:0:
229,241,130137,1,0,0:0:0:0:
354,178,130277,1,8,3:3:0:0:
174,309,130417,5,0,0:0:0:0:
241,169,130558,1,4,3:3:0:0:
407,106,130698,1,0,0:0:0:0:
103,221,130838,6,0,P|91:186|109:83,1,136,4|10,1:1|3:2,0:0:0:0:
125,60,131399,2,0,P|102:83|58:94,1,68,0|0,0:0|1:0,0:0:0:0:
181,167,131679,1,10,3:2:0:0:
227,153,131819,2,0,P|193:141|163:113,1,68,0|0,1:0|0:0,0:0:0:0:
28,243,132100,6,0,P|15:254|0:261,2,34,0|0|10,1:0|1:0|3:2,0:0:0:0:
183,270,132380,1,0,1:0:0:0:
44,218,132520,2,0,P|69:237|121:248,1,68,2|0,0:3|1:0,0:0:0:0:
239,321,132801,2,0,P|271:316|311:287,1,68,10|0,3:2|1:0,0:0:0:0:
356,343,133081,2,0,P|368:293|449:266,1,136,2|10,1:2|3:2,0:0:0:0:
511,137,133502,6,0,P|493:147|466:152,1,45.3333333333333,2|0,0:0|0:0,0:0:0:0:
440,99,133688,2,0,P|463:101|493:122,1,45.3333333333333,2|0,0:2|0:0,0:0:0:0:
401,191,133875,6,0,P|380:180|360:153,1,45.3333333333333,2|0,0:2|0:0,0:0:0:0:
416,81,134062,2,0,P|427:101|431:129,1,45.3333333333333,2|0,0:2|0:0,0:0:0:0:
293,152,134249,6,0,P|299:132|324:109,1,45.3333333333333,2|0,0:2|1:0,0:0:0:0:
427,203,134436,2,0,P|411:216|382:222,1,45.3333333333333,2|0,0:2|0:0,0:0:0:0:
374,36,134623,6,0,P|390:38|420:52,1,45.3333333333333,2|0,0:2|0:0,0:0:0:0:
253,152,134810,2,0,P|239:137|232:98,1,45.3333333333333,2|0,0:2|1:3,0:0:0:0:
403,146,134997,6,0,P|400:165|381:194,1,45.3333333333333,2|0,0:2|0:0,0:0:0:0:
257,28,135184,2,0,P|277:14|311:9,1,45.3333333333333,2|0,0:2|0:0,0:0:0:0:
498,37,135371,6,0,P|452:56|377:60,1,113.333333333333,2|10,1:2|3:2,0:0:0:0:
260,127,135745,2,0,P|158:90|119:103,1,136,0|0,1:0|1:0,0:0:0:0:
52,130,136165,1,10,3:2:0:0:
10,144,136305,2,0,P|57:155|156:197,1,136,0|0,1:0|1:0,0:0:0:0:
138,187,136656,1,0,1:0:0:0:
138,187,136726,2,0,P|145:213|165:257,1,68,10|0,3:2|1:0,0:0:0:0:
129,278,137006,2,0,P|159:292|192:301,1,68,2|0,0:3|1:0,0:0:0:0:
231,363,137287,2,0,P|257:356|301:336,1,68,10|0,3:2|1:0,0:0:0:0:
405,280,137520,5,0,0:0:0:0:
405,280,137567,2,0,B|348:286|317:251|270:259,1,136,2|10,1:2|3:2,0:0:0:0:
344,157,137987,2,0,P|239:242|186:218,1,204,0|10,1:0|3:2,0:0:0:0:
88,269,138548,2,0,P|102:244|139:125,1,136,0|0,1:0|1:0,0:0:0:0:
136,142,138899,1,0,1:0:0:0:
136,142,138969,2,0,P|122:111|116:67,1,68,10|0,3:2|1:0,0:0:0:0:
228,287,139249,5,8,3:2:0:0:
337,187,139389,1,0,3:2:0:0:
343,171,139459,1,0,3:2:0:0:
337,151,139530,1,8,3:2:0:0:
211,207,139670,1,8,3:2:0:0:
294,253,139810,2,0,P|326:244|356:224,1,68,2|0,1:2|1:0,0:0:0:0:
458,135,140090,5,10,3:2:0:0:
389,79,140230,2,0,P|323:54|275:0,1,136,0|0,1:0|1:0,0:0:0:0:
234,153,140651,5,10,3:2:0:0:
220,63,140791,2,0,P|195:129|141:177,1,136,0|0,1:0|1:0,0:0:0:0:
148,172,141142,1,0,1:0:0:0:
148,172,141212,1,10,3:2:0:0:
289,236,141352,2,0,P|355:261|403:315,1,136,0|0,1:0|1:0,0:0:0:0:
500,343,141773,2,0,P|469:353|443:381,1,68,10|0,3:2|1:0,0:0:0:0:
225,282,142053,6,0,P|250:241|282:139,1,136,2|10,1:2|3:2,0:0:0:0:
161,252,142473,2,0,P|177:281|254:350,1,136,0|0,1:0|1:0,0:0:0:0:
252,349,142894,1,10,3:2:0:0:
196,187,143034,2,0,P|141:219|84:278,1,136,0|0,1:0|1:0,0:0:0:0:
90,269,143385,1,0,1:0:0:0:
90,269,143455,2,0,P|66:290|25:302,1,68,10|0,3:2|1:0,0:0:0:0:
152,107,143735,5,8,0:2:0:0:
195,96,143829,1,8,0:3:0:0:
236,117,143922,1,8,0:3:0:0:
277,155,144016,1,4,3:3:0:0:
317,161,144109,1,4,3:3:0:0:
356,133,144202,1,4,3:3:0:0:
293,82,144296,6,0,L|239:93,2,50.9999984436036,0|0|0,1:1|1:1|1:1,0:0:0:0:
333,47,144576,2,0,L|386:57,2,50.9999984436036,10|0|0,3:2|1:1|1:1,0:0:0:0:
195,23,144857,5,2,1:3:0:0:
217,29,144950,2,0,B|238:36|238:36|271:64,1,50.9999984436036,0|0,1:1|1:1,0:0:0:0:
381,135,145137,5,10,3:2:0:0:
364,145,145230,2,0,B|341:157|341:157|319:183,1,50.9999984436036,0|0,1:1|1:1,0:0:0:0:
224,286,145417,6,0,L|237:182,1,85,2|0,0:3|1:0,0:0:0:0:
234,201,145628,1,0,1:0:0:0:
234,201,145698,2,0,P|191:186|151:162,1,85,10|0,3:2|1:0,0:0:0:0:
40,112,145978,2,0,P|54:150|60:206,1,85,2|0,0:3|1:0,0:0:0:0:
92,319,146259,2,0,P|108:281|140:235,1,85,10|0,3:2|1:0,0:0:0:0:
143,244,146469,1,0,3:0:0:0:
154,251,146539,6,0,P|43:314|-5:293,1,170,2|10,1:2|3:2,0:0:0:0:
218,331,146959,2,0,L|392:360,1,170,0|0,1:0|1:0,0:0:0:0:
385,358,147380,2,0,L|286:370,1,85,10|4,3:2|1:2,0:0:0:0:
300,368,148081,1,8,3:2:0:0:
227,204,148221,5,8,3:3:0:0:
290,168,148315,5,8,3:3:0:0:
343,217,148408,5,8,3:3:0:0:
281,250,148502,6,0,B|281:223|281:223|286:220|286:220|295:118|295:118|293:109|293:109|300:72,1,170,12|4,3:2|1:0,0:0:0:0:
99,142,149062,5,10,2:0:0:0:
32,29,149202,2,0,P|38:53|59:77,1,50.9999984436036
188,135,149483,2,0,P|209:116|219:81,1,50.9999984436036,0|10,1:0|2:0,0:0:0:0:
92,311,149903,5,0,1:0:0:0:
233,140,150184,1,10,2:0:0:0:
137,340,150464,2,0,P|131:313|109:282,1,50.9999984436036,0|0,1:0|1:0,0:0:0:0:
296,101,150745,2,0,P|275:147|274:205,1,101.999996887207,10|0,2:0|1:0,0:0:0:0:
302,238,151305,5,10,2:0:0:0:
417,137,151445,2,0,P|431:117|447:83,1,50.9999984436036
370,127,151726,1,0,1:0:0:0:
439,215,151866,2,0,P|459:226|496:233,1,50.9999984436036,10|0,2:0|0:0,0:0:0:0:
353,201,152146,6,0,P|351:230|338:305,2,101.999996887207,0|10|0,1:0|2:0|1:0,0:0:0:0:
298,210,152847,1,0,3:0:0:0:
381,317,152987,1,10,2:0:0:0:
134,231,153268,6,0,P|104:246|36:263,1,101.999996887207,4|10,1:2|2:0,0:0:0:0:
173,163,153688,2,0,P|185:168|213:195,1,50.9999984436036
357,298,153969,2,0,P|381:292|403:280,1,50.9999984436036,0|10,1:0|2:0,0:0:0:0:
108,303,154389,5,0,1:0:0:0:
324,151,154670,1,10,2:0:0:0:
354,135,154810,2,0,P|328:122|296:120,1,50.9999984436036,0|0,0:0|1:0,0:0:0:0:
225,187,155090,1,0,1:0:0:0:
110,73,155230,2,0,P|85:75|62:86,1,50.9999984436036,10|0,2:0|0:0,0:0:0:0:
13,199,155511,6,0,P|35:190|108:149,2,101.999996887207,0|10|0,1:0|2:0|1:0,0:0:0:0:
13,199,156212,2,0,L|3:255,1,50.9999984436036,0|10,1:0|2:0,0:0:0:0:
267,374,156632,5,10,1:2:0:0:
253,366,156773,1,0,0:0:0:0:
218,310,156913,5,10,1:2:0:0:
272,269,157053,1,0,0:0:0:0:
303,199,157193,5,10,1:2:0:0:
230,157,157333,1,0,0:0:0:0:
218,310,157473,5,14,1:2:0:0:
375,224,157614,1,0,3:0:0:0:
88,205,157754,6,0,B|139:195|169:251|218:236,1,127.500004863739,4|10,1:0|2:0,0:0:0:0:
135,325,158174,2,0,P|95:345|64:353,1,63.7500024318696
321,272,158455,2,0,P|351:282|379:297,1,63.7500024318696,0|10,1:0|2:0,0:0:0:0:
420,139,158875,6,0,P|377:162|283:184,1,127.500004863739,0|10,1:0|2:0,0:0:0:0:
301,182,159436,1,0,1:0:0:0:
463,282,159576,2,0,P|469:250|481:216,1,63.7500024318696,0|10,1:0|2:0,0:0:0:0:
212,84,159997,6,0,P|214:108|228:184,1,95.6250036478044,0|0,1:0|0:0,0:0:0:0:
226,178,160277,2,0,P|196:192|151:232,1,63.7500024318696,10|0,2:0|0:0,0:0:0:0:
76,50,160558,1,0,0:0:0:0:
0,110,160698,2,0,P|10:117|73:135,1,63.7500024318696,0|10,1:0|2:0,0:0:0:0:
377,22,161118,6,0,P|333:42|297:126,1,127.500004863739,0|10,1:0|2:0,0:0:0:0:
85,299,161539,6,0,P|107:301|252:245,1,159.375,4|0,1:0|0:0,0:0:0:0:
280,197,161819,1,8,3:2:0:0:
203,247,161959,1,8,3:2:0:0:
140,372,162100,1,8,3:2:0:0:
319,225,162240,6,0,P|266:139|189:160,1,170,4|10,1:2|3:2,0:0:0:0:
281,63,162660,2,0,P|188:117|114:105,1,170,0|0,0:0|1:0,0:0:0:0:
45,226,163081,1,10,3:2:0:0:
45,131,163221,6,0,P|67:133|222:182,1,170,0|0,1:0|1:0,0:0:0:0:
360,235,163642,2,0,P|365:209|390:154,1,85,10|0,3:2|1:0,0:0:0:0:
233,300,163922,1,0,0:0:0:0:
286,204,164062,1,0,1:0:0:0:
197,72,164202,2,0,P|204:95|216:213,1,127.5,2|0,0:0|0:0,0:0:0:0:
216,197,164483,6,0,P|116:262|46:229,2,170,0|10|0,1:0|3:2|1:0,0:0:0:0:
331,233,165184,1,0,1:0:0:0:
213,121,165324,1,10,3:2:0:0:
350,63,165464,2,0,P|383:55|480:5,1,127.5,0|0,1:0|0:0,0:0:0:0:
466,14,165745,2,0,P|455:36|439:115,1,85,0|8,1:0|3:2,0:0:0:0:
502,243,166025,5,8,3:2:0:0:
358,196,166165,1,8,3:2:0:0:
489,149,166305,1,8,3:2:0:0:
367,297,166445,1,8,3:2:0:0:
248,117,166586,1,8,3:2:0:0:
433,205,166726,5,4,1:0:0:0:
433,205,166819,2,0,P|409:220|367:220,1,56.6666666666667,8|8,1:2|1:2,0:0:0:0:
253,112,167006,1,8,3:3:0:0:
253,112,167100,2,0,P|278:118|311:152,1,56.6666666666667,4|4,3:3|1:3,0:0:0:0:
407,202,167287,5,4,1:0:0:0:
364,192,167380,1,8,1:2:0:0:
305,214,167473,1,8,1:2:0:0:
255,249,167567,1,8,3:3:0:0:
200,270,167660,1,4,3:3:0:0:
154,264,167754,1,4,1:3:0:0:
116,233,167847,1,4,1:0:0:0:
23,265,168128,6,0,P|48:242|103:150,1,127.5,8|0,3:3|0:0,0:0:0:0:
135,77,168408,5,0,1:3:0:0:
107,27,168502,5,0,1:3:0:0:
33,5,168595,5,0,1:3:0:0:
0,75,168688,6,0,P|27:88|67:93,1,63.75,12|0,1:2|0:0,0:0:0:0:
150,52,168969,5,4,1:2:0:0:
211,79,169109,1,0,1:0:0:0:
287,40,169249,1,10,0:0:0:0:
436,140,169389,2,0,P|416:125|415:102,2,46.7500014266968,0|0|0,1:0|0:0|1:2,0:0:0:0:
510,92,169670,1,0,1:0:0:0:
367,136,169810,1,10,0:0:0:0:
512,199,169950,6,0,B|447:177|447:177|406:217|406:217|341:230,1,187.000005706787,0|0,1:0|1:0,0:0:0:0:
286,248,170301,1,0,1:0:0:0:
272,241,170371,1,10,0:0:0:0:
386,32,170511,2,0,B|411:69|411:69|377:142,1,93.5000028533936,0|0,1:0|1:0,0:0:0:0:
349,343,170791,5,0,1:0:0:0:
292,289,170931,1,10,0:0:0:0:
372,272,171072,1,0,1:0:0:0:
372,272,171142,1,8,3:2:0:0:
372,272,171212,5,0,1:1:0:0:
280,360,171352,1,0,1:0:0:0:
195,295,171492,1,10,0:0:0:0:
297,255,171632,2,0,P|328:275|302:329,1,93.5000028533936,0|0,1:0|1:0,0:0:0:0:
147,195,171913,2,0,B|183:190|218:215|218:215|239:205,1,93.5000028533936,0|10,1:0|0:0,0:0:0:0:
507,115,172193,6,0,B|452:97|403:125|403:125|362:157|326:147,1,187.000005706787,0|0,1:0|1:0,0:0:0:0:
242,217,172544,1,0,1:0:0:0:
242,217,172614,2,0,L|259:108,1,93.5000028533936,14|0,0:0|1:0,0:0:0:0:
89,278,172894,5,14,0:0:0:0:
256,124,173034,2,0,P|231:135|171:147,1,46.7500014266968,0|0,1:0|1:0,0:0:0:0:
123,167,173174,5,14,0:0:0:0:
227,349,173315,2,0,P|201:341|170:317,1,46.7500014266968,0|0,0:0|1:0,0:0:0:0:
89,278,173455,5,4,1:1:0:0:
205,215,173595,1,0,1:0:0:0:
108,247,173735,1,10,0:0:0:0:
221,319,173875,2,0,P|238:303|218:274,2,46.7500014266968,0|0|0,1:0|0:0|1:2,0:0:0:0:
386,228,174156,1,0,1:0:0:0:
510,335,174296,5,10,0:0:0:0:
510,335,174436,2,0,B|506:368|506:368|345:308,1,187.000005706787,0|0,1:0|1:0,0:0:0:0:
285,270,174787,1,0,1:0:0:0:
275,264,174857,1,10,0:0:0:0:
386,228,174997,1,0,1:0:0:0:
265,307,175137,1,0,1:0:0:0:
430,384,175277,1,0,1:0:0:0:
436,171,175417,6,0,P|427:198|490:261,1,93.5000028533936,10|0,0:0|1:0,0:0:0:0:
133,140,175698,6,0,P|172:126|223:90,1,93.5000028533936,0|0,1:1|1:0,0:0:0:0:
360,307,175978,2,0,P|321:280|277:264,1,93.5000028533936,10|0,0:0|1:0,0:0:0:0:
469,95,176259,2,0,P|485:138|511:177,1,93.5000028533936,0|0,1:0|1:0,0:0:0:0:
300,61,176539,1,10,0:0:0:0:
427,223,176679,6,0,P|321:153|279:175,1,187.000005706787,4|0,1:0|1:0,0:0:0:0:
105,309,177100,1,14,0:0:0:0:
226,376,177240,6,0,P|253:365|315:304,1,93.5000028533936,0|8,0:0|3:3,0:0:0:0:
346,260,177473,1,8,3:3:0:0:
305,225,177567,1,8,3:3:0:0:
247,228,177660,1,4,3:3:0:0:
216,268,177754,1,4,3:3:0:0:
243,310,177847,1,4,3:3:0:0:
291,305,177941,5,4,1:2:0:0:
345,230,178081,1,0,1:0:0:0:
230,143,178221,1,10,0:0:0:0:
329,84,178361,2,0,P|347:84|359:113,2,46.7500014266968,0|0|0,1:0|0:0|1:2,0:0:0:0:
220,25,178642,1,0,1:0:0:0:
406,87,178782,1,10,0:0:0:0:
206,132,178922,6,0,B|146:155|87:154|87:154|81:187|50:225,1,187.000005706787,0|0,1:0|1:0,0:0:0:0:
36,233,179273,1,0,1:0:0:0:
1,247,179343,1,10,0:0:0:0:
94,333,179483,1,0,1:0:0:0:
275,195,179623,1,0,1:0:0:0:
275,195,179693,1,0,1:0:0:0:
275,195,179763,2,0,P|290:174|301:127,1,46.7500014266968,0|0,1:0|1:0,0:0:0:0:
173,67,179903,2,0,P|170:94|202:178,1,93.5000028533936,10|0,0:0|1:0,0:0:0:0:
348,357,180184,5,0,1:1:0:0:
404,178,180324,1,0,1:0:0:0:
309,367,180464,1,10,0:0:0:0:
349,230,180604,6,0,P|352:180|323:106,1,93.5000028533936,0|0,1:0|1:0,0:0:0:0:
430,302,180885,1,0,1:0:0:0:
269,194,181025,5,10,0:0:0:0:
449,83,181165,2,0,L|443:187,1,93.5000028533936,0|0,1:0|2:0,0:0:0:0:
289,302,181445,5,0,1:0:0:0:
289,302,181516,1,0,1:0:0:0:
289,302,181586,1,14,0:0:0:0:
147,191,181726,1,0,1:0:0:0:
335,193,181866,6,0,P|313:202|279:241,1,46.7500014266968,14|0,0:0|0:0,0:0:0:0:
199,328,182006,1,0,1:0:0:0:
199,328,182076,1,0,1:0:0:0:
199,328,182146,1,14,0:0:0:0:
354,265,182287,1,0,0:0:0:0:
128,266,182427,6,0,P|81:255|27:236,1,93.5000028533936,4|0,1:1|1:0,0:0:0:0:
268,376,182707,1,10,0:0:0:0:
229,293,182847,2,0,B|222:275|222:275|229:258|229:258|212:220,2,46.7500014266968,0|0|0,1:0|0:0|1:2,0:0:0:0:
144,376,183128,1,0,1:0:0:0:
313,263,183268,1,10,0:0:0:0:
137,175,183408,2,0,B|95:156|50:153|50:153|6:103|59:66,1,187.000005706787,0|0,1:0|1:0,0:0:0:0:
158,3,183759,1,0,1:0:0:0:
158,3,183829,2,0,P|133:42|138:99,1,93.5000028533936,10|0,0:0|1:0,0:0:0:0:
265,214,184109,1,0,1:0:0:0:
424,102,184249,5,0,1:0:0:0:
333,147,184389,1,10,0:0:0:0:
275,226,184530,1,0,1:0:0:0:
275,226,184600,1,8,3:2:0:0:
275,226,184670,5,4,1:1:0:0:
363,159,184810,1,0,1:0:0:0:
242,184,184950,5,10,0:0:0:0:
357,259,185090,1,4,1:2:0:0:
187,218,185230,5,0,1:0:0:0:
312,107,185371,1,0,1:0:0:0:
115,192,185511,5,10,0:0:0:0:
375,333,185651,1,4,1:0:0:0:
375,333,185931,1,0,1:0:0:0:
311,197,186072,5,8,2:0:0:0:
272,182,186165,1,8,0:3:0:0:
235,204,186259,1,8,0:3:0:0:
204,243,186352,5,8,2:0:0:0:
157,258,186445,1,8,0:3:0:0:
118,227,186539,1,8,0:3:0:0:
115,165,186632,5,8,2:0:0:0:
66,124,186726,1,8,0:3:0:0:
10,154,186819,1,8,0:3:0:0:
0,182,186913,5,2,1:2:0:0:
239,41,195044,6,0,P|246:57|252:122,1,76.4999976654053
270,133,195324,1,8,2:3:0:0:
245,148,195417,1,8,2:3:0:0:
283,170,195511,1,8,2:3:0:0:
246,187,195604,1,4,2:3:0:0:
277,211,195698,1,4,2:3:0:0:
253,242,195791,1,4,2:3:0:0:
280,285,195885,6,0,P|299:297|329:302,1,46.7500014266968,0|0,1:0|0:0,0:0:0:0:
352,261,196025,6,0,P|334:276|306:284,1,46.7500014266968,0|0,3:0|3:0,0:0:0:0:
91,115,196165,6,0,P|133:95|272:191,1,220.999989883423,8|4,3:2|1:0,0:0:0:0:
206,242,196516,2,0,P|209:219|226:188,1,46.7500014266968
419,49,196726,5,10,0:0:0:0:
505,274,196866,6,0,B|492:313|492:313|442:288,1,93.5000028533936,0|0,1:0|2:0,0:0:0:0:
284,108,197146,6,0,P|301:96|333:92,1,46.7500014266968,0|0,1:0|0:0,0:0:0:0:
495,185,197287,2,0,L|393:176,1,93.5000028533936,10|0,0:0|1:0,0:0:0:0:
401,176,197567,1,0,1:0:0:0:
262,43,197707,6,0,P|280:54|296:81,1,46.7500014266968,0|0,1:0|0:0,0:0:0:0:
222,286,197847,2,0,P|254:251|261:191,1,93.5000028533936,10|0,0:0|1:0,0:0:0:0:
131,24,198128,5,0,1:1:0:0:
205,101,198268,1,0,1:0:0:0:
42,53,198408,1,10,0:0:0:0:
227,136,198548,2,0,B|296:155|341:91|341:91|364:122|416:106,1,187.000005706787,0|0,1:0|1:0,0:0:0:0:
512,170,198969,1,10,0:0:0:0:
441,375,199109,6,0,B|413:355|384:346|384:346|374:313|394:270,1,140.25000428009,0|0,1:0|0:0,0:0:0:0:
413,260,199389,2,0,L|468:271,1,46.7500014266968,0|0,1:0|1:0,0:0:0:0:
234,167,199530,6,0,B|191:182|161:172|161:172|138:197|88:199,1,140.25000428009,14|0,0:0|0:0,0:0:0:0:
39,262,199810,2,0,P|58:246|70:214,1,46.7500014266968,14|0,0:0|0:0,0:0:0:0:
46,117,199950,2,0,P|64:130|83:171,1,46.7500014266968,0|0,1:0|0:0,0:0:0:0:
171,218,200090,5,14,0:0:0:0:
39,310,200230,1,0,1:0:0:0:
234,167,200371,5,4,1:1:0:0:
308,309,200511,1,0,1:0:0:0:
388,171,200651,1,10,0:0:0:0:
507,306,200791,6,0,B|454:297|443:230|443:230|404:266|354:246,1,187.000005706787,0|0,1:0|1:0,0:0:0:0:
469,126,201212,1,10,0:0:0:0:
234,91,201352,6,0,P|312:72|255:23,1,187.000005706787,0|0,1:0|1:0,0:0:0:0:
237,102,201702,1,0,1:0:0:0:
237,102,201773,2,0,L|250:208,1,93.5000028533936,10|0,0:0|1:0,0:0:0:0:
377,285,202053,1,0,1:0:0:0:
374,192,202193,6,0,B|358:204|358:204|319:216,1,46.7500014266968,0|0,1:0|0:0,0:0:0:0:
144,287,202333,2,0,B|185:290|185:290|234:313,1,93.5000028533936,10|0,0:0|0:0,0:0:0:0:
306,350,202544,1,8,3:2:0:0:
306,350,202614,5,0,1:1:0:0:
185,273,202754,1,0,1:0:0:0:
371,218,202894,1,10,0:0:0:0:
228,343,203034,2,0,B|174:337|174:295|120:282|97:328|42:315,1,187.000005706787,0|0,1:0|1:0,0:0:0:0:
0,214,203455,5,10,0:0:0:0:
93,86,203595,2,0,P|155:52|282:81,1,187.000005706787,4|0,1:0|1:0,0:0:0:0:
344,80,203945,2,0,P|322:94|297:95,1,46.7500014266968,0|14,1:0|0:0,0:0:0:0:
161,7,204156,1,0,1:0:0:0:
344,80,204296,5,8,0:0:0:0:
377,107,204366,1,8,0:0:0:0:
392,146,204436,1,8,0:0:0:0:
379,181,204506,1,8,0:0:0:0:
350,201,204576,1,8,0:0:0:0:
320,226,204646,1,0,3:0:0:0:
314,255,204716,1,8,0:0:0:0:
331,284,204787,1,8,0:0:0:0:
382,307,204857,6,0,P|413:300|475:265,1,93.5000028533936,4|0,1:2|1:0,0:0:0:0:
512,165,205137,1,10,0:0:0:0:
352,220,205277,2,0,B|321:229|294:230|294:230|251:176|251:176|218:179|181:196,1,187.000005706787,0|0,1:0|1:0,0:0:0:0:
51,258,205698,1,10,0:0:0:0:
18,53,205838,6,0,P|59:39|193:115,1,187.000005706787,0|0,1:0|1:0,0:0:0:0:
182,94,206188,1,0,0:0:0:0:
182,94,206259,2,0,P|166:107|117:108,1,46.7500014266968,10|0,0:0|3:0,0:0:0:0:
227,50,206399,2,0,P|249:55|280:88,1,46.7500014266968,8|0,0:0|3:0,0:0:0:0:
348,182,206539,5,8,0:0:0:0:
322,221,206609,1,0,3:0:0:0:
280,243,206679,1,8,0:0:0:0:
233,243,206749,1,0,3:0:0:0:
200,209,206819,5,8,0:0:0:0:
251,203,206889,1,8,0:0:0:0:
296,226,206959,1,8,0:0:0:0:
326,268,207030,1,8,0:0:0:0:
340,312,207100,1,4,1:1:0:0:
307,349,207941,6,0,P|324:334|362:325,1,50.9999984436036,10|0,3:2|1:0,0:0:0:0:
295,332,208361,1,0,1:0:0:0:
295,332,208431,1,0,1:0:0:0:
295,332,208502,2,0,P|279:308|281:268,1,50.9999984436036,10|0,3:2|1:0,0:0:0:0:
266,137,208782,5,2,0:3:0:0:
339,73,208922,1,0,1:0:0:0:
410,56,209062,2,0,P|400:75|363:89,1,50.9999984436036,10|0,3:2|1:0,0:0:0:0:
266,137,209343,2,0,P|243:124|224:97,1,50.9999984436036,2|0,1:2|1:0,0:0:0:0:
89,12,209623,5,10,3:2:0:0:
150,46,209763,1,0,1:0:0:0:
118,83,209903,2,0,P|94:97|54:101,1,50.9999984436036,2|0,1:3|1:0,0:0:0:0:
44,289,210184,5,10,3:2:0:0:
44,289,210324,2,0,P|64:261|81:184,1,101.999996887207,0|0,1:0|1:0,0:0:0:0:
71,184,210674,1,0,1:0:0:0:
66,188,210745,1,10,3:2:0:0:
300,275,211025,1,2,0:3:0:0:
270,285,211095,1,0,0:0:0:0:
294,302,211165,1,0,1:3:0:0:
273,304,211235,1,0,1:0:0:0:
277,318,211305,1,10,3:2:0:0:
410,355,211516,5,0,3:0:0:0:
410,355,211586,2,0,P|432:363|466:380,1,50.9999984436036,0|0,1:1|1:0,0:0:0:0:
386,318,211866,2,0,P|395:297|421:276,1,50.9999984436036,10|0,3:2|1:0,0:0:0:0:
312,332,212146,2,0,P|292:316|278:279,1,50.9999984436036,2|0,1:3|1:0,0:0:0:0:
195,157,212427,6,0,B|210:155|210:155|215:147|215:147|226:146,2,31.8750012159348,10|0|0,3:2|0:0|0:0,0:0:0:0:
162,190,212567,2,0,P|164:158|151:77,1,101.999996887207,0|0,1:0|1:0,0:0:0:0:
141,68,212917,1,0,1:0:0:0:
133,59,212987,1,10,3:2:0:0:
213,18,213128,1,0,1:0:0:0:
308,105,213268,6,0,P|294:116|254:123,1,50.9999984436036,2|0,0:3|1:0,0:0:0:0:
78,3,213548,2,0,P|102:7|123:21,1,50.9999984436036,10|0,3:2|0:0,0:0:0:0:
185,188,213829,2,0,P|171:216|108:262,1,101.999996887207,2|10,1:2|3:2,0:0:0:0:
34,291,214249,1,0,1:0:0:0:
97,171,214389,6,0,B|101:155|101:155|108:151|108:151|112:139,2,31.8750012159348,2|0|0,1:3|0:0|0:0,0:0:0:0:
73,184,214530,1,0,1:0:0:0:
190,266,214670,1,10,3:2:0:0:
352,179,214810,2,0,P|391:172|509:249,1,170,0|0,1:0|1:0,0:0:0:0:
500,231,215160,1,0,1:0:0:0:
500,231,215230,2,0,L|409:249,1,85,10|0,3:2|1:0,0:0:0:0:
247,301,215511,5,2,0:3:0:0:
247,301,215581,1,0,1:0:0:0:
247,301,215651,2,0,P|233:269|232:240,1,42.5,0|0,1:3|1:0,0:0:0:0:
268,173,215791,5,10,3:2:0:0:
268,173,215861,1,0,0:0:0:0:
268,173,215931,2,0,P|280:137|275:113,1,42.5,0|0,0:0|3:0,0:0:0:0:
208,43,216072,6,0,P|208:78|195:128,1,85,2|0,1:2|1:0,0:0:0:0:
305,365,216352,2,0,P|309:249|371:207,1,170,10|2,3:2|1:3,0:0:0:0:
474,243,216773,2,0,P|443:275|384:252,1,85,0|10,1:0|3:2,0:0:0:0:
225,114,217053,6,0,P|86:83|64:100,1,170,0|0,1:0|1:0,0:0:0:0:
46,104,217403,1,0,1:0:0:0:
35,116,217473,1,10,3:2:0:0:
178,212,217614,1,0,1:0:0:0:
9,207,217754,6,0,P|45:191|106:197,1,85,2|0,0:3|1:0,0:0:0:0:
294,88,218034,2,0,P|255:71|227:39,1,85,10|0,3:2|1:0,0:0:0:0:
189,284,218315,6,0,P|210:254|268:224,1,85,2|0,1:2|1:0,0:0:0:0:
378,151,218595,1,10,3:2:0:0:
512,247,218735,2,0,B|523:179|463:141|463:141|489:119|485:89,1,170,0|0,1:0|1:0,0:0:0:0:
394,235,219156,1,10,3:2:0:0:
276,150,219296,1,0,1:0:0:0:
383,190,219436,1,2,0:3:0:0:
307,310,219576,1,0,1:0:0:0:
307,310,219646,1,0,1:0:0:0:
307,310,219716,2,0,P|274:312|220:338,1,85,10|0,3:2|1:0,0:0:0:0:
78,352,219997,5,8,3:3:0:0:
62,384,220090,2,0,P|85:362|104:325,1,56.6666666666667,8|8,3:3|3:3,0:0:0:0:
154,263,220277,5,4,3:3:0:0:
154,263,220371,2,0,P|150:235|118:207,1,56.6666666666667,4|4,3:3|3:3,0:0:0:0:
67,117,220558,6,0,P|48:149|7:194,1,85,4|0,1:1|1:0,0:0:0:0:
186,86,220838,1,14,3:2:0:0:
57,189,220978,1,0,1:0:0:0:
350,184,221118,5,2,1:3:0:0:
255,102,221259,2,0,P|233:66|215:9,1,85,0|14,1:0|3:2,0:0:0:0:
240,194,221539,2,0,B|143:211|178:245|82:258,1,170,0|0,1:0|1:0,0:0:0:0:
270,295,221959,1,10,3:2:0:0:
181,236,222100,1,0,1:0:0:0:
306,358,222240,6,0,P|318:316|346:280,1,85,2|0,0:3|1:0,0:0:0:0:
115,210,222520,2,0,P|132:250|133:318,1,85,14|0,3:2|1:0,0:0:0:0:
291,194,222801,5,2,1:2:0:0:
343,289,222941,1,0,1:0:0:0:
205,187,223081,1,10,3:2:0:0:
371,202,223221,5,0,1:0:0:0:
275,275,223361,1,2,1:3:0:0:
413,219,223502,1,0,1:0:0:0:
205,187,223642,5,10,3:2:0:0:
460,308,223782,1,4,1:0:0:0:
460,308,224202,2,0,P|421:331|356:325,1,85,8|0,3:2|0:0,0:0:0:0:
172,209,224483,6,0,P|196:213|235:247,2,56.6666666666667,0|0|0,1:0|0:0|0:0,0:0:0:0:
294,120,224763,6,0,P|283:149|286:191,1,63.75,8|0,3:2|0:0,0:0:0:0:
323,282,225044,1,4,1:2:0:0:
256,192,225114,12,0,231773,0:0:0:0:
