osu file format v14

[General]
AudioFilename: audio.mp3
AudioLeadIn: 0
PreviewTime: 36562
Countdown: 0
SampleSet: Soft
StackLeniency: 0.4
Mode: 0
LetterboxInBreaks: 0
WidescreenStoryboard: 0

[Editor]
DistanceSpacing: 0.1
BeatDivisor: 6
GridSize: 32
TimelineZoom: 2

[Metadata]
Title:Sentou Amu
TitleUnicode:戦闘アム
Artist:Shade
ArtistUnicode:Shade
Creator:Shurelia
Version:Bewitching
Source:ランス・クエスト マグナム
Tags:Rance Quest Magnum 8 VIII battle am isuel イスエル rock instrumental video game eroge visual novel rpg jrpg alicesoft pepega cup 3 ppg3 QF HD1 scubdomino ponbot supav kalibe frozz nakazawa amateurre
BeatmapID:4432168
BeatmapSetID:2111360

[Difficulty]
HPDrainRate:7
CircleSize:4
OverallDifficulty:9.1
ApproachRate:9.5
SliderMultiplier:2
SliderTickRate:1

[Events]
//Background and Video events
0,0,"ambgpic.jpg",0,0
//Break Periods
2,187113,194780
//Storyboard Layer 0 (Background)
//Storyboard Layer 1 (Fail)
//Storyboard Layer 2 (Pass)
//Storyboard Layer 3 (Foreground)
//Storyboard Layer 4 (Overlay)
//Storyboard Sound Samples

[TimingPoints]
745,280.373831775701,4,2,1,50,1,0
745,-250.000000000001,4,2,1,50,0,0
16445,-100,4,2,1,70,0,0
36632,-100,4,2,1,80,0,1
54576,-100,4,2,1,80,0,0
56819,-111.111111111111,4,2,1,80,0,0
56889,-111.111111111111,4,2,1,70,0,0
74763,-142.857142857143,4,2,1,70,0,0
83735,-111.111111111111,4,2,1,70,0,0
94950,-100,4,2,1,80,0,1
112894,-111.111111111111,4,2,1,75,0,0
121866,-100,4,2,1,80,0,1
130838,-125,4,2,1,70,0,0
148782,-166.666666666667,4,2,1,70,0,0
162240,-111.111111111111,4,2,1,70,0,0
168688,-200,4,2,1,70,0,0
168969,-90.9090909090908,4,2,1,85,0,1
186913,-166.666666666667,4,2,1,85,0,0
195324,-90.9090909090909,4,2,1,70,0,0
196726,-90.9090909090909,4,2,1,85,0,1
207100,-100,4,2,1,75,0,0
212427,-50,4,2,1,75,0,0
212567,-100,4,2,1,75,0,0
214389,-50,4,2,1,75,0,0
214530,-100,4,2,1,75,0,0
216072,-100,4,2,1,80,0,0
224763,-200,4,2,1,70,0,0
226165,-200,4,2,1,60,0,0
227287,-200,4,2,1,50,0,0
228409,-200,4,2,1,40,0,0
228969,-200,4,2,1,30,0,0
229530,-200,4,2,1,20,0,0
230371,-200,4,2,1,10,0,0
231773,-200,4,2,1,5,0,0

[Colours]
Combo1 : 255,60,60
Combo2 : 128,128,128
Combo3 : 198,0,0
Combo4 : 192,192,192

[HitObjects]
24,374,745,6,0,P|27:254|37:134,1,240,2|0,0:0|0:0,0:0:0:0:
202,93,1866,2,0,P|187:-4|107:55,1,240,2|0,0:0|0:0,0:0:0:0:
140,184,2987,2,0,B|213:144|266:179|297:215|370:167,1,240,2|0,0:0|0:0,0:0:0:0:
380,53,4109,2,0,P|398:164|508:184,1,240,2|0,0:0|0:0,0:0:0:0:
381,256,5230,5,2,0:0:0:0:
265,290,5792,1,0,0:0:0:0:
179,206,6352,1,2,0:0:0:0:
208,89,6913,1,0,0:0:0:0:
323,56,7474,1,2,0:0:0:0:
409,140,8034,1,0,0:0:0:0:
511,37,8595,6,0,P|352:26|192:34,1,320,2|2,0:0|0:0,0:0:0:0:
192,34,10277,1,0,0:0:0:0:
64,14,10838,1,2,0:0:0:0:
0,342,11959,1,2,0:0:0:0:
107,381,12520,1,0,0:0:0:0:
261,338,13081,1,2,0:0:0:0:
261,338,14202,5,2,0:0:0:0:
214,217,14763,1,0,0:0:0:0:
274,61,15324,1,2,0:0:0:0:
256,192,15394,12,0,16305,0:0:0:0:
412,191,16445,6,0,L|213:216,1,200,12|8,1:2|1:2,0:0:0:0:
322,289,17567,1,0,1:0:0:0:
322,289,17637,1,0,1:0:0:0:
322,289,17707,1,0,1:0:0:0:
498,91,17847,2,0,L|365:79,1,133.333333333333,8|0,1:2|0:0,0:0:0:0:
296,34,18128,5,8,3:3:0:0:
238,79,18221,1,8,3:3:0:0:
182,116,18315,1,8,3:3:0:0:
123,127,18408,1,4,3:3:0:0:
70,116,18502,1,4,3:3:0:0:
33,87,18595,1,4,3:3:0:0:
0,33,18688,6,0,L|4:133,1,100,0|0,1:1|1:0,0:0:0:0:
101,208,18969,2,0,L|91:307,1,100,10|0,3:2|1:0,0:0:0:0:
10,371,19249,1,2,1:3:0:0:
10,371,19389,1,0,1:0:0:0:
195,283,19530,1,10,3:2:0:0:
262,370,19670,2,0,L|361:356,1,100,0|2,1:0|0:3,0:0:0:0:
512,326,19950,1,0,1:0:0:0:
512,326,20020,1,0,1:0:0:0:
512,326,20090,1,10,3:2:0:0:
401,257,20230,1,0,1:0:0:0:
349,177,20371,1,2,0:3:0:0:
405,36,20511,1,0,1:0:0:0:
512,135,20651,2,0,L|413:119,1,100,10|0,3:2|1:0,0:0:0:0:
291,73,20861,1,0,3:0:0:0:
291,73,20931,6,0,P|242:86|193:95,1,100,2|0,1:2|1:0,0:0:0:0:
0,10,21212,2,0,P|49:19|97:32,1,100,10|0,3:2|1:0,0:0:0:0:
219,189,21492,1,2,1:3:0:0:
172,79,21632,1,0,1:0:0:0:
64,137,21773,1,10,3:2:0:0:
117,240,21913,2,0,P|124:289|126:339,1,100,0|2,1:0|0:3,0:0:0:0:
19,238,22193,1,0,1:0:0:0:
19,238,22263,1,0,1:0:0:0:
19,238,22333,1,10,3:2:0:0:
106,366,22473,1,0,1:0:0:0:
245,329,22614,1,2,0:3:0:0:
284,321,22684,1,0,1:0:0:0:
323,320,22754,1,0,1:3:0:0:
362,325,22824,1,0,1:0:0:0:
395,339,22894,2,0,L|379:240,1,100,10|0,3:2|1:0,0:0:0:0:
459,187,23104,1,0,3:0:0:0:
458,187,23174,6,0,P|462:138|433:98,1,100,0|0,1:1|1:0,0:0:0:0:
253,138,23455,2,0,P|249:186|278:226,1,100,10|0,3:2|1:0,0:0:0:0:
512,40,23735,1,2,1:3:0:0:
389,8,23875,1,0,1:0:0:0:
265,62,24016,1,10,3:2:0:0:
182,24,24156,2,0,P|133:36|84:45,1,100,0|2,1:0|0:3,0:0:0:0:
14,149,24436,1,0,1:0:0:0:
14,149,24506,1,0,1:0:0:0:
14,149,24576,1,10,3:2:0:0:
193,286,24716,1,0,1:0:0:0:
44,279,24857,1,2,0:3:0:0:
217,164,24997,1,0,1:0:0:0:
328,286,25137,2,0,L|343:384,1,100,10|0,3:2|1:0,0:0:0:0:
469,373,25347,1,0,3:0:0:0:
469,373,25417,6,0,L|453:274,1,100,2|0,1:2|1:0,0:0:0:0:
314,38,25698,2,0,L|298:136,1,100,10|0,3:2|1:0,0:0:0:0:
241,327,25978,1,2,1:3:0:0:
350,233,26118,1,0,1:0:0:0:
199,182,26259,1,10,3:2:0:0:
97,303,26399,2,0,P|49:317|0:326,1,100,4|2,1:2|0:3,0:0:0:0:
56,132,26679,1,0,1:0:0:0:
56,132,26749,1,0,1:0:0:0:
56,132,26819,1,10,3:2:0:0:
128,3,26959,1,0,1:0:0:0:
249,65,27100,1,8,2:0:0:0:
374,16,27240,1,0,1:0:0:0:
374,16,27310,1,0,3:0:0:0:
374,16,27380,1,8,2:0:0:0:
354,135,27520,1,8,2:0:0:0:
460,241,27660,5,0,1:1:0:0:
371,140,27801,1,0,1:0:0:0:
326,270,27941,1,10,3:2:0:0:
434,252,28081,5,0,1:0:0:0:
345,151,28222,1,2,1:3:0:0:
300,281,28362,1,0,1:0:0:0:
198,384,28502,5,10,3:2:0:0:
28,344,28642,2,0,L|20:244,1,100,0|2,1:0|0:3,0:0:0:0:
17,96,28922,1,0,1:0:0:0:
17,96,28992,1,0,1:0:0:0:
17,96,29062,1,10,3:2:0:0:
109,9,29202,1,0,1:0:0:0:
189,100,29343,1,2,0:3:0:0:
160,258,29483,1,0,1:0:0:0:
255,384,29623,2,0,L|270:285,1,100,10|0,3:2|1:0,0:0:0:0:
340,231,29833,1,0,3:0:0:0:
340,231,29903,5,2,1:2:0:0:
483,257,30044,1,0,1:0:0:0:
424,132,30184,1,10,3:2:0:0:
304,110,30324,5,0,1:0:0:0:
447,136,30465,1,2,1:3:0:0:
388,11,30605,1,0,1:0:0:0:
179,53,30745,5,10,3:2:0:0:
96,10,30885,2,0,P|47:23|0:34,1,100,0|2,1:0|0:3,0:0:0:0:
125,169,31165,1,0,1:0:0:0:
125,169,31235,1,0,1:0:0:0:
125,169,31305,1,10,3:2:0:0:
0,91,31445,1,0,1:0:0:0:
26,268,31586,5,8,3:3:0:0:
56,327,31679,1,8,3:3:0:0:
105,362,31773,1,8,3:3:0:0:
157,370,31866,1,4,3:3:0:0:
202,359,31959,1,4,3:3:0:0:
238,342,32053,1,4,3:3:0:0:
257,315,32146,5,4,1:1:0:0:
218,194,32287,1,0,1:0:0:0:
124,283,32427,1,10,3:2:0:0:
95,175,32567,5,0,1:0:0:0:
193,69,32708,1,2,1:3:0:0:
251,197,32848,1,0,1:0:0:0:
348,0,32988,5,10,3:2:0:0:
500,67,33128,2,0,L|474:163,1,100,0|2,1:0|0:3,0:0:0:0:
394,323,33408,1,0,1:0:0:0:
394,323,33478,1,0,1:0:0:0:
394,323,33548,1,10,3:2:0:0:
228,229,33688,1,0,1:0:0:0:
259,156,33829,1,2,0:3:0:0:
318,212,33969,1,0,1:0:0:0:
110,384,34109,2,0,L|110:284,1,100,10|0,3:2|1:0,0:0:0:0:
148,209,34319,1,0,0:0:0:0:
148,209,34389,5,4,1:2:0:0:
276,365,34530,1,0,1:0:0:0:
395,270,34670,2,0,B|445:179|445:179|411:93|305:17|305:17|228:34,1,400,10|10,3:2|3:2,0:0:0:0:
12,283,35371,2,0,B|-22:188|-22:188|54:125,1,200,4|0,1:0|0:0,0:0:0:0:
221,340,35791,2,0,B|297:276|297:276|262:181,1,200,10|0,3:2|1:0,0:0:0:0:
187,65,36212,1,0,1:0:0:0:
151,193,36352,2,0,L|104:335,1,150,14|0,3:2|0:0,0:0:0:0:
19,378,36632,5,6,1:2:0:0:
261,293,36773,1,0,1:0:0:0:
0,201,36913,1,10,0:0:0:0:
111,1,37053,2,0,L|132:98,1,100,0|0,1:0|1:2,0:0:0:0:
261,293,37333,1,0,1:0:0:0:
332,0,37473,1,10,0:0:0:0:
397,96,37614,6,0,L|300:117,1,100,0|0,1:0|2:0,0:0:0:0:
161,219,37894,1,0,1:0:0:0:
161,219,37964,1,0,1:0:0:0:
161,219,38034,1,10,0:0:0:0:
279,330,38174,2,0,B|304:283|304:283|289:238,1,100,0|0,1:0|1:0,0:0:0:0:
203,130,38455,1,0,1:0:0:0:
119,50,38595,1,10,0:0:0:0:
0,54,38735,1,0,1:0:0:0:
0,54,38805,1,8,3:2:0:0:
0,54,38875,5,0,1:1:0:0:
100,193,39016,1,0,1:0:0:0:
264,33,39156,1,10,0:0:0:0:
415,150,39296,2,0,L|512:126,1,100,0|0,1:0|1:0,0:0:0:0:
383,49,39576,1,0,1:0:0:0:
215,223,39716,1,10,0:0:0:0:
392,350,39857,2,0,B|430:315|430:315|434:266,1,100,0|0,1:0|2:0,0:0:0:0:
394,143,40137,1,0,1:0:0:0:
394,143,40207,1,0,1:0:0:0:
394,143,40277,5,14,0:0:0:0:
346,255,40417,1,0,1:0:0:0:
287,27,40558,1,14,0:0:0:0:
69,188,40698,1,0,1:0:0:0:
69,188,40768,1,0,1:0:0:0:
69,188,40838,2,0,L|215:223,1,150,14|0,0:0|1:0,0:0:0:0:
290,185,41118,5,4,1:1:0:0:
392,384,41259,1,0,1:0:0:0:
512,174,41399,1,10,0:0:0:0:
250,367,41539,2,0,L|155:338,1,100,0|0,1:0|1:2,0:0:0:0:
69,188,41819,1,0,1:0:0:0:
261,285,41959,1,10,0:0:0:0:
408,113,42100,6,0,L|426:14,1,100,0|0,1:0|2:0,0:0:0:0:
512,199,42380,1,0,1:0:0:0:
512,199,42450,1,0,1:0:0:0:
512,199,42520,1,10,0:0:0:0:
356,334,42660,2,0,P|347:284|338:235,1,100,0|0,1:0|1:0,0:0:0:0:
272,0,42941,1,0,1:0:0:0:
195,156,43081,1,10,0:0:0:0:
238,365,43221,1,0,1:0:0:0:
238,365,43291,1,8,3:2:0:0:
238,365,43361,5,0,1:1:0:0:
195,156,43502,1,0,1:0:0:0:
19,372,43642,1,10,0:0:0:0:
50,183,43782,1,0,1:0:0:0:
317,309,43922,5,0,1:0:0:0:
264,68,44062,1,0,1:0:0:0:
0,270,44202,1,10,0:0:0:0:
29,0,44343,2,0,L|53:98,1,100,4|0,1:0|2:0,0:0:0:0:
195,156,44623,5,0,1:0:0:0:
364,68,44763,2,0,L|375:-9,2,66.6666666666667,14|8|8,0:0|0:2|0:2,0:0:0:0:
464,68,45044,2,0,L|475:-9,2,66.6666666666667,8|8|8,3:3|3:3|3:3,0:0:0:0:
503,169,45324,1,4,3:3:0:0:
481,238,45417,1,4,3:3:0:0:
460,304,45511,1,4,3:3:0:0:
439,377,45604,5,4,1:2:0:0:
339,173,45745,1,0,1:0:0:0:
212,311,45885,1,10,0:0:0:0:
48,163,46025,2,0,L|69:260,1,100,0|0,1:0|1:2,0:0:0:0:
174,384,46305,1,0,1:0:0:0:
349,249,46445,1,10,0:0:0:0:
142,105,46586,6,0,L|121:8,1,100,0|0,1:0|2:0,0:0:0:0:
48,163,46866,1,0,1:0:0:0:
48,163,46936,1,0,1:0:0:0:
48,163,47006,1,10,0:0:0:0:
210,268,47146,2,0,B|235:221|235:221|220:176,1,100,0|0,1:0|1:0,0:0:0:0:
241,95,47357,1,0,1:0:0:0:
275,75,47427,1,0,1:0:0:0:
309,54,47497,1,0,1:0:0:0:
344,35,47567,1,10,0:0:0:0:
512,158,47707,1,0,1:0:0:0:
512,158,47777,1,8,3:2:0:0:
512,158,47847,5,0,1:1:0:0:
482,22,47988,1,0,1:0:0:0:
343,173,48128,1,10,0:0:0:0:
512,322,48268,2,0,L|415:346,1,100,0|0,1:0|1:0,0:0:0:0:
277,384,48548,1,0,1:0:0:0:
77,167,48688,1,10,0:0:0:0:
134,384,48829,2,0,B|153:285,1,100,0|0,1:0|2:0,0:0:0:0:
205,62,49109,1,0,1:0:0:0:
205,62,49179,1,0,1:0:0:0:
205,62,49249,5,14,0:0:0:0:
0,233,49389,1,0,1:0:0:0:
254,171,49530,1,14,0:0:0:0:
42,21,49670,1,0,1:0:0:0:
42,21,49740,1,0,1:0:0:0:
42,21,49810,2,0,L|77:167,1,150,14|0,0:0|1:0,0:0:0:0:
143,209,50090,5,4,1:1:0:0:
334,78,50231,1,0,1:0:0:0:
130,12,50371,1,10,0:0:0:0:
276,185,50511,2,0,L|305:280,1,100,0|0,1:0|1:2,0:0:0:0:
425,384,50791,1,0,1:0:0:0:
197,303,50931,1,10,0:0:0:0:
456,241,51072,6,0,L|474:142,1,100,0|0,1:0|2:0,0:0:0:0:
505,0,51352,1,0,1:0:0:0:
505,0,51422,1,0,1:0:0:0:
505,0,51492,1,10,0:0:0:0:
276,185,51632,2,0,L|258:86,1,100,0|0,1:0|1:0,0:0:0:0:
61,0,51913,1,0,1:0:0:0:
114,106,52053,1,10,0:0:0:0:
77,219,52193,1,0,1:0:0:0:
77,219,52263,1,8,3:2:0:0:
77,219,52333,5,4,1:1:0:0:
180,264,52474,1,0,1:0:0:0:
403,167,52614,1,10,0:0:0:0:
244,38,52754,2,0,L|275:184,1,150,4|0,1:2|0:0,0:0:0:0:
326,247,53034,1,0,1:0:0:0:
161,171,53174,1,10,0:0:0:0:
0,311,53315,2,0,B|151:350,1,150,4|0,1:0|0:0,0:0:0:0:
219,372,53595,1,0,1:0:0:0:
474,324,53735,1,8,2:0:0:0:
314,111,53875,5,8,2:0:0:0:
314,111,54016,1,8,2:0:0:0:
314,111,54156,1,8,2:0:0:0:
314,111,54296,1,8,2:0:0:0:
314,111,54436,1,8,2:0:0:0:
314,111,54576,5,2,1:2:0:0:
14,144,54857,1,2,1:2:0:0:
314,111,55698,5,2,1:2:0:0:
14,144,55979,1,2,1:2:0:0:
137,0,56259,5,8,3:3:0:0:
161,75,56352,1,8,3:3:0:0:
167,147,56445,1,8,3:3:0:0:
159,213,56539,1,4,3:3:0:0:
143,270,56632,1,4,3:3:0:0:
115,316,56726,1,4,3:3:0:0:
86,346,56819,6,0,L|-1:324,1,89.9999972534181,4|0,1:1|0:0,0:0:0:0:
270,186,57100,2,0,L|357:207,1,89.9999972534181,10|0,3:2|0:0,0:0:0:0:
472,337,57380,1,2,1:3:0:0:
472,337,57520,1,0,1:0:0:0:
512,197,57660,1,10,3:2:0:0:
356,336,57801,2,0,L|268:314,1,89.9999972534181,0|2,1:0|0:3,0:0:0:0:
173,229,58081,1,0,1:0:0:0:
266,73,58221,2,0,L|272:162,1,89.9999972534181,10|0,3:2|1:0,0:0:0:0:
154,348,58502,1,2,0:3:0:0:
154,348,58642,1,0,1:0:0:0:
14,232,58782,2,0,L|7:142,1,89.9999972534181,10|0,3:2|0:0,0:0:0:0:
353,9,59062,6,0,B|369:53|369:53|360:95,1,89.9999972534181,2|0,1:2|0:0,0:0:0:0:
152,168,59343,2,0,B|136:124|136:124|144:81,1,89.9999972534181,10|0,3:2|0:0,0:0:0:0:
249,0,59623,1,2,1:3:0:0:
249,0,59763,1,0,1:0:0:0:
46,0,59903,1,10,3:2:0:0:
7,142,60044,2,0,L|79:306,1,179.999994506836,0|0,1:0|1:0,0:0:0:0:
147,381,60464,2,0,L|235:362,1,89.9999972534181,10|0,3:2|1:0,0:0:0:0:
335,383,60745,1,2,0:3:0:0:
335,383,60885,1,2,1:3:0:0:
475,277,61025,2,0,L|497:189,1,89.9999972534181,14|0,3:2|0:0,0:0:0:0:
180,165,61305,6,0,L|202:252,1,89.9999972534181,4|0,1:1|0:0,0:0:0:0:
415,151,61586,2,0,L|392:63,1,89.9999972534181,10|0,3:2|0:0,0:0:0:0:
158,22,61866,1,2,1:3:0:0:
301,159,62006,2,0,L|278:71,1,89.9999972534181,0|10,1:0|3:2,0:0:0:0:
18,78,62287,2,0,L|41:166,1,89.9999972534181,0|2,1:0|0:3,0:0:0:0:
104,384,62567,1,0,1:0:0:0:
0,279,62707,2,0,L|89:272,1,89.9999972534181,10|0,3:2|1:0,0:0:0:0:
210,181,62988,1,2,0:3:0:0:
347,344,63128,2,0,L|257:337,1,89.9999972534181,0|10,1:0|3:2,0:0:0:0:
108,271,63408,1,0,0:0:0:0:
108,271,63478,1,0,3:2:0:0:
108,271,63548,6,0,L|103:181,1,89.9999972534181,2|0,1:2|0:0,0:0:0:0:
293,86,63829,2,0,L|300:175,1,89.9999972534181,10|0,3:2|0:0,0:0:0:0:
506,328,64109,1,2,1:3:0:0:
410,247,64249,2,0,L|402:157,1,89.9999972534181,0|10,1:0|3:2,0:0:0:0:
118,42,64530,2,0,L|250:16,1,134.999995880127,4|0,1:2|0:0,0:0:0:0:
323,40,64810,1,8,3:2:0:0:
478,8,64950,1,8,3:2:0:0:
317,165,65090,1,8,3:2:0:0:
153,127,65230,1,8,3:2:0:0:
262,331,65371,2,0,P|268:250|187:246,1,179.999994506836,4|0,1:2|3:0,0:0:0:0:
146,320,65721,1,0,3:0:0:0:
146,320,65791,5,8,0:2:0:0:
15,368,65931,1,0,1:0:0:0:
15,368,66072,2,0,P|35:280|43:190,1,179.999994506836,2|8,0:0|0:2,0:0:0:0:
2,83,66492,1,0,1:0:0:0:
166,16,66632,1,2,0:0:0:0:
79,5,66773,2,0,P|155:49|244:46,1,179.999994506836,4|8,1:2|0:2,0:0:0:0:
498,18,67193,2,0,P|409:15|332:59,1,179.999994506836,2|8,1:2|0:2,0:0:0:0:
285,169,67614,1,0,1:0:0:0:
474,283,67754,2,0,L|434:100,1,179.999994506836,2|8,0:0|0:2,0:0:0:0:
435,107,68315,6,0,L|474:283,1,179.999994506836,2|8,0:0|0:2,0:0:0:0:
496,384,68735,1,0,1:0:0:0:
325,292,68875,1,2,0:0:0:0:
392,362,69016,2,0,P|306:335|217:342,1,179.999994506836,4|8,1:2|0:2,0:0:0:0:
0,243,69436,2,0,P|85:269|174:262,1,179.999994506836,2|8,1:2|0:2,0:0:0:0:
215,175,69857,1,0,1:0:0:0:
72,62,69997,1,0,3:0:0:0:
73,93,70067,1,0,3:0:0:0:
77,124,70137,1,8,3:2:0:0:
90,152,70207,1,8,3:2:0:0:
117,164,70277,6,0,P|207:155|292:126,1,179.999994506836,4|10,1:2|3:2,0:0:0:0:
372,74,70698,2,0,L|460:88,1,89.9999972534181,0|2,1:0|1:3,0:0:0:0:
263,276,70978,2,0,L|174:261,1,89.9999972534181,0|10,1:0|3:2,0:0:0:0:
0,39,71259,2,0,L|133:20,1,134.999995880127,4|0,1:1|0:0,0:0:0:0:
204,55,71539,1,8,3:2:0:0:
347,0,71679,1,8,3:2:0:0:
432,245,71819,1,8,3:2:0:0:
276,195,71959,1,8,3:2:0:0:
173,244,72100,2,0,B|79:268|11:250|11:250|0:311,1,224.999993133545,0|0,1:0|3:0,0:0:0:0:
46,379,72520,5,4,1:2:0:0:
148,361,72660,1,0,1:0:0:0:
246,384,72801,1,0,1:0:0:0:
335,346,72941,1,0,1:0:0:0:
432,384,73081,2,0,L|436:249,1,134.999995880127,8|0,3:2|0:0,0:0:0:0:
389,191,73361,1,0,1:0:0:0:
495,5,73502,2,0,P|487:94|483:184,1,179.999994506836,8|0,3:2|1:0,0:0:0:0:
377,370,73922,2,0,P|384:280|388:190,1,179.999994506836,0|14,1:0|0:0,0:0:0:0:
342,133,74273,1,0,0:0:0:0:
271,52,74389,5,8,0:2:0:0:
213,32,74483,1,8,3:3:0:0:
153,37,74576,1,8,3:3:0:0:
101,68,74670,1,8,3:3:0:0:
72,143,74763,5,4,1:0:0:0:
113,121,74857,1,0,1:0:0:0:
159,118,74950,1,0,1:0:0:0:
201,137,75044,1,0,1:0:0:0:
223,177,75137,1,0,1:0:0:0:
221,223,75230,1,0,1:0:0:0:
188,254,75324,2,0,L|158:117,1,139.999995727539,8|0,3:2|0:0,0:0:0:0:
14,371,75885,5,4,1:2:0:0:
55,348,75979,1,0,1:0:0:0:
100,341,76072,1,0,1:0:0:0:
146,335,76166,1,0,1:0:0:0:
192,339,76259,1,0,1:0:0:0:
235,353,76352,1,0,1:0:0:0:
271,381,76445,2,0,L|131:368,1,139.999995727539,8|0,3:2|0:0,0:0:0:0:
484,380,77006,5,4,1:0:0:0:
437,372,77100,1,0,1:0:0:0:
395,350,77193,1,0,1:0:0:0:
367,311,77287,1,0,1:0:0:0:
357,265,77380,1,0,1:0:0:0:
374,222,77473,1,0,1:0:0:0:
415,201,77567,2,0,L|397:339,1,139.999995727539,8|0,3:2|0:0,0:0:0:0:
512,0,78128,5,4,1:2:0:0:
477,32,78222,1,0,1:0:0:0:
437,56,78315,1,0,1:0:0:0:
393,74,78409,1,0,1:0:0:0:
346,78,78502,1,0,1:0:0:0:
299,73,78595,1,0,1:0:0:0:
270,35,78689,2,0,L|408:52,1,139.999995727539,8|0,3:2|0:0,0:0:0:0:
37,23,79249,5,4,1:0:0:0:
79,42,79343,1,0,1:0:0:0:
113,73,79436,1,0,1:0:0:0:
137,113,79530,1,0,1:0:0:0:
138,159,79623,1,0,1:0:0:0:
120,202,79716,1,0,1:0:0:0:
78,222,79810,2,0,L|93:83,1,139.999995727539,8|0,3:2|0:0,0:0:0:0:
397,217,80371,5,4,1:2:0:0:
351,230,80465,1,0,1:0:0:0:
306,216,80558,1,0,1:0:0:0:
278,177,80652,1,0,1:0:0:0:
241,205,80745,1,0,1:0:0:0:
235,251,80838,1,0,1:0:0:0:
270,281,80932,2,0,L|281:141,1,139.999995727539,8|0,3:2|0:0,0:0:0:0:
23,365,81492,5,4,1:0:0:0:
79,368,81586,1,0,1:0:0:0:
122,332,81679,1,0,1:0:0:0:
71,307,81773,1,0,1:0:0:0:
55,253,81866,1,0,1:0:0:0:
98,218,81959,1,0,1:0:0:0:
151,235,82053,2,0,L|100:365,1,139.999995727539,8|0,3:2|0:0,0:0:0:0:
212,16,82614,5,4,1:2:0:0:
233,67,82708,1,0,1:0:0:0:
188,100,82801,1,0,1:0:0:0:
240,120,82895,1,0,1:0:0:0:
292,101,82988,1,0,1:0:0:0:
310,48,83081,1,0,1:0:0:0:
366,29,83174,5,8,3:2:0:0:
366,29,83245,1,8,3:2:0:0:
366,29,83315,1,8,3:2:0:0:
346,168,83455,1,8,3:2:0:0:
197,234,83595,1,8,3:2:0:0:
101,384,83735,6,0,P|68:326|75:260,1,134.999995880127,0|0,1:1|0:0,0:0:0:0:
117,198,84016,2,0,L|97:110,1,89.9999972534181,10|0,3:2|1:0,0:0:0:0:
0,58,84296,1,2,1:3:0:0:
152,8,84436,1,0,1:0:0:0:
0,216,84576,1,10,3:2:0:0:
118,374,84716,6,0,L|206:359,1,89.9999972534181,0|2,1:0|0:3,0:0:0:0:
288,309,84997,1,0,1:0:0:0:
453,384,85137,2,0,L|364:368,2,89.9999972534181,10|0|2,3:2|1:0|0:3,0:0:0:0:
293,218,85558,1,0,1:0:0:0:
293,218,85628,1,0,0:0:0:0:
293,218,85698,2,0,L|382:206,1,89.9999972534181,10|0,3:2|1:0,0:0:0:0:
495,1,85978,6,0,P|437:31|423:95,1,134.999995880127,2|0,1:2|0:0,0:0:0:0:
480,151,86259,2,0,L|471:240,1,89.9999972534181,10|0,3:2|1:0,0:0:0:0:
337,78,86539,1,2,1:3:0:0:
276,6,86679,1,0,1:0:0:0:
99,87,86819,1,10,3:2:0:0:
196,198,86959,6,0,P|211:157|202:114,1,89.9999972534181,0|2,1:0|0:3,0:0:0:0:
0,23,87240,1,0,1:0:0:0:
23,200,87380,2,0,L|108:169,2,89.9999972534181,10|0|2,3:2|1:0|0:3,0:0:0:0:
124,290,87801,1,0,1:3:0:0:
124,290,87871,1,0,1:0:0:0:
124,290,87941,1,10,3:2:0:0:
0,317,88081,1,0,1:0:0:0:
382,361,88221,5,0,3:1:0:0:
239,327,88361,1,0,3:1:0:0:
387,345,88502,5,0,3:1:0:0:
244,311,88642,1,0,3:1:0:0:
390,334,88782,5,8,3:2:0:0:
247,300,88922,1,0,3:2:0:0:
395,318,89063,5,8,3:2:0:0:
252,284,89203,1,0,3:1:0:0:
487,265,89343,6,0,L|458:179,1,89.9999972534181,8|8,3:2|3:2,0:0:0:0:
351,57,89623,1,8,3:2:0:0:
455,71,89763,1,8,3:2:0:0:
271,208,89903,1,8,3:2:0:0:
0,81,90044,1,8,3:2:0:0:
0,282,90184,2,0,L|85:254,1,89.9999972534181,8|8,3:2|3:2,0:0:0:0:
226,83,90464,5,8,3:2:0:0:
298,80,90558,1,8,3:2:0:0:
351,105,90651,1,8,3:3:0:0:
379,144,90745,1,4,3:3:0:0:
388,178,90838,1,0,1:3:0:0:
385,201,90931,1,0,1:3:0:0:
380,212,91025,5,8,3:2:0:0:
308,203,91118,1,8,3:2:0:0:
250,220,91212,1,8,3:3:0:0:
212,249,91305,1,4,3:3:0:0:
196,281,91399,1,0,1:3:0:0:
193,304,91492,1,0,1:3:0:0:
197,315,91586,5,8,3:2:0:0:
262,285,91679,1,8,3:2:0:0:
322,290,91773,1,8,3:3:0:0:
358,320,91866,1,4,3:3:0:0:
379,349,91960,1,0,1:3:0:0:
391,369,92053,1,0,1:3:0:0:
393,380,92146,5,8,3:2:0:0:
317,341,92240,1,8,3:2:0:0:
286,263,92333,1,8,3:2:0:0:
297,179,92427,1,8,3:2:0:0:
332,103,92520,1,8,3:2:0:0:
414,85,92614,1,8,3:2:0:0:
483,131,92707,5,12,3:2:0:0:
254,90,92847,1,8,3:2:0:0:
370,15,92987,1,8,3:2:0:0:
132,100,93128,1,8,3:2:0:0:
294,197,93268,1,8,3:2:0:0:
20,105,93408,1,8,3:2:0:0:
225,0,93548,1,8,3:2:0:0:
0,360,93688,5,4,1:1:0:0:
72,315,94109,1,0,0:0:0:0:
116,381,94389,1,0,1:1:0:0:
197,377,94530,2,0,B|262:381|324:342|324:342|414:350,1,224.999993133545,0|0,1:1|0:0,0:0:0:0:
512,384,94950,5,4,1:2:0:0:
330,265,95091,1,0,1:0:0:0:
512,171,95231,1,10,0:0:0:0:
283,123,95371,2,0,P|330:137|380:144,1,100,0|0,1:0|1:2,0:0:0:0:
512,50,95651,1,0,1:0:0:0:
349,41,95791,1,10,0:0:0:0:
239,187,95932,6,0,P|190:198|142:212,1,100,0|0,1:0|2:0,0:0:0:0:
11,177,96212,1,0,1:0:0:0:
11,177,96282,1,0,1:0:0:0:
11,177,96352,1,10,0:0:0:0:
118,8,96492,2,0,P|123:57|107:104,1,100,0|0,1:0|1:0,0:0:0:0:
24,304,96773,1,0,1:0:0:0:
157,224,96913,1,10,0:0:0:0:
287,313,97053,1,0,1:0:0:0:
287,313,97123,1,8,3:2:0:0:
287,313,97193,5,0,1:1:0:0:
96,384,97334,1,0,1:0:0:0:
256,162,97474,1,10,0:0:0:0:
415,357,97614,2,0,P|362:346|318:333,1,100,0|0,1:0|1:0,0:0:0:0:
285,50,97894,1,0,1:0:0:0:
158,190,98034,1,10,0:0:0:0:
417,137,98175,2,0,B|435:186|435:186|418:230,1,100,0|0,1:0|2:0,0:0:0:0:
332,384,98455,1,0,1:0:0:0:
332,384,98525,1,0,1:0:0:0:
332,384,98595,5,14,0:0:0:0:
311,153,98735,1,0,1:0:0:0:
229,269,98876,1,14,0:0:0:0:
230,27,99016,1,0,1:0:0:0:
230,27,99086,1,0,1:0:0:0:
229,27,99156,2,0,P|158:48|84:61,1,150,14|0,0:0|1:0,0:0:0:0:
50,45,99436,5,4,1:1:0:0:
141,170,99577,1,0,1:0:0:0:
331,0,99717,1,10,0:0:0:0:
471,99,99857,2,0,P|458:147|457:196,1,100,0|0,1:0|1:2,0:0:0:0:
388,384,100137,1,0,1:0:0:0:
512,314,100277,1,10,0:0:0:0:
296,238,100418,6,0,L|197:256,1,100,0|0,1:0|2:0,0:0:0:0:
40,369,100698,1,0,1:0:0:0:
40,369,100768,1,0,1:0:0:0:
40,369,100838,1,10,0:0:0:0:
24,133,100978,2,0,P|33:182|58:226,1,100,0|0,1:0|1:0,0:0:0:0:
204,353,101259,1,0,1:0:0:0:
309,227,101399,1,10,0:0:0:0:
178,88,101539,1,0,1:0:0:0:
178,88,101609,1,8,3:2:0:0:
178,88,101679,5,0,1:1:0:0:
223,257,101820,1,0,1:0:0:0:
417,177,101960,1,10,0:0:0:0:
341,19,102100,1,0,1:0:0:0:
117,197,102240,5,0,1:0:0:0:
349,309,102380,1,0,1:0:0:0:
444,76,102520,1,10,0:0:0:0:
196,5,102661,2,0,L|98:29,1,100,4|0,1:0|2:0,0:0:0:0:
31,149,102941,5,0,1:0:0:0:
152,230,103081,2,0,L|219:241,3,50,14|8|8|8,0:0|3:3|3:3|3:3,0:0:0:0:
242,310,103361,2,0,L|306:320,3,50,8|8|8|8,3:3|3:3|3:3|3:3,0:0:0:0:
366,371,103642,1,4,3:3:0:0:
382,323,103712,1,8,3:3:0:0:
398,275,103782,1,8,3:3:0:0:
415,228,103852,1,0,3:3:0:0:
432,181,103922,5,4,1:2:0:0:
507,314,104062,1,0,1:0:0:0:
332,77,104203,1,10,0:0:0:0:
171,162,104343,2,0,B|195:176|195:176|230:176|266:191,1,100,0|0,1:0|1:2,0:0:0:0:
359,300,104623,1,0,1:0:0:0:
448,161,104763,1,10,0:0:0:0:
166,214,104904,6,0,P|158:164|144:116,1,100,0|0,1:0|2:0,0:0:0:0:
0,0,105184,1,0,1:0:0:0:
0,0,105254,1,0,1:0:0:0:
0,0,105324,1,10,0:0:0:0:
0,203,105464,2,0,B|47:228|47:228|92:213,1,100,0|0,1:0|1:0,0:0:0:0:
125,277,105675,1,0,1:0:0:0:
91,297,105745,1,0,1:0:0:0:
57,318,105815,1,0,1:0:0:0:
22,337,105885,1,10,0:0:0:0:
162,384,106025,1,0,1:0:0:0:
162,384,106095,1,8,3:2:0:0:
162,384,106165,5,0,1:1:0:0:
290,304,106306,1,0,1:0:0:0:
337,167,106446,1,10,0:0:0:0:
511,323,106586,2,0,P|462:331|415:346,1,100,0|0,1:0|1:0,0:0:0:0:
279,384,106866,1,0,1:0:0:0:
193,215,107006,1,10,0:0:0:0:
463,122,107147,2,0,P|452:170|445:220,1,100,0|0,1:0|2:0,0:0:0:0:
415,384,107427,1,0,1:0:0:0:
415,384,107497,1,0,1:0:0:0:
415,384,107567,5,14,0:0:0:0:
363,155,107707,1,0,1:0:0:0:
198,251,107848,1,14,0:0:0:0:
178,42,107988,1,0,1:0:0:0:
178,42,108058,1,0,1:0:0:0:
178,42,108128,2,0,P|251:27|323:7,1,150,14|0,0:0|1:0,0:0:0:0:
357,11,108408,5,4,1:1:0:0:
511,98,108549,1,0,1:0:0:0:
390,231,108689,1,10,0:0:0:0:
245,125,108829,2,0,P|236:174|223:222,1,100,0|0,1:0|1:2,0:0:0:0:
99,384,109109,1,0,1:0:0:0:
294,340,109249,1,10,0:0:0:0:
23,265,109390,6,0,P|72:257|119:241,1,100,0|0,1:0|2:0,0:0:0:0:
237,75,109670,1,0,1:0:0:0:
237,75,109740,1,0,1:0:0:0:
237,75,109810,1,10,0:0:0:0:
71,5,109950,2,0,P|88:52|97:102,1,100,0|0,1:0|1:0,0:0:0:0:
97,271,110230,1,0,1:0:0:0:
273,233,110371,1,10,0:0:0:0:
477,206,110511,1,0,1:0:0:0:
477,206,110581,1,8,3:2:0:0:
477,206,110651,5,4,1:1:0:0:
271,121,110792,1,0,1:0:0:0:
423,34,110932,1,10,0:0:0:0:
364,248,111072,2,0,B|385:357|385:357|350:375,1,150,4|0,1:2|0:0,0:0:0:0:
300,378,111352,1,0,1:0:0:0:
175,165,111492,1,10,0:0:0:0:
26,342,111633,2,0,B|74:318|74:318|127:316|169:304,1,150,4|0,1:0|0:0,0:0:0:0:
202,308,111913,1,0,1:0:0:0:
303,116,112053,1,8,2:0:0:0:
440,269,112193,5,8,2:0:0:0:
266,225,112333,1,8,2:0:0:0:
381,132,112473,1,8,2:0:0:0:
330,358,112614,1,8,2:0:0:0:
164,213,112754,1,8,2:0:0:0:
226,43,112894,6,0,B|271:61|271:61|305:45|354:37,1,134.999995880127,6|0,1:2|0:0,0:0:0:0:
429,13,113174,2,0,B|469:32|469:32|497:118,1,134.999995880127,0|0,1:0|0:0,0:0:0:0:
490,191,113455,1,12,3:2:0:0:
490,191,113875,6,0,P|469:255|476:322,1,134.999995880127,0|0,1:0|0:0,0:0:0:0:
430,383,114156,2,0,P|409:378|388:368,1,44.999998626709,0|0,1:0|0:0,0:0:0:0:
313,339,114296,2,0,P|295:349|278:368,1,44.999998626709,0|0,1:0|0:0,0:0:0:0:
210,333,114436,1,0,1:0:0:0:
30,360,114576,1,12,3:2:0:0:
102,312,114716,2,0,B|112:281|112:281|86:181,1,134.999995880127,0|0,1:0|0:0,0:0:0:0:
20,148,114997,1,0,3:0:0:0:
26,114,115067,1,8,2:0:0:0:
34,84,115137,6,0,B|64:27|154:54,1,134.999995880127,0|0,1:0|0:0,0:0:0:0:
211,102,115417,2,0,B|227:138|260:158|260:158|241:214,1,134.999995880127,0|0,1:0|0:0,0:0:0:0:
182,260,115698,1,12,3:2:0:0:
182,260,116118,2,0,B|244:242|244:242|309:267,1,134.999995880127,0|0,1:0|0:0,0:0:0:0:
374,301,116399,2,0,P|401:265|404:228,1,44.999998626709
444,199,116539,2,0,L|428:156,1,44.999998626709,0|0,1:0|0:0,0:0:0:0:
462,92,116679,1,0,1:0:0:0:
322,0,116819,1,12,3:2:0:0:
260,77,116959,2,0,B|238:91|238:91|188:96|131:71,1,134.999995880127,0|0,1:0|0:0,0:0:0:0:
74,15,117240,1,0,3:0:0:0:
57,39,117310,1,8,2:0:0:0:
33,64,117380,6,0,B|48:139|15:195,1,134.999995880127,0|0,1:0|0:0,0:0:0:0:
0,275,117660,2,0,B|5:339|21:375|71:366,1,134.999995880127,0|0,1:0|0:0,0:0:0:0:
150,335,117941,1,12,3:2:0:0:
150,335,118361,6,0,L|283:353,1,134.999995880127,0|0,1:0|0:0,0:0:0:0:
358,333,118642,2,0,P|349:313|336:295,1,44.999998626709,0|0,1:0|1:0,0:0:0:0:
269,251,118782,2,0,L|278:206,1,44.999998626709,0|0,1:0|0:0,0:0:0:0:
223,154,118922,1,0,1:0:0:0:
329,4,119062,1,12,3:2:0:0:
390,78,119202,2,0,B|407:60|407:60|512:90,1,134.999995880127,0|0,1:0|0:0,0:0:0:0:
474,163,119483,1,0,3:0:0:0:
483,197,119553,1,8,2:0:0:0:
494,234,119623,5,0,1:0:0:0:
456,384,119763,1,0,1:0:0:0:
256,339,119903,1,0,1:0:0:0:
299,176,120044,1,0,1:0:0:0:
372,283,120184,6,0,L|195:311,1,179.999994506836,12|0,3:2|0:0,0:0:0:0:
0,92,120604,2,0,L|177:63,1,179.999994506836,12|4,3:2|1:3,0:0:0:0:
210,78,120955,5,4,1:3:0:0:
245,77,121025,1,8,3:0:0:0:
279,66,121095,1,8,1:3:0:0:
313,74,121165,1,8,3:2:0:0:
341,95,121235,1,8,3:2:0:0:
357,127,121305,1,4,3:0:0:0:
357,162,121375,1,8,3:2:0:0:
372,194,121445,1,8,3:2:0:0:
402,213,121516,1,4,3:0:0:0:
444,209,121586,5,0,1:0:0:0:
372,218,121656,1,0,1:0:0:0:
300,227,121726,1,8,3:2:0:0:
228,237,121796,1,8,3:2:0:0:
156,245,121866,1,4,1:2:0:0:
234,368,122007,5,0,1:0:0:0:
0,219,122147,1,10,0:0:0:0:
104,376,122287,2,0,P|110:326|125:278,1,100,0|0,1:0|1:2,0:0:0:0:
195,61,122567,1,0,1:0:0:0:
37,127,122707,1,10,0:0:0:0:
266,285,122847,6,0,P|315:282|365:282,1,100,0|0,1:0|2:0,0:0:0:0:
512,383,123128,1,0,1:0:0:0:
512,383,123198,1,0,1:0:0:0:
512,383,123268,1,10,0:0:0:0:
489,127,123408,2,0,B|475:178|475:178|495:220,1,100,0|0,1:0|1:0,0:0:0:0:
392,368,123689,1,0,1:0:0:0:
370,188,123829,1,10,0:0:0:0:
407,32,123969,1,0,1:0:0:0:
407,32,124039,1,8,3:2:0:0:
407,32,124109,5,0,1:1:0:0:
234,137,124250,1,0,1:0:0:0:
385,221,124390,1,10,0:0:0:0:
266,1,124530,2,0,P|218:16|169:24,1,100,0|0,1:0|1:0,0:0:0:0:
0,8,124810,1,0,1:0:0:0:
27,190,124950,1,10,0:0:0:0:
204,113,125091,2,0,P|192:162|198:211,1,100,0|0,1:0|2:0,0:0:0:0:
331,382,125371,1,0,1:0:0:0:
331,382,125441,1,0,1:0:0:0:
331,382,125511,5,14,0:0:0:0:
128,368,125651,1,0,1:0:0:0:
395,212,125792,1,14,0:0:0:0:
180,212,125932,1,0,1:0:0:0:
180,212,126002,1,0,1:0:0:0:
180,212,126072,2,0,L|34:177,1,150,14|0,0:0|1:0,0:0:0:0:
11,108,126352,5,4,1:1:0:0:
219,11,126493,1,0,1:0:0:0:
61,0,126633,1,10,0:0:0:0:
280,149,126773,2,0,P|235:126|186:119,1,100,0|0,1:0|1:2,0:0:0:0:
40,205,127053,1,0,1:0:0:0:
135,348,127193,1,10,0:0:0:0:
300,336,127334,6,0,P|301:286|317:238,1,100,0|0,1:0|2:0,0:0:0:0:
372,50,127614,1,0,1:0:0:0:
372,50,127684,1,0,1:0:0:0:
372,50,127754,1,10,0:0:0:0:
512,185,127894,2,0,P|463:171|414:166,1,100,0|0,1:0|1:0,0:0:0:0:
288,72,128174,2,0,P|191:86|120:154,1,200,0|0,1:0|1:0,0:0:0:0:
89,263,128595,5,0,1:1:0:0:
245,231,128735,1,0,1:0:0:0:
0,117,128875,1,10,0:0:0:0:
67,356,129016,2,0,P|139:338|214:335,1,150,0|0,1:0|0:0,0:0:0:0:
244,354,129296,1,0,1:0:0:0:
421,360,129436,1,10,0:0:0:0:
367,151,129576,2,0,P|329:216|302:286,1,150,4|0,1:0|0:0,0:0:0:0:
313,313,129857,1,0,1:0:0:0:
463,254,129997,1,14,0:0:0:0:
240,190,130137,1,0,0:0:0:0:
199,112,130277,5,8,3:3:0:0:
312,6,130417,1,0,0:0:0:0:
432,124,130558,1,4,3:3:0:0:
311,237,130698,1,0,0:0:0:0:
162,219,130838,6,0,P|82:208|2:202,1,160,4|10,1:1|3:2,0:0:0:0:
0,82,131259,1,0,1:0:0:0:
0,82,131539,1,0,1:0:0:0:
106,0,131679,1,10,3:2:0:0:
200,167,131819,2,0,B|210:195|210:195|188:237|179:279,1,120,0|0,1:0|0:0,0:0:0:0:
214,368,132100,1,0,1:0:0:0:
214,368,132170,1,0,1:0:0:0:
214,368,132240,1,10,3:2:0:0:
390,273,132380,1,0,1:0:0:0:
345,336,132520,1,2,0:3:0:0:
280,294,132660,1,0,1:0:0:0:
310,28,132801,1,10,3:2:0:0:
423,64,132941,1,0,1:0:0:0:
423,64,133011,1,0,3:0:0:0:
423,64,133081,6,0,B|448:84|448:84|468:121|450:210,1,160,2|10,1:2|3:2,0:0:0:0:
512,274,133502,1,0,1:0:0:0:
467,353,133642,2,0,P|410:358|348:370,2,120,2|0|0,1:3|0:0|1:0,0:0:0:0:
373,241,134202,1,2,0:3:0:0:
256,339,134343,1,0,1:0:0:0:
256,339,134413,1,0,1:0:0:0:
256,339,134483,1,10,3:2:0:0:
144,307,134623,1,0,1:0:0:0:
45,380,134763,1,2,0:3:0:0:
35,367,134833,1,0,1:0:0:0:
26,353,134903,1,0,1:3:0:0:
18,339,134973,1,0,1:0:0:0:
13,323,135044,1,10,3:2:0:0:
56,197,135184,1,0,1:0:0:0:
0,139,135324,6,0,B|-16:114|9:10|9:10|35:0,1,160,0|10,1:1|3:2,0:0:0:0:
114,46,135745,2,0,B|154:28|154:28|199:35|269:27,1,160,0|0,1:0|1:0,0:0:0:0:
360,0,136165,1,10,3:2:0:0:
439,27,136305,1,0,1:0:0:0:
257,171,136586,1,0,1:0:0:0:
257,171,136656,1,0,1:0:0:0:
257,171,136726,1,10,3:2:0:0:
315,116,136866,1,0,1:0:0:0:
386,155,137006,1,2,0:3:0:0:
370,234,137146,1,0,1:0:0:0:
146,333,137287,1,10,3:2:0:0:
237,384,137427,1,0,1:0:0:0:
237,384,137497,1,0,3:0:0:0:
237,384,137567,6,0,B|228:304|241:272|241:272|201:246,1,160,2|10,1:2|3:2,0:0:0:0:
51,26,137987,2,0,B|44:39|44:39|57:75|34:182,1,160,0|0,1:0|1:0,0:0:0:0:
13,309,138408,1,10,3:2:0:0:
146,327,138548,2,0,B|177:314|177:314|303:322,1,160,0|0,1:0|1:0,0:0:0:0:
369,370,138899,1,0,1:0:0:0:
369,370,138969,1,10,3:2:0:0:
510,374,139109,1,0,1:0:0:0:
405,291,139249,1,8,3:2:0:0:
337,252,139389,1,0,3:2:0:0:
337,252,139459,1,0,3:2:0:0:
337,252,139530,1,8,3:2:0:0:
455,100,139670,1,8,3:2:0:0:
277,126,139810,6,0,P|315:136|355:141,1,80,2|0,1:2|1:0,0:0:0:0:
355,141,140090,1,10,3:2:0:0:
219,0,140230,2,0,P|179:4|140:15,1,80,0|2,1:0|1:3,0:0:0:0:
140,15,140511,1,0,1:0:0:0:
14,26,140651,1,10,3:2:0:0:
0,153,140791,6,0,B|19:198|19:198|27:308,1,160,0|0,1:0|1:0,0:0:0:0:
8,384,141142,1,0,1:0:0:0:
8,384,141212,1,10,3:2:0:0:
241,337,141352,2,0,B|190:346|190:346|142:323|112:272,1,160,0|0,1:0|1:0,0:0:0:0:
143,164,141773,1,10,3:2:0:0:
81,68,141913,1,0,1:0:0:0:
173,2,142053,6,0,B|246:14|294:41|294:41|325:35,1,160,2|10,1:2|3:2,0:0:0:0:
509,149,142473,2,0,B|487:121|487:121|451:112|363:111,1,160,0|0,1:0|1:0,0:0:0:0:
305,186,142894,1,10,3:2:0:0:
335,384,143034,2,0,P|339:305|394:249,1,160,0|0,1:0|1:0,0:0:0:0:
465,296,143385,1,0,1:0:0:0:
465,296,143454,1,10,3:2:0:0:
366,383,143595,1,0,1:0:0:0:
223,343,143735,6,0,L|169:348,2,53.3333333333333,8|8|8,0:2|0:3|0:3,0:0:0:0:
106,304,144016,2,0,L|52:309,2,53.3333333333333,4|4|4,3:3|3:3|3:3,0:0:0:0:
0,223,144296,5,0,1:1:0:0:
14,183,144389,1,0,3:0:0:0:
31,143,144483,1,0,1:0:0:0:
73,223,144576,5,10,3:2:0:0:
89,189,144670,1,0,3:0:0:0:
103,154,144763,1,0,1:0:0:0:
153,223,144857,5,2,1:3:0:0:
165,193,144950,1,0,3:0:0:0:
179,164,145044,1,0,1:0:0:0:
231,223,145137,5,10,3:2:0:0:
241,198,145230,1,0,3:0:0:0:
250,172,145324,1,0,1:0:0:0:
307,223,145417,5,2,0:3:0:0:
314,203,145511,1,0,3:0:0:0:
323,183,145604,1,0,1:0:0:0:
383,223,145698,5,10,3:2:0:0:
389,208,145791,1,0,3:0:0:0:
395,193,145885,1,0,1:0:0:0:
462,223,145978,5,2,0:3:0:0:
465,212,146072,1,0,3:0:0:0:
467,201,146165,1,0,1:0:0:0:
512,223,146259,5,10,3:2:0:0:
510,217,146352,1,0,3:0:0:0:
512,211,146445,1,0,1:0:0:0:
512,269,146539,6,0,B|461:254|461:254|411:261|365:298,1,160,2|10,1:2|3:2,0:0:0:0:
142,298,146959,2,0,B|193:313|193:313|243:306|288:268,1,160,0|0,1:0|1:0,0:0:0:0:
280,379,147380,1,10,3:2:0:0:
59,358,147520,2,0,B|44:318|44:318|64:228|33:122,1,240,4|0,1:2|0:0,0:0:0:0:
0,32,148081,1,8,3:2:0:0:
146,0,148221,1,0,1:0:0:0:
146,0,148291,1,0,1:0:0:0:
146,0,148361,1,0,1:0:0:0:
215,55,148502,2,0,B|260:45|301:48|301:48|329:31,1,120,12|0,3:2|0:0,0:0:0:0:
330,31,148782,6,0,P|276:53|248:104,1,119.999996337891,4|10,1:0|2:0,0:0:0:0:
341,244,149249,2,0,P|347:194|337:145,1,99.9999969482423,0|0,0:0|1:3,0:0:0:0:
226,226,149623,1,10,2:0:0:0:
490,183,149903,1,0,1:0:0:0:
226,226,150184,1,10,2:0:0:0:
490,183,150464,1,0,1:0:0:0:
364,204,150604,1,0,1:0:0:0:
490,183,150745,1,10,2:0:0:0:
296,365,151025,6,0,L|177:348,1,119.999996337891,0|10,1:0|2:0,0:0:0:0:
77,368,151492,2,0,P|100:323|107:274,1,99.9999969482423,0|0,0:0|1:0,0:0:0:0:
26,210,151866,1,10,2:0:0:0:
294,127,152146,1,0,1:0:0:0:
26,210,152427,1,10,2:0:0:0:
294,127,152707,1,0,1:0:0:0:
166,166,152847,1,0,3:0:0:0:
294,127,152988,1,10,2:0:0:0:
0,54,153268,6,0,B|3:96|21:126|21:126|16:170,1,119.999996337891,4|10,1:2|2:0,0:0:0:0:
111,347,153735,2,0,B|114:305|126:283|126:283|124:249,1,99.9999969482423,0|0,0:0|1:0,0:0:0:0:
115,52,154109,1,10,2:0:0:0:
225,279,154389,1,0,1:0:0:0:
115,52,154670,1,10,2:0:0:0:
225,279,154950,1,0,1:0:0:0:
101,219,155090,1,0,1:0:0:0:
225,279,155231,1,10,2:0:0:0:
493,105,155511,6,0,B|459:90|459:90|429:104|378:105,1,119.999996337891,0|10,1:0|2:0,0:0:0:0:
167,82,156072,1,0,1:0:0:0:
167,82,156212,1,0,1:0:0:0:
287,0,156352,1,10,2:0:0:0:
400,222,156632,6,0,B|460:212|460:212|479:190,1,89.9999972534181,10|0,1:2|0:0,0:0:0:0:
334,263,156913,2,0,B|312:320|312:320|322:347,1,89.9999972534181,10|0,1:2|0:0,0:0:0:0:
331,191,157193,2,0,B|292:143|292:143|263:138,1,89.9999972534181,10|0,1:2|0:0,0:0:0:0:
198,181,157473,1,14,1:2:0:0:
119,229,157614,1,0,3:0:0:0:
60,284,157754,6,0,B|99:274|99:274|133:289|177:282,1,119.999996337891,4|10,1:0|2:0,0:0:0:0:
239,345,158221,2,0,B|290:341|323:351|323:351|336:344,1,99.9999969482423,0|0,0:0|1:0,0:0:0:0:
426,384,158595,1,10,2:0:0:0:
512,72,158875,1,0,1:0:0:0:
479,297,159156,1,10,2:0:0:0:
512,72,159436,1,0,1:0:0:0:
365,107,159576,1,0,1:0:0:0:
512,72,159717,1,10,2:0:0:0:
270,14,159997,6,0,B|239:7|239:7|211:24|154:30,1,119.999996337891,0|10,1:0|2:0,0:0:0:0:
17,11,160464,2,0,B|35:39|35:39|30:68|35:105,1,99.9999969482423,0|0,0:0|1:0,0:0:0:0:
9,214,160838,1,10,2:0:0:0:
350,364,161118,1,0,1:0:0:0:
85,277,161399,1,10,2:0:0:0:
160,345,161539,1,4,1:0:0:0:
160,345,161819,5,8,3:2:0:0:
253,283,161960,1,8,3:2:0:0:
253,91,162100,1,8,3:2:0:0:
336,31,162240,6,0,B|386:20|386:20|451:64|451:64|499:50,1,179.999994506836,4|10,1:2|3:2,0:0:0:0:
334,211,162660,2,0,B|334:179|346:153|346:153|341:123,2,89.9999972534181,0|0|0,0:0|1:0|1:0,0:0:0:0:
435,122,163081,1,10,3:2:0:0:
505,306,163221,2,0,B|444:318|444:318|402:297|330:289,1,179.999994506836,0|0,1:0|1:0,0:0:0:0:
262,348,163642,2,0,B|236:339|236:339|218:344|174:335,1,89.9999972534181,10|0,3:2|1:0,0:0:0:0:
94,371,163922,1,0,0:0:0:0:
0,245,164062,2,0,B|55:273|55:273|136:256|158:220,1,179.999994506836,0|0,1:0|0:0,0:0:0:0:
217,154,164483,6,0,B|212:62|191:10|191:10|158:5,1,179.999994506836,0|10,1:0|3:2,0:0:0:0:
242,236,165044,1,0,1:0:0:0:
242,236,165184,1,0,1:0:0:0:
105,130,165324,1,10,3:2:0:0:
321,203,165464,1,0,1:0:0:0:
321,203,165745,5,0,1:0:0:0:
306,324,165885,1,8,3:2:0:0:
445,170,166025,1,8,3:2:0:0:
432,301,166165,1,8,3:2:0:0:
219,39,166305,5,8,3:2:0:0:
195,176,166445,1,8,3:2:0:0:
73,132,166586,1,8,3:2:0:0:
20,244,166726,5,4,1:0:0:0:
56,319,166819,1,8,1:2:0:0:
121,350,166913,1,8,1:2:0:0:
180,349,167006,1,8,3:3:0:0:
226,335,167100,1,4,3:3:0:0:
255,315,167193,1,4,1:3:0:0:
264,292,167287,5,4,1:0:0:0:
300,217,167380,1,8,1:2:0:0:
365,186,167474,1,8,1:2:0:0:
424,187,167567,1,8,3:3:0:0:
470,201,167661,1,4,3:3:0:0:
499,221,167754,1,4,1:3:0:0:
507,243,167847,6,0,L|495:332,1,89.9999972534181,4|0,1:0|0:0,0:0:0:0:
197,331,168128,2,0,L|209:242,1,89.9999972534181,8|0,3:3|0:0,0:0:0:0:
276,24,168408,5,0,1:3:0:0:
359,14,168502,1,0,1:3:0:0:
421,69,168595,1,0,1:3:0:0:
382,138,168688,2,0,L|307:132,1,75,12|0,1:2|0:0,0:0:0:0:
231,149,168969,5,4,1:2:0:0:
134,0,169110,1,0,1:0:0:0:
0,113,169250,1,10,0:0:0:0:
87,314,169390,2,0,B|104:286|104:286|101:267|110:209,1,110.000003356934,0|0,1:0|1:2,0:0:0:0:
131,29,169670,1,0,1:0:0:0:
296,253,169810,1,10,0:0:0:0:
372,24,169951,6,0,B|335:35|293:44|293:44|274:65,1,110.000003356934,0|0,1:0|2:0,0:0:0:0:
197,134,170231,1,0,1:0:0:0:
197,134,170301,1,0,1:0:0:0:
197,134,170371,1,10,0:0:0:0:
415,286,170511,2,0,P|431:235|424:180,1,110.000003356934,0|0,1:0|1:0,0:0:0:0:
286,356,170792,1,0,1:0:0:0:
186,286,170932,1,10,0:0:0:0:
23,360,171072,1,0,1:0:0:0:
23,360,171142,1,8,3:2:0:0:
23,360,171212,5,0,1:1:0:0:
35,159,171353,1,0,1:0:0:0:
169,371,171493,1,10,0:0:0:0:
295,172,171633,2,0,P|240:182|188:197,1,110.000003356934,0|0,1:0|1:0,0:0:0:0:
80,259,171913,1,0,1:0:0:0:
0,54,172053,1,10,0:0:0:0:
199,0,172194,2,0,B|221:17|221:17|261:21|300:37,1,110.000003356934,0|0,1:0|2:0,0:0:0:0:
414,34,172474,1,0,1:0:0:0:
414,34,172544,1,0,1:0:0:0:
414,34,172614,5,14,0:0:0:0:
370,235,172754,1,0,1:0:0:0:
213,80,172895,1,14,0:0:0:0:
182,316,173035,1,0,1:0:0:0:
182,316,173105,1,0,1:0:0:0:
183,316,173175,2,0,B|254:337|286:336|286:336|335:369,1,165.000005035401,14|0,0:0|1:0,0:0:0:0:
368,370,173455,5,4,1:1:0:0:
506,215,173596,1,0,1:0:0:0:
512,384,173736,1,10,0:0:0:0:
315,245,173876,2,0,B|310:211|319:168|319:168|341:144,1,110.000003356934,0|0,1:0|1:2,0:0:0:0:
512,0,174156,1,0,1:0:0:0:
503,177,174296,1,10,0:0:0:0:
302,0,174437,6,0,L|193:17,1,110.000003356934,0|0,1:0|2:0,0:0:0:0:
36,0,174717,1,0,1:0:0:0:
36,0,174787,1,0,1:0:0:0:
36,0,174857,1,10,0:0:0:0:
0,115,174997,2,0,B|5:144|19:162|19:162|31:219,1,110.000003356934,0|0,1:0|1:0,0:0:0:0:
253,276,175278,1,0,1:0:0:0:
93,340,175418,1,10,0:0:0:0:
158,138,175558,1,0,1:0:0:0:
158,138,175628,1,8,3:2:0:0:
158,138,175698,5,0,1:1:0:0:
342,73,175839,1,0,1:0:0:0:
476,320,175979,1,10,0:0:0:0:
253,276,176119,1,0,1:0:0:0:
157,48,176259,5,0,1:0:0:0:
449,148,176399,1,0,1:0:0:0:
262,379,176539,1,10,0:0:0:0:
26,246,176680,2,0,B|11:171|11:171|-1:139,1,110.000003356934,4|0,1:0|2:0,0:0:0:0:
0,11,176960,5,0,1:0:0:0:
139,56,177100,2,0,L|211:46,2,73.3333355712891,14|8|8,0:0|0:2|0:2,0:0:0:0:
284,7,177381,2,0,L|356:0,2,73.3333355712891,8|8|8,3:3|3:3|3:3,0:0:0:0:
418,53,177661,1,4,3:3:0:0:
463,110,177754,1,4,3:3:0:0:
462,183,177848,1,4,3:3:0:0:
412,236,177941,5,4,1:2:0:0:
174,161,178081,1,0,1:0:0:0:
332,69,178222,1,10,0:0:0:0:
274,300,178362,2,0,B|236:291|236:291|217:306|170:318,1,110.000003356934,0|0,1:0|1:2,0:0:0:0:
23,376,178642,1,0,1:0:0:0:
0,166,178782,1,10,0:0:0:0:
76,87,178923,6,0,B|154:99|154:99|184:88,1,110.000003356934,0|0,1:0|2:0,0:0:0:0:
353,30,179203,1,0,1:0:0:0:
353,30,179273,1,0,1:0:0:0:
353,30,179343,1,10,0:0:0:0:
489,229,179483,2,0,B|380:208,1,110.000003356934,0|0,1:0|1:0,0:0:0:0:
340,269,179694,1,0,1:0:0:0:
360,303,179764,1,0,1:0:0:0:
381,337,179834,1,0,1:0:0:0:
400,372,179904,1,10,0:0:0:0:
500,328,180044,1,0,1:0:0:0:
418,138,180184,5,0,1:1:0:0:
249,217,180325,1,0,1:0:0:0:
62,159,180465,1,10,0:0:0:0:
194,1,180605,2,0,P|184:55|180:110,1,110.000003356934,0|0,1:0|1:0,0:0:0:0:
245,369,180885,1,0,1:0:0:0:
0,262,181025,1,10,0:0:0:0:
309,204,181166,2,0,L|201:227,1,110.000003356934,0|0,1:0|2:0,0:0:0:0:
75,384,181446,1,0,1:0:0:0:
75,384,181516,1,0,1:0:0:0:
75,384,181586,5,14,0:0:0:0:
117,260,181726,1,0,1:0:0:0:
47,148,181867,1,14,0:0:0:0:
119,41,182007,1,0,1:0:0:0:
119,41,182077,1,0,1:0:0:0:
120,40,182147,2,0,B|159:18|159:18|236:17|266:61,1,165.000005035401,14|0,0:0|1:0,0:0:0:0:
276,80,182427,5,4,1:1:0:0:
188,201,182568,1,0,1:0:0:0:
457,293,182708,1,10,0:0:0:0:
405,17,182848,2,0,P|393:71|376:123,1,110.000003356934,0|0,1:0|1:2,0:0:0:0:
288,341,183128,1,0,1:0:0:0:
512,237,183268,1,10,0:0:0:0:
194,228,183408,6,0,P|248:227|302:238,1,110.000003356934,0|0,1:0|2:0,0:0:0:0:
437,373,183689,1,0,1:0:0:0:
437,373,183759,1,0,1:0:0:0:
437,373,183829,1,10,0:0:0:0:
490,50,183969,2,0,P|490:105|473:157,1,110.000003356934,0|0,1:0|1:0,0:0:0:0:
381,278,184249,2,0,B|338:302|338:302|260:305|207:206,1,220.000006713867,0|0,1:0|1:0,0:0:0:0:
199,131,184600,1,8,3:2:0:0:
199,131,184670,5,4,1:1:0:0:
376,15,184811,1,0,1:0:0:0:
50,179,184951,1,10,0:0:0:0:
359,170,185090,1,4,1:2:0:0:
57,0,185230,1,0,1:0:0:0:
206,281,185371,1,0,1:0:0:0:
509,100,185511,1,10,0:0:0:0:
252,0,185652,2,0,B|225:23|225:23|188:91|253:196,1,220.000006713867,4|0,1:0|1:0,0:0:0:0:
287,360,186072,5,8,2:0:0:0:
306,305,186165,1,8,0:3:0:0:
356,273,186259,1,8,0:3:0:0:
411,291,186352,5,8,2:0:0:0:
454,251,186445,1,8,0:3:0:0:
423,207,186539,1,8,0:3:0:0:
381,182,186632,5,8,2:0:0:0:
431,150,186726,1,8,0:3:0:0:
456,202,186819,1,8,0:3:0:0:
423,207,186913,5,2,1:2:0:0:
224,384,195324,6,0,L|243:313,2,73.3333355712891,8|8|8,2:3|2:3|2:3,0:0:0:0:
317,284,195604,2,0,L|336:213,2,73.3333355712891,4|4|4,2:3|2:3|2:3,0:0:0:0:
272,173,195885,5,0,1:0:0:0:
281,147,195955,1,0,0:0:0:0:
288,120,196025,1,0,3:0:0:0:
297,94,196095,1,0,3:0:0:0:
305,66,196165,6,0,B|278:27|278:27|205:26|171:65,1,165.000005035401,8|0,3:2|0:0,0:0:0:0:
122,122,196445,1,4,1:0:0:0:
52,147,196539,1,0,0:0:0:0:
20,212,196632,1,0,0:0:0:0:
47,280,196726,5,10,0:0:0:0:
179,315,196866,2,0,L|193:206,1,110.000003356934,0|0,1:0|2:0,0:0:0:0:
341,384,197146,1,0,1:0:0:0:
285,255,197287,1,10,0:0:0:0:
512,215,197427,2,0,P|457:213|404:197,1,110.000003356934,0|0,1:0|1:0,0:0:0:0:
229,70,197707,1,0,1:0:0:0:
361,0,197847,1,10,0:0:0:0:
428,132,197987,1,0,1:0:0:0:
293,202,198128,5,0,1:1:0:0:
145,9,198269,1,0,1:0:0:0:
15,126,198409,1,10,0:0:0:0:
121,266,198549,2,0,B|44:272|44:272|16:289,1,110.000003356934,0|0,1:0|1:0,0:0:0:0:
293,228,198829,1,0,1:0:0:0:
94,367,198969,1,10,0:0:0:0:
327,376,199110,6,0,B|346:355|346:355|388:366|426:365,1,110.000003356934,0|0,1:0|2:0,0:0:0:0:
503,144,199389,2,0,P|510:171|506:198,1,55.0000016784668,0|0,1:0|1:0,0:0:0:0:
438,284,199530,2,0,P|421:232|430:178,1,110.000003356934,14|0,0:0|1:0,0:0:0:0:
353,44,199809,2,0,P|353:71|346:97,1,55.0000016784668,14|0,0:0|0:0,0:0:0:0:
245,223,199950,1,0,1:0:0:0:
148,1,200090,1,14,0:0:0:0:
0,139,200230,1,0,1:0:0:0:
85,212,200371,5,4,1:1:0:0:
244,19,200512,1,0,1:0:0:0:
373,221,200652,1,10,0:0:0:0:
191,359,200792,2,0,B|201:321|201:321|220:293|219:253,1,110.000003356934,0|0,1:0|1:2,0:0:0:0:
270,126,201072,1,0,1:0:0:0:
512,219,201212,1,10,0:0:0:0:
403,12,201353,2,0,B|419:51|406:120,1,110.000003356934,0|0,1:0|2:0,0:0:0:0:
338,316,201633,1,0,1:0:0:0:
338,316,201703,1,0,1:0:0:0:
338,316,201773,5,10,0:0:0:0:
195,201,201913,2,0,B|160:201|160:201|134:225|90:225,1,110.000003356934,0|0,1:0|1:0,0:0:0:0:
0,176,202194,1,0,1:0:0:0:
103,74,202333,2,0,B|163:53|236:95|236:95|260:87,1,165.000005035401,10|8,0:0|3:2,0:0:0:0:
313,41,202614,5,0,1:1:0:0:
489,108,202755,1,0,1:0:0:0:
426,0,202894,1,10,0:0:0:0:
373,136,203035,2,0,B|349:170|363:243,1,110.000003356934,0|0,1:0|1:0,0:0:0:0:
466,325,203315,1,0,1:0:0:0:
357,266,203455,1,10,0:0:0:0:
261,319,203596,6,0,B|229:313|229:313|154:335,1,110.000003356934,4|0,1:0|2:0,0:0:0:0:
31,382,203876,1,0,1:0:0:0:
31,382,203946,1,0,1:0:0:0:
31,382,204016,1,14,0:0:0:0:
2,265,204156,2,0,P|9:210|6:155,1,110.000003356934,0|8,1:0|0:0,0:0:0:0:
7,111,204366,5,8,0:0:0:0:
50,114,204436,1,8,0:0:0:0:
93,114,204506,1,8,0:0:0:0:
136,112,204576,1,8,0:0:0:0:
179,120,204646,1,0,3:0:0:0:
222,121,204716,1,8,0:0:0:0:
266,127,204787,1,8,0:0:0:0:
309,125,204857,1,4,1:2:0:0:
512,104,204997,5,0,1:0:0:0:
392,26,205137,1,10,0:0:0:0:
416,204,205277,2,0,P|426:257|431:312,1,110.000003356934,0|0,1:0|1:2,0:0:0:0:
210,276,205558,2,0,P|199:329|194:384,1,110.000003356934,0|10,1:0|0:0,0:0:0:0:
50,114,205838,2,0,P|45:59|34:5,1,110.000003356934,0|0,1:0|2:0,0:0:0:0:
0,184,206119,1,0,1:0:0:0:
39,309,206259,5,10,0:0:0:0:
79,325,206329,1,0,3:0:0:0:
122,323,206399,1,8,0:0:0:0:
158,298,206469,1,0,3:0:0:0:
188,266,206539,1,8,0:0:0:0:
201,224,206609,1,0,3:0:0:0:
202,180,206679,1,8,0:0:0:0:
186,138,206749,1,0,3:0:0:0:
150,96,206819,5,8,0:0:0:0:
219,81,206889,1,8,0:0:0:0:
289,72,206959,1,8,0:0:0:0:
360,63,207030,1,8,0:0:0:0:
436,55,207100,6,0,B|511:44|511:44|507:20,2,100,4|0|10,1:1|1:0|3:2,0:0:0:0:
401,133,207521,2,0,B|373:154|373:154|392:217,1,100,0|2,1:0|1:3,0:0:0:0:
387,302,207801,1,0,1:0:0:0:
387,302,207941,1,10,3:2:0:0:
332,361,208082,6,0,B|302:350|302:350|235:361,1,100,0|2,1:0|0:3,0:0:0:0:
163,341,208362,1,0,1:0:0:0:
163,341,208432,1,0,1:0:0:0:
163,341,208502,1,10,3:2:0:0:
71,371,208642,2,0,B|16:356|16:356|17:312,1,100,0|2,1:0|0:3,0:0:0:0:
57,247,208923,1,0,1:0:0:0:
57,247,208993,1,0,0:0:0:0:
57,247,209063,1,10,3:2:0:0:
11,172,209202,1,0,1:0:0:0:
78,48,209343,5,2,1:2:0:0:
144,98,209484,1,0,1:0:0:0:
101,170,209624,1,10,3:2:0:0:
149,239,209764,2,0,P|198:229|247:225,1,100,0|2,1:0|1:3,0:0:0:0:
306,171,210044,1,0,1:0:0:0:
306,171,210184,1,10,3:2:0:0:
387,176,210325,2,0,P|375:128|365:79,1,100,0|2,1:0|0:3,0:0:0:0:
425,22,210605,1,0,1:0:0:0:
425,22,210675,1,0,1:0:0:0:
425,22,210745,5,10,3:2:0:0:
495,65,210885,1,0,1:0:0:0:
440,125,211026,1,2,0:3:0:0:
365,79,211166,1,0,1:3:0:0:
365,79,211236,1,0,1:0:0:0:
364,78,211306,2,0,B|325:56|325:56|262:81|223:78,1,150,10|0,3:2|3:0,0:0:0:0:
189,59,211586,5,0,1:1:0:0:
118,12,211727,1,0,1:0:0:0:
68,78,211867,1,10,3:2:0:0:
139,122,212007,2,0,P|129:170|128:220,1,100,0|2,1:0|1:3,0:0:0:0:
159,301,212287,1,0,1:0:0:0:
216,236,212427,2,0,B|248:224|265:200|265:200|287:278|245:332,1,200,10|0,3:2|1:0,0:0:0:0:
177,384,212707,5,2,0:3:0:0:
90,358,212848,1,0,1:0:0:0:
90,358,212918,1,0,1:0:0:0:
90,358,212988,1,10,3:2:0:0:
312,381,213128,2,0,P|360:369|409:360,1,100,0|2,1:0|0:3,0:0:0:0:
497,384,213408,1,0,1:0:0:0:
512,298,213548,2,0,B|481:281|481:281|486:218|458:170,1,150,10|0,3:2|3:0,0:0:0:0:
501,109,213829,5,2,1:2:0:0:
447,44,213970,1,0,1:0:0:0:
360,75,214110,1,10,3:2:0:0:
280,41,214249,1,0,1:0:0:0:
204,74,214389,2,0,B|191:88|118:112|118:112|189:107|215:141,1,200,2|0,1:3|1:0,0:0:0:0:
145,197,214670,1,10,3:2:0:0:
34,44,214811,2,0,B|14:90|14:90|35:156|59:178,1,150,0|0,1:0|0:0,0:0:0:0:
145,197,215091,1,0,1:0:0:0:
129,236,215160,1,0,1:0:0:0:
117,284,215230,6,0,B|160:291|160:291|195:275|213:274,1,100,10|0,3:2|1:0,0:0:0:0:
273,322,215511,1,2,0:3:0:0:
310,334,215581,1,0,1:0:0:0:
347,348,215651,1,0,1:3:0:0:
384,360,215721,1,0,1:0:0:0:
422,370,215791,2,0,B|391:262|391:262|419:237,1,150,10|0,3:2|3:0,0:0:0:0:
476,190,216072,6,0,L|460:91,1,100,2|0,1:2|1:0,0:0:0:0:
232,1,216352,2,0,L|247:99,1,100,10|0,3:2|1:0,0:0:0:0:
339,215,216632,1,2,1:3:0:0:
379,60,216773,1,0,1:0:0:0:
193,232,216913,1,10,3:2:0:0:
123,169,217053,2,0,B|104:40|104:40|85:34,1,150,0|0,1:0|0:0,0:0:0:0:
28,82,217333,1,0,1:0:0:0:
28,82,217403,1,0,1:0:0:0:
28,82,217473,1,10,3:2:0:0:
3,213,217614,2,0,L|15:312,1,100,0|2,1:0|0:3,0:0:0:0:
242,341,217894,2,0,B|224:336|224:336|185:350|143:337,2,100,0|10|0,1:0|3:2|1:0,0:0:0:0:
351,351,218315,5,2,1:2:0:0:
351,351,218455,1,0,1:0:0:0:
320,187,218595,1,10,3:2:0:0:
486,334,218735,2,0,P|476:285|437:255,1,100,0|2,1:0|1:3,0:0:0:0:
284,280,219016,1,0,1:0:0:0:
188,174,219156,1,10,3:2:0:0:
398,91,219296,2,0,P|372:133|327:153,1,100,0|2,1:0|0:3,0:0:0:0:
125,102,219576,1,0,1:0:0:0:
125,102,219646,1,0,1:0:0:0:
125,102,219716,1,10,3:2:0:0:
245,49,219857,1,0,1:0:0:0:
196,264,219997,2,0,P|191:230|186:198,2,66.6666666666667,8|8|8,3:3|3:3|3:3,0:0:0:0:
138,366,220277,2,0,P|133:332|128:300,2,66.6666666666667,4|4|4,3:3|3:3|3:3,0:0:0:0:
43,375,220558,5,4,1:1:0:0:
93,225,220698,1,0,1:0:0:0:
213,336,220838,1,14,3:2:0:0:
3,267,220978,5,0,1:0:0:0:
93,131,221118,1,2,1:3:0:0:
182,273,221258,1,0,1:0:0:0:
3,151,221399,5,14,3:2:0:0:
124,43,221539,1,0,1:0:0:0:
173,202,221679,1,2,0:3:0:0:
22,36,221819,5,0,1:0:0:0:
22,36,221889,1,0,1:0:0:0:
22,36,221959,2,0,B|55:58|55:58|79:44|111:36,1,100,10|0,3:2|1:0,0:0:0:0:
236,8,222240,5,2,0:3:0:0:
216,161,222380,1,0,1:0:0:0:
251,287,222520,1,14,3:2:0:0:
216,357,222660,1,0,1:0:0:0:
193,336,222801,5,2,1:2:0:0:
202,194,222941,1,0,1:0:0:0:
307,126,223081,1,10,3:2:0:0:
162,326,223221,5,0,1:0:0:0:
172,182,223361,1,2,1:3:0:0:
319,105,223502,1,0,1:0:0:0:
135,314,223642,5,10,3:2:0:0:
25,361,223782,2,0,B|-6:344|-6:344|-14:253|39:190,1,200,4|0,1:0|0:0,0:0:0:0:
16,86,224202,1,8,3:2:0:0:
305,21,224483,1,0,1:0:0:0:
384,63,224623,1,0,1:0:0:0:
478,46,224763,2,0,B|469:99|469:99|471:120,1,75,8|0,3:2|0:0,0:0:0:0:
452,381,225044,5,4,1:2:0:0:
256,192,225114,12,4,229530,1:1:0:0:
