osu file format v14

[General]
AudioFilename: audio.mp3
AudioLeadIn: 0
PreviewTime: 36562
Countdown: 0
SampleSet: Soft
StackLeniency: 0.7
Mode: 0
LetterboxInBreaks: 0
WidescreenStoryboard: 1

[Editor]
Bookmarks: 745,16445,18688,27660,36632,54576,74763,130838,186913,194763
DistanceSpacing: 1.3
BeatDivisor: 4
GridSize: 32
TimelineZoom: 2.699999

[Metadata]
Title:Sentou Amu
TitleUnicode:戦闘アム
Artist:Shade
ArtistUnicode:Shade
Creator:Shurelia
Version:Amazawa's Expert
Source:ランス・クエスト マグナム
Tags:Rance Quest Magnum 8 VIII battle am isuel イスエル rock instrumental video game eroge visual novel rpg jrpg alicesoft pepega cup 3 ppg3 QF HD1 scubdomino ponbot supav kalibe frozz nakazawa amateurre
BeatmapID:4525941
BeatmapSetID:2111360

[Difficulty]
HPDrainRate:5
CircleSize:3.5
OverallDifficulty:8.3
ApproachRate:9.2
SliderMultiplier:1.8
SliderTickRate:1

[Events]
//Background and Video events
0,0,"ambgpic.jpg",0,0
//Break Periods
2,148782,156062
2,157954,161249
2,187113,194474
//Storyboard Layer 0 (Background)
//Storyboard Layer 1 (Fail)
//Storyboard Layer 2 (Pass)
//Storyboard Layer 3 (Foreground)
//Storyboard Layer 4 (Overlay)
//Storyboard Sound Samples

[TimingPoints]
745,280.373831775701,4,2,1,50,1,0
16445,-100,4,2,1,70,0,0
18688,-111.111111111111,4,2,1,70,0,0
36632,-100,4,2,1,80,0,0
56819,-111.111111111111,4,2,1,80,0,0
56889,-111.111111111111,4,2,1,70,0,0
72520,-125,4,2,1,70,0,0
83735,-111.111111111111,4,2,1,70,0,0
88221,-142.857142857143,4,2,1,70,0,0
88782,-125,4,2,1,70,0,0
89343,-111.111111111111,4,2,1,70,0,0
89903,-100,4,2,1,70,0,0
90464,-125,4,2,1,70,0,0
92707,-100,4,2,1,70,0,0
93688,-166.666666666667,4,2,1,70,0,0
94670,-100,4,2,1,70,0,0
94950,-100,4,2,1,80,0,0
112894,-125,4,2,1,75,0,0
121866,-100,4,2,1,80,0,0
130838,-111.111111111111,4,2,1,70,0,0
168969,-99.9999999999999,4,2,1,85,0,0
195044,-83.3333333333333,4,2,1,85,0,0
195324,-100,4,2,1,70,0,0
196165,-71.4285714285714,4,2,1,70,0,0
196445,-100,4,2,1,70,0,0
196726,-100,4,2,1,85,0,0
207100,-125,4,2,1,75,0,0
214389,-71.4285714285714,4,2,1,75,0,0
214950,-125,4,2,1,75,0,0
216072,-100,4,2,1,80,0,0
223782,-125,4,2,1,80,0,0
224763,-125,4,2,1,70,0,0
226165,-125,4,2,1,60,0,0
227287,-125,4,2,1,50,0,0
228409,-125,4,2,1,40,0,0
228969,-125,4,2,1,30,0,0
229530,-125,4,2,1,20,0,0
230371,-125,4,2,1,10,0,0
231773,-125,4,2,1,5,0,0

[Colours]
Combo1 : 255,60,60
Combo2 : 128,128,128
Combo3 : 255,183,183
Combo4 : 192,192,192

[HitObjects]
73,123,16445,5,12,1:2:0:0:
438,101,16726,1,8,1:2:0:0:
256,192,17847,12,0,18688,1:1:0:0:
511,11,18969,6,0,P|451:34|422:36,1,80.9999975280763,10|0,3:2|1:0,0:0:0:0:
384,111,19249,1,2,1:3:0:0:
460,202,19389,2,0,P|470:138|482:112,1,80.9999975280763,0|10,1:0|3:2,0:0:0:0:
383,110,19670,6,0,P|357:79|324:57,1,80.9999975280763,0|2,1:0|0:3,0:0:0:0:
268,131,19950,1,0,1:0:0:0:
268,131,20020,1,0,1:0:0:0:
268,131,20090,2,0,P|228:138|191:155,2,80.9999975280763,10|0|2,3:2|1:0|0:3,0:0:0:0:
195,54,20511,1,0,1:0:0:0:
256,227,20651,2,0,P|246:267|238:305,1,80.9999975280763,10|0,3:2|1:0,0:0:0:0:
233,316,20861,1,0,3:0:0:0:
228,324,20931,6,0,P|176:344|149:345,1,80.9999975280763,2|0,1:2|1:0,0:0:0:0:
194,175,21212,2,0,P|237:210|251:232,1,80.9999975280763,10|0,3:2|1:0,0:0:0:0:
151,345,21492,1,2,1:3:0:0:
82,279,21632,2,0,P|90:223|103:200,1,80.9999975280763,0|10,1:0|3:2,0:0:0:0:
8,107,21913,6,0,P|94:98|195:74,1,161.999995056153,0|0,1:0|1:0,0:0:0:0:
177,80,22263,1,0,1:0:0:0:
185,79,22333,2,0,P|193:34|208:1,1,80.9999975280763,10|0,3:2|1:0,0:0:0:0:
314,147,22614,2,0,L|305:187,3,40.4999987640381,2|0|0|0,0:3|1:0|1:3|1:0,0:0:0:0:
301,201,22894,2,0,P|263:217|224:223,1,80.9999975280763,10|0,3:2|1:0,0:0:0:0:
216,222,23104,1,0,3:0:0:0:
207,219,23174,5,0,1:1:0:0:
317,137,23315,1,0,1:0:0:0:
394,192,23455,2,0,P|410:230|416:269,1,80.9999975280763,10|0,3:2|1:0,0:0:0:0:
482,341,23735,1,2,1:3:0:0:
391,178,23875,2,0,L|406:81,1,80.9999975280763,0|10,1:0|3:2,0:0:0:0:
460,15,24156,1,0,1:0:0:0:
460,15,24436,6,0,P|470:34|477:51,1,40.4999987640381,0|0,1:0|1:0,0:0:0:0:
394,192,24576,2,0,P|375:227|347:257,1,80.9999975280763,10|0,3:2|1:0,0:0:0:0:
241,207,24857,2,0,P|207:228|168:240,1,80.9999975280763,2|0,0:3|1:0,0:0:0:0:
80,162,25137,2,0,P|39:164|0:154,1,80.9999975280763,10|0,3:2|1:0,0:0:0:0:
0,154,25347,1,0,3:0:0:0:
0,154,25417,5,2,1:2:0:0:
85,70,25558,1,0,1:0:0:0:
169,157,25698,2,0,P|190:96|189:-6,1,161.999995056153,10|2,3:2|1:3,0:0:0:0:
2,170,26118,2,0,P|10:215|29:250,1,80.9999975280763,0|10,1:0|3:2,0:0:0:0:
0,374,26399,6,0,P|78:357|159:343,1,161.999995056153,4|0,1:2|1:0,0:0:0:0:
166,348,26749,1,0,1:0:0:0:
173,351,26819,1,10,3:2:0:0:
216,219,26959,2,0,P|255:210|295:203,1,80.9999975280763,0|8,1:0|2:0,0:0:0:0:
359,79,27240,1,0,1:0:0:0:
359,79,27310,1,0,3:0:0:0:
359,79,27380,2,0,P|398:71|438:63,1,80.9999975280763,8|8,2:0|2:0,0:0:0:0:
426,198,27660,6,0,P|416:229|398:305,2,80.9999975280763,0|0|10,1:1|1:0|3:2,0:0:0:0:
274,302,28081,2,0,P|261:340|251:379,2,80.9999975280763,0|2|0,1:0|1:3|1:0,0:0:0:0:
102,159,28502,1,10,3:2:0:0:
251,379,28642,6,0,P|236:298|191:221,1,161.999995056153,0|0,1:0|1:0,0:0:0:0:
183,220,28992,1,0,1:0:0:0:
169,214,29062,2,0,P|134:234|94:244,1,80.9999975280763,10|0,3:2|1:0,0:0:0:0:
0,42,29343,2,0,P|43:63|86:90,1,80.9999975280763,2|0,0:3|1:0,0:0:0:0:
185,24,29623,2,0,P|207:83|216:132,1,80.9999975280763,10|0,3:2|1:0,0:0:0:0:
38,349,29903,6,0,P|-2:290|11:179,1,161.999995056153,2|10,1:2|3:2,0:0:0:0:
72,81,30324,1,0,1:0:0:0:
213,115,30464,2,0,P|250:127|291:133,2,80.9999975280763,2|0|10,1:3|1:0|3:2,0:0:0:0:
140,175,30885,2,0,P|167:132|180:-3,1,161.999995056153,0|0,1:0|1:0,0:0:0:0:
299,141,31305,2,0,P|314:180|317:219,1,80.9999975280763,10|0,3:2|1:0,0:0:0:0:
477,11,31585,5,8,3:3:0:0:
450,11,31678,1,8,3:3:0:0:
423,18,31773,1,8,3:3:0:0:
399,29,31866,2,0,P|371:43|334:49,2,53.9999983520508,4|4|4,3:3|3:3|3:3,0:0:0:0:
461,90,32146,6,0,L|269:53,2,161.999995056153,4|10|2,1:1|3:2|1:3,0:0:0:0:
281,166,32847,2,0,L|198:193,1,80.9999975280763,0|10,1:0|3:2,0:0:0:0:
257,279,33128,2,0,L|230:389,1,80.9999975280763,0|2,1:0|0:3,0:0:0:0:
89,277,33408,1,0,1:0:0:0:
89,277,33478,1,0,1:0:0:0:
89,277,33548,2,0,P|31:264|-9:247,1,80.9999975280763,10|0,3:2|1:0,0:0:0:0:
79,183,33829,1,2,0:3:0:0:
177,237,33969,1,0,1:0:0:0:
241,152,34109,2,0,P|254:97|257:51,1,80.9999975280763,10|0,3:2|1:0,0:0:0:0:
253,62,34319,1,0,0:0:0:0:
250,52,34389,5,4,1:2:0:0:
503,232,34670,2,0,P|462:226|422:220,1,80.9999975280763,10|0,3:2|0:0,0:0:0:0:
344,283,34950,1,0,0:0:0:0:
241,240,35090,1,0,0:0:0:0:
66,350,35230,1,10,3:2:0:0:
157,326,35371,6,0,P|75:315|-3:242,1,161.999995056153,4|0,1:0|0:0,0:0:0:0:
10,89,35791,2,0,P|59:119|107:158,1,80.9999975280763,10|0,3:2|0:0,0:0:0:0:
255,89,36072,2,0,P|278:133|295:200,1,80.9999975280763,0|0,1:0|1:0,0:0:0:0:
150,28,36352,5,14,3:2:0:0:
176,186,36492,1,0,0:0:0:0:
183,210,36562,1,0,0:0:0:0:
188,229,36632,2,0,P|173:269|169:317,1,90,6|0,1:2|1:0,0:0:0:0:
282,188,36913,1,10,0:0:0:0:
426,384,37053,2,0,P|398:298|396:208,1,180,0|0,1:0|1:0,0:0:0:0:
391,198,37403,1,0,0:0:0:0:
386,189,37473,1,10,0:0:0:0:
506,33,37614,6,0,P|481:67|430:84,1,90,0|0,1:0|2:0,0:0:0:0:
293,275,37894,2,0,P|233:264|203:236,1,90,0|10,1:0|0:0,0:0:0:0:
9,158,38174,2,0,P|94:149|187:135,1,180,0|0,1:0|1:0,0:0:0:0:
101,249,38595,2,0,P|83:293|71:353,1,90,10|0,0:0|1:0,0:0:0:0:
76,348,38805,1,8,3:2:0:0:
81,357,38875,5,0,1:1:0:0:
87,126,39016,2,0,P|78:81|66:24,1,90,0|10,1:0|0:0,0:0:0:0:
199,175,39296,2,0,P|301:198|377:207,1,180,0|0,1:0|1:0,0:0:0:0:
276,238,39716,1,10,0:0:0:0:
443,115,39857,6,0,B|495:190|495:190|466:290,1,180,0|0,1:0|1:0,0:0:0:0:
364,384,40277,2,0,P|359:334|354:294,1,90,14|0,0:0|1:0,0:0:0:0:
148,384,40558,2,0,P|153:334|157:294,1,90,14|0,0:0|1:0,0:0:0:0:
247,184,40768,1,0,1:0:0:0:
256,192,40838,2,0,L|256:288,1,90,14|0,0:0|0:0,0:0:0:0:
252,372,41118,5,4,1:1:0:0:
63,292,41259,2,0,P|22:322|-2:358,1,90,0|10,1:0|0:0,0:0:0:0:
128,195,41539,2,0,P|126:99|109:7,1,180,0|0,1:0|1:0,0:0:0:0:
111,16,41889,1,0,0:0:0:0:
111,16,41959,1,10,0:0:0:0:
224,125,42100,6,0,P|273:145|314:172,1,90,0|0,1:0|2:0,0:0:0:0:
325,69,42380,2,0,P|370:53|424:47,1,90,0|10,1:0|0:0,0:0:0:0:
233,225,42660,2,0,P|248:287|256:342,1,90,0|0,1:0|1:0,0:0:0:0:
104,189,42941,1,0,1:0:0:0:
104,189,43011,1,0,1:0:0:0:
104,189,43081,2,0,P|54:182|16:169,1,90,10|0,0:0|1:0,0:0:0:0:
49,376,43361,6,0,L|137:359,1,90,0|0,1:1|1:0,0:0:0:0:
371,317,43642,2,0,L|459:300,1,90,10|0,0:0|1:0,0:0:0:0:
137,359,43922,1,0,1:0:0:0:
371,316,44062,1,0,1:0:0:0:
142,366,44202,1,10,0:0:0:0:
267,384,44343,6,0,P|254:295|184:198,1,180,4|0,1:0|1:0,0:0:0:0:
360,20,44763,2,0,L|344:125,1,90,14|0,0:0|0:0,0:0:0:0:
445,189,45044,5,8,3:3:0:0:
445,189,45137,2,0,P|472:202|501:210,1,60,8|8,3:3|3:3,0:0:0:0:
325,240,45324,5,4,3:3:0:0:
325,240,45417,2,0,P|296:248|269:261,1,60,4|4,3:3|3:3,0:0:0:0:
154,123,45604,6,0,P|62:104|4:-3,1,180,4|10,1:2|0:0,0:0:0:0:
105,263,46025,2,0,P|95:313|90:351,1,90,0|0,1:0|1:2,0:0:0:0:
26,186,46305,1,0,1:0:0:0:
26,186,46375,1,0,1:0:0:0:
26,186,46445,1,10,0:0:0:0:
210,327,46586,6,0,P|279:344|312:357,1,90,0|0,1:0|2:0,0:0:0:0:
119,253,46866,2,0,L|193:237,1,45,0|0,1:0|1:0,0:0:0:0:
271,218,47006,1,10,0:0:0:0:
171,154,47146,2,0,P|222:104|244:77,1,90,0|0,1:0|1:0,0:0:0:0:
322,0,47427,1,0,1:0:0:0:
322,0,47497,1,0,1:0:0:0:
322,0,47567,1,10,0:0:0:0:
384,188,47707,5,0,1:0:0:0:
391,207,47777,1,8,3:2:0:0:
399,227,47847,1,0,1:1:0:0:
485,160,47987,1,0,1:0:0:0:
285,236,48128,1,10,0:0:0:0:
497,156,48268,2,0,P|490:100|463:56,1,90,0|0,1:0|1:0,0:0:0:0:
280,250,48548,2,0,P|272:291|263:338,1,90,0|10,1:0|0:0,0:0:0:0:
359,313,48829,6,0,B|250:271|265:321|181:287,1,180,0|0,1:0|1:0,0:0:0:0:
177,283,49179,1,0,1:0:0:0:
174,276,49249,1,14,0:0:0:0:
65,108,49389,1,0,1:0:0:0:
15,219,49530,2,0,P|93:205|116:200,1,90,14|0,0:0|1:0,0:0:0:0:
132,191,49740,1,0,1:0:0:0:
157,177,49810,2,0,P|167:134|179:89,1,90,14|0,0:0|0:0,0:0:0:0:
335,213,50090,6,0,P|351:267|358:360,1,135,4|0,1:1|0:0,0:0:0:0:
358,345,50371,1,10,0:0:0:0:
500,272,50511,2,0,P|453:271|410:264,1,90,0|0,1:0|1:2,0:0:0:0:
251,200,50791,1,0,1:0:0:0:
244,197,50861,1,0,1:0:0:0:
237,194,50931,1,10,0:0:0:0:
366,123,51072,6,0,P|391:65|401:32,1,90,0|0,1:0|2:0,0:0:0:0:
231,304,51352,2,0,P|273:289|314:271,1,90,0|10,1:0|0:0,0:0:0:0:
471,172,51632,2,0,P|458:257|451:350,1,180,0|0,1:0|1:0,0:0:0:0:
197,221,52053,2,0,P|208:157|215:87,1,135,10|8,0:0|3:2,0:0:0:0:
215,87,52333,5,4,1:1:0:0:
88,143,52473,1,0,1:0:0:0:
202,230,52614,1,10,0:0:0:0:
124,62,52754,2,0,P|37:69|-3:145,1,180,4|0,1:2|1:0,0:0:0:0:
1,154,53104,1,0,0:0:0:0:
6,162,53175,1,10,0:0:0:0:
224,87,53315,2,0,P|239:44|260:4,1,90,4|0,1:0|0:0,0:0:0:0:
189,203,53595,5,0,1:0:0:0:
174,209,53665,1,0,1:0:0:0:
159,215,53735,1,8,2:0:0:0:
304,113,53875,1,8,2:0:0:0:
145,222,54016,5,8,2:0:0:0:
383,208,54156,1,8,2:0:0:0:
132,229,54296,5,8,2:0:0:0:
422,320,54436,1,8,2:0:0:0:
251,384,54576,6,0,L|276:197,2,180,2|2|0,1:2|1:2|0:0,0:0:0:0:
295,101,55277,1,0,0:0:0:0:
295,101,55417,2,0,L|309:13,1,90
137,173,55698,5,2,1:2:0:0:
409,222,55978,1,2,1:2:0:0:
127,170,56259,2,0,P|96:186|59:193,2,60,8|8|8,3:3|3:3|3:3,0:0:0:0:
71,94,56539,2,0,P|41:75|17:46,2,60,4|4|4,3:3|3:3|3:3,0:0:0:0:
130,271,56819,6,0,P|142:320|144:362,1,80.9999975280763,4|0,1:1|0:0,0:0:0:0:
144,350,57030,1,0,0:0:0:0:
144,350,57100,1,10,3:2:0:0:
41,245,57240,2,0,P|111:241|192:184,1,161.999995056153,0|0,0:0|1:0,0:0:0:0:
254,122,57660,1,10,3:2:0:0:
296,287,57801,6,0,P|380:311|471:351,1,161.999995056153,0|0,1:0|1:0,0:0:0:0:
497,208,58221,2,0,P|436:228|403:234,1,80.9999975280763,10|0,3:2|1:0,0:0:0:0:
309,384,58502,2,0,P|269:374|231:360,1,80.9999975280763,2|0,0:3|1:0,0:0:0:0:
136,274,58782,1,10,3:2:0:0:
71,378,58922,1,0,0:0:0:0:
146,266,59062,6,0,P|144:211|127:167,1,80.9999975280763,2|0,1:2|0:0,0:0:0:0:
0,9,59343,2,0,P|50:61|170:55,1,161.999995056153,10|2,3:2|1:3,0:0:0:0:
215,7,59763,1,0,1:0:0:0:
136,186,59903,1,10,3:2:0:0:
361,108,60044,6,0,P|440:103|508:146,1,161.999995056153,0|0,1:0|1:0,0:0:0:0:
508,146,60464,1,10,3:2:0:0:
288,179,60604,2,0,L|247:74,1,80.9999975280763,0|2,1:0|0:3,0:0:0:0:
411,207,60885,1,2,1:3:0:0:
375,292,61025,2,0,L|334:397,1,80.9999975280763,14|0,3:2|0:0,0:0:0:0:
136,304,61305,1,4,1:1:0:0:
136,304,61586,6,0,P|83:322|58:327,1,80.9999975280763,10|0,3:2|0:0,0:0:0:0:
140,195,61866,1,2,1:3:0:0:
229,256,62006,2,0,P|240:326|236:352,1,80.9999975280763,0|10,1:0|3:2,0:0:0:0:
0,240,62287,2,0,P|8:161|36:76,1,161.999995056153,0|0,1:0|1:0,0:0:0:0:
117,23,62707,2,0,P|182:34|232:40,1,80.9999975280763,10|0,3:2|1:0,0:0:0:0:
338,218,62987,5,2,0:3:0:0:
424,194,63128,1,0,1:0:0:0:
507,169,63268,2,0,P|510:128|515:88,1,80.9999975280763,10|0,3:2|0:0,0:0:0:0:
511,81,63478,1,0,3:2:0:0:
508,75,63548,2,0,P|420:59|344:5,2,161.999995056153,2|10|2,1:2|3:2|1:3,0:0:0:0:
391,193,64249,2,0,P|372:263|370:301,1,80.9999975280763,0|10,1:0|3:2,0:0:0:0:
251,163,64530,6,0,P|187:151|111:112,1,121.499996292114,4|0,1:2|0:0,0:0:0:0:
135,128,64810,1,8,3:2:0:0:
224,63,64950,1,8,3:2:0:0:
162,229,65090,1,8,3:2:0:0:
6,178,65230,1,8,3:2:0:0:
132,330,65371,2,0,B|180:327|210:351|210:351|219:303|260:279,1,161.999995056153,4|0,1:2|3:0,0:0:0:0:
259,277,65721,1,0,3:0:0:0:
271,272,65791,6,0,P|311:285|349:292,1,80.9999975280763,8|0,0:2|1:0,0:0:0:0:
126,339,66072,2,0,P|86:346|47:359,1,80.9999975280763,2|0,0:0|0:0,0:0:0:0:
102,242,66352,1,8,0:2:0:0:
11,186,66492,2,0,P|0:134|5:91,1,80.9999975280763,0|2,1:0|0:0,0:0:0:0:
87,138,66773,2,0,B|176:121|138:167|249:144,1,161.999995056153,4|8,1:2|0:2,0:0:0:0:
331,116,67193,1,2,1:2:0:0:
164,186,67473,5,8,0:2:0:0:
331,116,67614,2,0,P|438:113|486:70,1,161.999995056153,0|0,1:0|0:0,0:0:0:0:
263,48,68034,6,0,P|221:59|184:66,1,80.9999975280763,8|0,0:2|0:0,0:0:0:0:
231,237,68315,2,0,P|273:226|309:218,1,80.9999975280763,2|0,0:0|0:0,0:0:0:0:
149,176,68595,1,8,0:2:0:0:
113,304,68735,2,0,P|103:366|100:395,1,80.9999975280763,0|2,1:0|0:0,0:0:0:0:
155,166,69016,2,0,P|164:93|135:-8,1,161.999995056153,4|8,1:2|0:2,0:0:0:0:
249,126,69436,1,2,1:2:0:0:
60,195,69716,5,8,0:2:0:0:
259,123,69857,1,0,1:0:0:0:
312,291,69997,2,0,L|327:340,3,40.4999987640381,0|0|8|8,3:0|3:0|3:2|3:2,0:0:0:0:
366,226,70277,6,0,P|428:216|497:301,1,161.999995056153,4|10,1:2|3:2,0:0:0:0:
260,380,70698,2,0,L|276:279,1,80.9999975280763,0|2,1:0|1:3,0:0:0:0:
457,195,70978,2,0,L|469:114,1,80.9999975280763,0|10,1:0|3:2,0:0:0:0:
276,186,71259,6,0,L|250:6,1,161.999995056153,4|8,1:1|3:2,0:0:0:0:
163,197,71679,2,0,L|78:229,1,80.9999975280763,8|8,3:2|3:2,0:0:0:0:
101,132,71959,1,8,3:2:0:0:
233,267,72100,2,0,P|329:264|379:192,1,161.999995056153,0|0,1:0|0:0,0:0:0:0:
511,48,72520,6,0,P|441:35|373:10,1,144,4|0,1:2|1:0,0:0:0:0:
434,151,72941,2,0,P|460:203|463:231,2,72,0|8|0,1:0|3:2|0:0,0:0:0:0:
354,101,73361,1,0,1:0:0:0:
274,158,73502,2,0,P|202:190|112:183,1,144,8|0,3:2|1:0,0:0:0:0:
53,118,73922,2,0,L|63:19,1,72,0|0,1:0|0:0,0:0:0:0:
137,189,74202,6,0,L|125:259,2,48,14|0|8,0:0|0:0|0:2,0:0:0:0:
67,297,74483,2,0,L|21:313,2,48,8|8|8,3:3|3:3|3:3,0:0:0:0:
156,316,74763,5,4,1:0:0:0:
156,316,74857,2,0,L|192:346,1,48,0|0,1:0|1:0,0:0:0:0:
269,294,75044,1,0,1:0:0:0:
269,294,75137,2,0,L|314:277,1,48,0|0,1:0|1:0,0:0:0:0:
306,185,75324,2,0,L|330:34,1,144,8|0,3:2|0:0,0:0:0:0:
329,42,75885,5,4,1:2:0:0:
340,37,75978,2,0,L|407:28,1,48,0|0,1:0|1:0,0:0:0:0:
440,99,76165,1,0,1:0:0:0:
450,91,76259,2,0,L|497:84,1,48,0|0,1:0|1:0,0:0:0:0:
360,117,76445,2,0,P|297:62|215:56,1,144,8|0,3:2|0:0,0:0:0:0:
239,52,77006,5,4,1:0:0:0:
244,66,77100,2,0,P|227:89|189:96,1,48,0|0,1:0|1:0,0:0:0:0:
124,120,77287,1,0,1:0:0:0:
115,132,77381,2,0,P|86:128|61:99,1,48,0|0,1:0|1:0,0:0:0:0:
21,37,77567,2,0,P|15:105|2:179,1,144,8|0,3:2|0:0,0:0:0:0:
1,179,78128,5,4,1:2:0:0:
16,191,78221,2,0,L|23:252,1,48,0|0,1:0|1:0,0:0:0:0:
97,384,78408,5,0,1:0:0:0:
86,369,78501,2,0,L|95:308,1,48,0|0,1:0|1:0,0:0:0:0:
13,316,78688,2,0,P|81:273|174:265,1,144,8|0,3:2|0:0,0:0:0:0:
142,262,79249,5,4,1:0:0:0:
159,279,79343,2,0,P|188:295|219:303,1,48,0|0,1:0|1:0,0:0:0:0:
257,384,79530,1,0,1:0:0:0:
280,377,79624,2,0,P|308:359|330:337,1,48,0|0,1:0|1:0,0:0:0:0:
405,359,79810,2,0,P|344:312|326:239,1,144,8|0,3:2|0:0,0:0:0:0:
325,250,80371,5,4,1:2:0:0:
315,242,80464,2,0,L|265:226,1,48,0|0,1:0|1:0,0:0:0:0:
456,174,80651,1,0,1:0:0:0:
466,166,80744,2,0,L|516:150,1,48,0|0,1:0|1:0,0:0:0:0:
408,235,80931,2,0,P|428:146|434:75,1,144,8|0,3:2|0:0,0:0:0:0:
433,93,81492,5,4,1:0:0:0:
429,86,81586,2,0,P|397:73|369:70,1,48,0|0,1:0|1:0,0:0:0:0:
288,0,81773,1,0,1:0:0:0:
283,6,81867,2,0,P|287:40|299:65,1,48,0|0,1:0|1:0,0:0:0:0:
345,151,82053,2,0,L|194:134,1,144,8|0,3:2|0:0,0:0:0:0:
201,134,82614,5,4,1:2:0:0:
190,144,82707,2,0,L|196:192,1,48,0|0,1:0|1:0,0:0:0:0:
261,299,82894,2,0,L|267:251,2,48,0|0|0,1:0|1:0|1:0,0:0:0:0:
190,384,83174,5,8,3:2:0:0:
188,366,83244,1,8,3:2:0:0:
186,348,83314,1,8,3:2:0:0:
344,246,83455,1,8,3:2:0:0:
184,330,83595,1,8,3:2:0:0:
425,294,83735,2,0,L|412:382,1,80.9999975280763,0|0,1:1|0:0,0:0:0:0:
391,165,84016,6,0,P|468:147|512:81,1,161.999995056153,10|2,3:2|1:3,0:0:0:0:
452,0,84436,1,0,1:0:0:0:
512,246,84576,1,10,3:2:0:0:
307,133,84716,2,0,P|249:78|244:0,1,161.999995056153,0|0,1:0|1:0,0:0:0:0:
391,165,85137,2,0,L|482:172,1,80.9999975280763,10|0,3:2|1:0,0:0:0:0:
331,40,85417,1,2,0:3:0:0:
260,215,85558,1,0,1:0:0:0:
260,215,85628,1,0,0:0:0:0:
260,215,85698,2,0,P|206:232|174:234,1,80.9999975280763,10|0,3:2|1:0,0:0:0:0:
95,384,85978,6,0,P|65:304|-7:266,1,161.999995056153,2|10,1:2|3:2,0:0:0:0:
155,72,86399,2,0,P|100:137|103:219,1,161.999995056153,0|0,1:0|1:0,0:0:0:0:
312,294,86819,1,10,3:2:0:0:
260,215,86959,2,0,P|243:161|241:129,1,80.9999975280763,0|2,1:0|0:3,0:0:0:0:
291,60,87240,1,0,1:0:0:0:
356,222,87380,1,10,3:2:0:0:
512,101,87520,2,0,L|345:123,1,161.999995056153,0|0,1:0|1:3,0:0:0:0:
345,129,87871,1,0,1:0:0:0:
338,137,87941,1,10,3:2:0:0:
255,384,88221,6,0,L|174:375,1,62.9999980773926,0|0,3:1|3:1,0:0:0:0:
258,363,88502,2,0,L|339:354,1,62.9999980773926,0|0,3:1|3:1,0:0:0:0:
241,333,88782,2,0,L|160:324,1,72,8|0,3:2|3:2,0:0:0:0:
309,262,89062,1,8,3:2:0:0:
212,170,89202,1,0,3:1:0:0:
212,170,89343,2,0,L|128:177,1,80.9999975280763,8|8,3:2|3:2,0:0:0:0:
306,166,89623,5,8,3:2:0:0:
336,78,89763,1,8,3:2:0:0:
143,0,89903,1,8,3:2:0:0:
173,88,90043,1,8,3:2:0:0:
343,69,90184,1,8,3:2:0:0:
165,96,90324,1,8,3:2:0:0:
253,0,90464,5,8,3:2:0:0:
262,10,90558,2,0,L|253:61,1,48,8|8,3:2|3:3,0:0:0:0:
132,177,90745,2,0,L|70:184,2,48,4|0|0,3:3|1:3|1:3,0:0:0:0:
243,278,91025,5,8,3:2:0:0:
229,280,91119,2,0,L|189:246,1,48,8|8,3:2|3:3,0:0:0:0:
150,84,91306,2,0,L|174:26,2,48,4|0|0,3:3|1:3|1:3,0:0:0:0:
15,116,91586,5,8,3:2:0:0:
20,102,91680,2,0,L|68:84,1,48,8|8,3:2|3:3,0:0:0:0:
229,132,91867,2,0,L|266:182,2,48,4|0|0,3:3|1:3|1:3,0:0:0:0:
262,44,92146,2,0,L|310:36,1,48,8|8,3:2|3:2,0:0:0:0:
188,212,92333,2,0,L|140:204,1,48,8|8,3:2|3:2,0:0:0:0:
286,373,92520,1,8,3:2:0:0:
319,378,92614,1,8,3:2:0:0:
354,384,92707,5,12,3:2:0:0:
227,300,92847,1,8,3:2:0:0:
372,377,92987,1,8,3:2:0:0:
210,308,93128,1,8,3:2:0:0:
332,122,93268,1,8,3:2:0:0:
457,343,93408,1,8,3:2:0:0:
276,215,93548,1,8,3:2:0:0:
501,94,93688,6,0,P|472:137|407:154,1,107.999996704102,4|0,1:1|0:0,0:0:0:0:
332,122,94109,2,0,L|340:54,1,53.9999983520508
477,249,94389,2,0,L|511:253,2,26.9999991760254,0|0|0,1:1|1:0|1:1,0:0:0:0:
293,348,94670,2,0,P|287:281|271:194,1,135,8|0,0:0|0:0,0:0:0:0:
252,194,94950,6,0,P|204:217|156:220,1,90,4|0,1:2|1:0,0:0:0:0:
0,175,95230,1,10,0:0:0:0:
101,337,95371,2,0,L|78:143,1,180,0|0,1:0|1:0,0:0:0:0:
85,151,95721,1,0,0:0:0:0:
92,143,95791,1,10,0:0:0:0:
0,5,95931,6,0,P|31:36|82:52,1,90,0|0,1:0|2:0,0:0:0:0:
252,194,96212,2,0,P|294:182|333:146,1,90,0|10,1:0|0:0,0:0:0:0:
489,0,96492,2,0,P|394:21|305:32,1,180,0|0,1:0|1:0,0:0:0:0:
435,99,96913,6,0,P|478:110|512:139,1,90,10|0,0:0|1:0,0:0:0:0:
510,150,97123,1,8,3:2:0:0:
506,162,97193,1,0,1:1:0:0:
312,31,97333,2,0,L|207:19,1,90,0|10,1:0|0:0,0:0:0:0:
345,115,97614,2,0,P|337:180|330:310,1,180,0|0,1:0|1:0,0:0:0:0:
374,203,98034,1,10,0:0:0:0:
249,319,98174,2,0,B|163:343|163:343|88:291,1,180,0|0,1:0|1:0,0:0:0:0:
0,86,98595,6,0,P|50:91|90:95,1,90,14|0,0:0|1:0,0:0:0:0:
0,302,98876,2,0,P|44:297|89:292,1,90,14|0,0:0|1:0,0:0:0:0:
200,185,99086,1,0,1:0:0:0:
192,194,99156,2,0,L|96:194,1,90,14|0,0:0|0:0,0:0:0:0:
12,190,99436,5,4,1:1:0:0:
176,41,99576,2,0,P|130:26|96:-4,1,90,0|10,1:0|0:0,0:0:0:0:
273,75,99857,2,0,P|293:170|275:259,1,180,0|0,1:0|1:0,0:0:0:0:
271,257,100207,1,0,0:0:0:0:
261,258,100277,1,10,0:0:0:0:
372,97,100417,6,0,P|407:64|450:50,1,90,0|0,1:0|2:0,0:0:0:0:
336,11,100698,1,0,1:0:0:0:
336,11,100768,1,0,1:0:0:0:
336,11,100838,1,10,0:0:0:0:
456,143,100978,2,0,P|446:195|442:251,1,90,0|0,1:0|1:0,0:0:0:0:
261,258,101259,5,0,1:0:0:0:
261,258,101329,1,0,1:0:0:0:
261,258,101399,2,0,P|305:262|349:271,1,90,10|0,0:0|1:0,0:0:0:0:
184,381,101609,1,8,3:2:0:0:
171,384,101679,2,0,L|178:288,1,90,0|0,1:1|1:0,0:0:0:0:
193,91,101959,2,0,L|200:-5,1,90,10|0,0:0|1:0,0:0:0:0:
177,294,102240,1,0,1:0:0:0:
184,95,102380,1,0,1:0:0:0:
186,300,102520,1,10,0:0:0:0:
0,174,102660,6,0,P|102:163|189:214,1,180,4|0,1:0|1:0,0:0:0:0:
374,0,103081,2,0,L|285:13,1,90,14|8,0:0|3:3,0:0:0:0:
184,95,103361,2,0,L|231:106,1,45,8|8,3:3|3:3,0:0:0:0:
284,13,103502,2,0,L|240:23,1,45,8|8,3:3|3:3,0:0:0:0:
89,134,103642,1,4,3:3:0:0:
89,134,103712,1,8,3:3:0:0:
89,134,103782,2,0,L|79:89,1,45,8|0,3:3|3:3,0:0:0:0:
282,175,103922,6,0,P|352:217|459:227,1,180,4|10,1:2|0:0,0:0:0:0:
268,295,104343,2,0,L|262:390,1,90,0|0,1:0|1:2,0:0:0:0:
207,229,104623,1,0,1:0:0:0:
207,229,104693,1,0,1:0:0:0:
207,229,104763,1,10,0:0:0:0:
378,134,104903,6,0,P|398:92|408:38,1,90,0|0,1:0|2:0,0:0:0:0:
282,175,105184,2,0,L|276:124,1,45,0|0,1:0|1:0,0:0:0:0:
266,39,105324,1,10,0:0:0:0:
207,229,105464,2,0,P|143:203|20:190,1,180,0|0,1:0|1:0,0:0:0:0:
24,195,105815,1,0,1:0:0:0:
20,203,105885,1,10,0:0:0:0:
184,125,106025,5,0,1:0:0:0:
184,125,106095,1,8,3:2:0:0:
184,125,106165,1,0,1:1:0:0:
217,327,106305,1,0,1:0:0:0:
195,134,106445,1,10,0:0:0:0:
207,334,106586,2,0,P|152:356|104:358,1,90,0|0,1:0|1:0,0:0:0:0:
46,321,106866,1,0,1:0:0:0:
202,229,107006,1,10,0:0:0:0:
279,384,107146,2,0,L|464:360,1,180,0|0,1:0|1:0,0:0:0:0:
512,86,107567,6,0,P|462:91|422:95,1,90,14|0,0:0|1:0,0:0:0:0:
512,302,107848,2,0,P|468:297|423:292,1,90,14|0,0:0|1:0,0:0:0:0:
312,185,108058,1,0,1:0:0:0:
320,194,108128,2,0,L|416:194,1,90,14|0,0:0|0:0,0:0:0:0:
500,190,108408,5,4,1:1:0:0:
284,102,108548,2,0,P|261:51|254:11,1,90,0|10,1:0|0:0,0:0:0:0:
230,167,108829,2,0,P|153:190|39:197,1,180,0|0,1:0|1:0,0:0:0:0:
46,192,109179,1,0,0:0:0:0:
38,187,109249,1,10,0:0:0:0:
312,185,109389,6,0,P|335:262|342:376,1,180,0|0,1:0|1:0,0:0:0:0:
337,369,109739,1,0,1:0:0:0:
332,377,109809,1,10,0:0:0:0:
401,201,109950,2,0,P|452:212|498:216,1,90,0|0,1:0|1:0,0:0:0:0:
230,211,110230,2,0,P|214:161|194:119,1,90,0|10,1:0|0:0,0:0:0:0:
73,265,110511,5,0,1:0:0:0:
73,265,110581,1,8,3:2:0:0:
73,265,110651,1,4,1:1:0:0:
223,222,110791,1,0,1:0:0:0:
78,121,110931,1,10,0:0:0:0:
199,39,111072,2,0,P|112:33|65:25,1,135,4|0,1:2|0:0,0:0:0:0:
64,25,111352,1,0,1:0:0:0:
230,211,111492,1,10,0:0:0:0:
139,200,111632,2,0,P|166:147|288:137,1,180,4|0,1:0|1:0,0:0:0:0:
366,326,112053,5,8,2:0:0:0:
482,229,112193,1,8,2:0:0:0:
361,311,112333,1,8,2:0:0:0:
428,153,112473,1,8,2:0:0:0:
348,298,112614,1,8,2:0:0:0:
342,98,112754,1,8,2:0:0:0:
482,229,112894,6,0,P|467:278|465:309,1,72,6|0,1:2|0:0,0:0:0:0:
327,229,113174,2,0,P|338:278|352:306,1,72,0|0,1:0|0:0,0:0:0:0:
264,384,113455,2,0,P|219:360|203:261,1,144,12|0,3:2|0:0,0:0:0:0:
247,58,113875,6,0,B|239:109|239:109|251:150|251:150|245:212,1,144,0|0,1:0|1:0,0:0:0:0:
331,102,114296,2,0,L|417:93,1,72,0|0,1:0|1:0,0:0:0:0:
167,175,114576,1,12,3:2:0:0:
138,87,114716,2,0,P|82:64|-6:55,1,144,0|0,1:0|3:0,0:0:0:0:
58,145,115067,1,8,2:0:0:0:
69,155,115137,2,0,P|31:167|-15:172,1,72,0|0,1:0|0:0,0:0:0:0:
119,251,115417,2,0,P|157:263|203:268,1,72,0|0,1:0|0:0,0:0:0:0:
294,146,115698,1,12,3:2:0:0:
216,351,116118,6,0,P|258:311|264:220,1,144,0|0,1:0|0:0,0:0:0:0:
201,174,116539,1,0,1:0:0:0:
201,174,116679,1,0,1:0:0:0:
133,340,116819,1,12,3:2:0:0:
300,384,116959,1,0,1:0:0:0:
0,384,117310,5,8,2:0:0:0:
14,375,117380,2,0,P|26:347|30:317,2,48,0|0|0,1:0|0:0|0:0,0:0:0:0:
133,340,117660,2,0,P|122:318|117:294,2,48,0|0|0,1:0|0:0|0:0,0:0:0:0:
219,298,117941,2,0,P|298:286|373:283,1,144,12|0,3:2|0:0,0:0:0:0:
158,221,118361,2,0,P|86:217|15:205,1,144,0|0,1:0|1:0,0:0:0:0:
112,140,118712,5,0,1:0:0:0:
126,132,118782,2,0,P|145:90|150:54,1,72,0|0,1:0|1:0,0:0:0:0:
0,0,119062,1,12,3:2:0:0:
72,43,119202,2,0,P|156:15|236:13,1,144,0|0,1:0|3:0,0:0:0:0:
284,65,119623,1,0,1:0:0:0:
284,65,119763,1,0,1:0:0:0:
512,0,119903,1,0,1:0:0:0:
512,0,120043,1,0,1:0:0:0:
447,220,120184,6,0,P|431:148|423:64,1,144,12|0,3:2|0:0,0:0:0:0:
158,221,120604,2,0,P|150:292|134:362,1,144,12|4,3:2|1:3,0:0:0:0:
218,366,120955,1,4,1:3:0:0:
229,375,121025,6,0,L|279:368,3,36,8|8|8|8,3:0|1:3|3:2|3:2,0:0:0:0:
276,234,121305,2,0,L|226:227,3,36,4|8|8|4,3:0|3:2|3:2|3:0,0:0:0:0:
158,221,121586,6,0,P|150:189|148:168,2,48,0|0|0,1:0|0:0|0:0,0:0:0:0:
330,313,121866,5,4,1:2:0:0:
297,111,122006,1,0,1:0:0:0:
340,322,122146,1,10,0:0:0:0:
286,119,122287,2,0,L|105:136,1,180,0|0,1:0|1:0,0:0:0:0:
0,186,122707,1,10,0:0:0:0:
190,94,122847,2,0,P|206:51|213:5,1,90,0|0,1:0|2:0,0:0:0:0:
29,100,123128,5,0,1:0:0:0:
29,100,123198,1,0,1:0:0:0:
29,100,123268,1,10,0:0:0:0:
196,209,123408,2,0,P|237:289|229:381,1,180,0|0,1:0|1:0,0:0:0:0:
148,348,123759,1,0,0:0:0:0:
137,338,123829,2,0,L|36:351,1,90,10|0,0:0|1:0,0:0:0:0:
116,158,124109,5,0,1:1:0:0:
320,191,124249,1,0,1:0:0:0:
106,164,124389,1,10,0:0:0:0:
314,178,124530,2,0,P|292:125|275:0,1,180,0|0,1:0|1:0,0:0:0:0:
219,157,124950,1,10,0:0:0:0:
397,235,125090,2,0,P|471:224|508:117,1,180,0|0,1:0|1:0,0:0:0:0:
148,0,125511,6,0,P|153:50|158:90,1,90,14|0,0:0|1:0,0:0:0:0:
364,0,125792,2,0,P|359:50|355:90,1,90,14|0,0:0|1:0,0:0:0:0:
265,200,126002,1,0,1:0:0:0:
256,192,126072,2,0,L|256:96,1,90,14|0,0:0|0:0,0:0:0:0:
260,12,126352,5,4,1:1:0:0:
86,147,126492,2,0,P|34:136|-17:112,1,90,0|10,1:0|0:0,0:0:0:0:
160,97,126773,2,0,P|198:154|204:281,1,180,0|0,1:0|1:0,0:0:0:0:
0,384,127193,1,10,0:0:0:0:
132,228,127333,2,0,P|53:246|-3:254,1,135,0|0,1:0|0:0,0:0:0:0:
0,253,127614,1,0,1:0:0:0:
208,262,127754,1,10,0:0:0:0:
100,384,127894,2,0,P|83:342|80:290,1,90,0|0,1:0|1:0,0:0:0:0:
281,215,128174,6,0,P|347:233|479:248,1,180,0|0,1:0|1:0,0:0:0:0:
466,243,128525,1,0,0:0:0:0:
477,238,128595,1,0,1:1:0:0:
286,112,128735,1,0,1:0:0:0:
499,79,128875,1,10,0:0:0:0:
272,15,129016,2,0,P|345:12|418:1,1,135,0|0,1:0|0:0,0:0:0:0:
406,3,129296,1,0,1:0:0:0:
281,215,129436,1,10,0:0:0:0:
322,312,129576,2,0,P|373:255|363:156,1,180,4|0,1:0|1:0,0:0:0:0:
202,72,129997,5,14,0:0:0:0:
268,218,130137,1,0,0:0:0:0:
76,154,130277,1,8,3:3:0:0:
254,221,130417,1,0,0:0:0:0:
33,319,130558,1,4,3:3:0:0:
240,224,130698,1,0,0:0:0:0:
0,99,130838,6,0,P|30:33|125:32,2,161.999995056153,4|10|0,1:1|3:2|0:0,0:0:0:0:
0,99,131679,1,10,3:2:0:0:
204,0,131819,2,0,P|191:81|189:168,1,161.999995056153,0|0,1:0|1:0,0:0:0:0:
186,171,132170,1,0,1:0:0:0:
182,178,132240,2,0,P|133:195|91:186,1,80.9999975280763,10|0,3:2|1:0,0:0:0:0:
11,253,132520,2,0,L|-3:340,1,80.9999975280763,2|0,0:3|1:0,0:0:0:0:
1,344,132730,1,0,0:0:0:0:
5,351,132801,2,0,P|51:373|91:362,1,80.9999975280763,10|0,3:2|1:0,0:0:0:0:
207,377,133081,6,0,P|216:319|263:265,2,121.499996292114,2|0|0,1:2|0:0|1:0,0:0:0:0:
309,359,133642,2,0,P|363:337|433:351,2,121.499996292114,2|0|0,1:3|0:0|1:0,0:0:0:0:
242,268,134202,2,0,P|234:216|242:172,1,80.9999975280763,2|0,0:3|1:0,0:0:0:0:
244,177,134413,1,0,1:0:0:0:
255,171,134483,2,0,P|295:165|344:152,1,80.9999975280763,10|0,3:2|1:0,0:0:0:0:
464,129,134763,2,0,L|474:184,4,40.4999987640381,2|0|0|0|10,0:3|1:0|1:3|1:0|3:2,0:0:0:0:
391,56,135184,1,0,1:0:0:0:
337,166,135324,6,0,P|208:145|154:132,2,161.999995056153,0|10|0,1:1|3:2|0:0,0:0:0:0:
337,166,136165,1,10,3:2:0:0:
187,232,136305,2,0,P|58:253|4:266,1,161.999995056153,0|0,1:0|1:0,0:0:0:0:
27,260,136656,1,0,1:0:0:0:
27,260,136726,2,0,L|38:162,1,80.9999975280763,10|0,3:2|1:0,0:0:0:0:
79,65,137006,2,0,P|31:63|-2:45,2,80.9999975280763,2|0|10,0:3|1:0|3:2,0:0:0:0:
180,64,137427,1,0,1:0:0:0:
186,55,137497,1,0,3:0:0:0:
193,50,137567,6,0,P|247:18|347:13,2,161.999995056153,2|10|0,1:2|3:2|0:0,0:0:0:0:
193,50,138408,1,10,3:2:0:0:
287,160,138548,2,0,B|399:167|339:197|462:205,1,161.999995056153,0|0,1:0|1:0,0:0:0:0:
453,202,138899,1,0,1:0:0:0:
462,204,138969,2,0,P|480:244|482:293,1,80.9999975280763,10|0,3:2|1:0,0:0:0:0:
417,371,139249,5,8,3:2:0:0:
363,286,139389,1,0,3:2:0:0:
363,286,139459,1,0,3:2:0:0:
363,286,139530,1,8,3:2:0:0:
275,384,139670,1,8,3:2:0:0:
170,333,139810,6,0,P|129:352|69:359,2,80.9999975280763,2|0|10,1:2|1:0|3:2,0:0:0:0:
255,293,140230,2,0,P|273:214|306:133,1,161.999995056153,0|0,1:0|1:0,0:0:0:0:
346,54,140651,1,10,3:2:0:0:
346,54,140791,1,0,1:0:0:0:
33,111,141072,5,0,1:0:0:0:
33,111,141142,1,0,1:0:0:0:
33,111,141212,1,10,3:2:0:0:
103,17,141352,2,0,P|145:86|122:184,1,161.999995056153,0|0,1:0|1:0,0:0:0:0:
77,263,141773,2,0,P|22:245|-14:240,1,80.9999975280763,10|0,3:2|1:0,0:0:0:0:
208,106,142053,6,0,P|221:145|223:192,1,80.9999975280763,2|0,1:2|0:0,0:0:0:0:
187,270,142333,1,10,3:2:0:0:
271,309,142473,2,0,P|349:309|405:365,1,161.999995056153,0|0,1:0|1:0,0:0:0:0:
405,365,142824,1,0,0:0:0:0:
405,365,142894,1,10,3:2:0:0:
512,303,143034,2,0,B|491:205|532:245|508:135,1,161.999995056153,0|0,1:0|1:0,0:0:0:0:
505,136,143385,1,0,1:0:0:0:
500,129,143455,2,0,P|442:121|412:114,1,80.9999975280763,10|0,3:2|1:0,0:0:0:0:
288,128,143735,6,0,L|276:187,2,53.9999983520508,8|8|8,0:2|0:3|0:3,0:0:0:0:
227,63,144016,2,0,L|215:4,2,53.9999983520508,4|4|4,3:3|3:3|3:3,0:0:0:0:
123,104,144296,6,0,P|93:113|70:116,2,53.9999983520508,0|0|0,1:1|0:0|0:0,0:0:0:0:
288,187,144576,2,0,P|318:196|340:199,2,53.9999983520508,10|0|0,3:2|0:0|0:0,0:0:0:0:
130,227,144857,2,0,P|100:236|77:239,2,53.9999983520508,2|0|0,1:3|0:0|0:0,0:0:0:0:
240,267,145137,2,0,P|270:276|292:279,2,53.9999983520508,10|0|0,3:2|0:0|0:0,0:0:0:0:
158,332,145417,5,2,0:3:0:0:
118,323,145511,1,0,0:0:0:0:
83,347,145604,1,0,0:0:0:0:
73,365,145698,2,0,P|46:381|22:384,2,53.9999983520508,10|0|0,3:2|0:0|0:0,0:0:0:0:
17,286,145978,2,0,L|7:224,2,53.9999983520508,2|0|0,0:3|0:0|0:0,0:0:0:0:
153,330,146259,2,0,L|163:392,2,53.9999983520508,10|0|0,3:2|0:0|0:0,0:0:0:0:
237,278,146539,6,0,P|300:268|372:333,1,161.999995056153,2|10,1:2|3:2,0:0:0:0:
483,384,146959,2,0,L|476:296,1,80.9999975280763,0|0,1:0|0:0,0:0:0:0:
417,219,147240,1,0,1:0:0:0:
417,219,147310,1,0,0:0:0:0:
417,219,147380,1,10,3:2:0:0:
512,81,147520,1,4,1:2:0:0:
175,132,156632,6,0,P|168:92|155:53,1,80.9999975280763,10|0,1:2|0:0,0:0:0:0:
196,273,156913,2,0,P|156:280|117:292,1,80.9999975280763,10|0,1:2|0:0,0:0:0:0:
337,252,157193,2,0,P|344:292|356:330,1,80.9999975280763,10|0,1:2|0:0,0:0:0:0:
316,111,157473,2,0,P|356:104|394:91,1,80.9999975280763,14|0,1:2|3:0,0:0:0:0:
256,192,157754,1,4,1:0:0:0:
372,108,161819,5,8,3:2:0:0:
404,22,161960,1,8,3:2:0:0:
438,182,162100,1,8,3:2:0:0:
272,131,162240,2,0,P|208:143|170:229,1,161.999995056153,4|10,1:2|3:2,0:0:0:0:
94,360,162660,2,0,P|177:337|268:324,1,161.999995056153,0|0,0:0|1:0,0:0:0:0:
259,329,163011,1,0,0:0:0:0:
265,331,163081,1,10,3:2:0:0:
80,265,163221,6,0,P|22:259|-13:250,1,80.9999975280763,0|0,1:0|0:0,0:0:0:0:
60,167,163502,1,0,1:0:0:0:
23,87,163642,2,0,P|13:40|18:-1,1,80.9999975280763,10|0,3:2|1:0,0:0:0:0:
162,157,163922,1,0,0:0:0:0:
242,90,164062,1,0,1:0:0:0:
260,205,164202,2,0,P|270:252|265:293,1,80.9999975280763,8|0,0:0|0:0,0:0:0:0:
138,42,164483,6,0,P|205:1|320:15,2,161.999995056153,0|10|0,1:0|3:2|1:0,0:0:0:0:
96,133,165184,1,0,1:0:0:0:
148,206,165324,1,10,3:2:0:0:
0,324,165464,2,0,P|68:292|164:305,1,161.999995056153,0|0,1:0|1:0,0:0:0:0:
249,349,165885,1,8,3:2:0:0:
317,274,166025,1,8,3:2:0:0:
240,357,166165,1,8,3:2:0:0:
392,328,166305,1,8,3:2:0:0:
232,368,166445,1,8,3:2:0:0:
452,384,166586,1,8,3:2:0:0:
398,236,166726,6,0,L|386:177,2,53.9999983520508,4|8|8,1:0|1:2|1:2,0:0:0:0:
309,157,167006,2,0,L|250:169,2,53.9999983520508,8|4|4,3:3|3:3|1:3,0:0:0:0:
253,253,167287,2,0,L|265:312,2,53.9999983520508,4|8|8,1:0|1:2|1:2,0:0:0:0:
197,348,167567,2,0,L|138:360,2,53.9999983520508,8|4|4,3:3|3:3|1:3,0:0:0:0:
65,328,167847,2,0,B|49:294|49:294|60:231,1,80.9999975280763,4|0,1:0|0:0,0:0:0:0:
256,167,168128,6,0,P|221:218|136:214,1,121.499996292114
158,238,168408,1,0,1:3:0:0:
163,66,168548,1,0,0:0:0:0:
163,66,168618,1,0,0:0:0:0:
163,66,168688,2,0,P|212:58|257:38,1,80.9999975280763,12|0,1:2|0:0,0:0:0:0:
90,1,168969,6,0,P|64:64|76:111,1,90,4|0,1:2|1:0,0:0:0:0:
125,167,169249,1,10,0:0:0:0:
22,377,169389,2,0,P|12:290|-1:192,1,180,0|0,1:0|1:0,0:0:0:0:
0,199,169740,1,0,0:0:0:0:
0,199,169810,1,10,0:0:0:0:
113,302,169950,2,0,L|214:322,1,90,0|0,1:0|2:0,0:0:0:0:
131,210,170230,6,0,L|123:158,2,45,0|0|10,1:0|1:0|0:0,0:0:0:0:
283,368,170511,2,0,P|312:305|309:178,1,180,0|0,1:0|1:0,0:0:0:0:
311,189,170861,1,0,0:0:0:0:
307,181,170931,2,0,P|261:175|215:167,1,90,10|0,0:0|1:0,0:0:0:0:
52,87,171212,1,0,1:1:0:0:
149,66,171352,2,0,P|205:48|250:18,1,90,0|10,1:0|0:0,0:0:0:0:
123,179,171632,2,0,P|147:287|155:369,1,180,0|0,1:0|1:0,0:0:0:0:
152,366,171983,1,0,0:0:0:0:
151,375,172053,1,10,0:0:0:0:
297,290,172193,6,0,B|424:288|360:331|495:318,1,180,0|0,1:0|1:0,0:0:0:0:
293,300,172614,1,14,0:0:0:0:
451,234,172754,1,0,1:0:0:0:
285,314,172894,1,14,0:0:0:0:
332,191,173034,1,0,1:0:0:0:
332,191,173104,1,0,1:0:0:0:
332,191,173174,2,0,P|329:137|312:95,1,90,14|0,0:0|0:0,0:0:0:0:
147,131,173455,6,0,P|218:161|249:161,1,90,4|0,1:1|1:0,0:0:0:0:
413,102,173735,1,10,0:0:0:0:
282,279,173875,2,0,P|348:225|467:260,1,180,0|0,1:0|1:0,0:0:0:0:
447,243,174226,1,0,0:0:0:0:
452,248,174296,1,10,0:0:0:0:
329,138,174436,6,0,P|319:72|310:35,1,90,0|0,1:0|2:0,0:0:0:0:
243,173,174716,1,0,1:0:0:0:
243,173,174787,1,0,1:0:0:0:
243,173,174857,1,10,0:0:0:0:
188,246,174997,2,0,P|130:222|82:210,1,90,0|0,1:0|1:0,0:0:0:0:
279,286,175277,5,0,1:0:0:0:
129,384,175417,2,0,P|170:365|213:352,1,90,10|0,0:0|1:0,0:0:0:0:
437,384,175698,2,0,L|456:286,1,90,0|0,1:1|1:0,0:0:0:0:
353,115,175978,2,0,L|370:26,1,90,10|0,0:0|1:0,0:0:0:0:
454,295,176259,1,0,1:0:0:0:
356,125,176399,1,0,1:0:0:0:
461,305,176539,1,10,0:0:0:0:
506,203,176679,6,0,P|416:198|350:268,1,180,4|0,1:0|1:0,0:0:0:0:
223,221,177100,1,14,0:0:0:0:
182,358,177240,1,0,0:0:0:0:
19,286,177380,6,0,L|28:221,2,60,8|8|8,3:3|3:3|3:3,0:0:0:0:
109,184,177660,2,0,L|117:124,2,60,4|4|4,3:3|3:3|3:3,0:0:0:0:
65,54,177941,5,4,1:2:0:0:
198,200,178081,1,0,1:0:0:0:
198,200,178151,1,0,0:0:0:0:
198,200,178221,1,10,0:0:0:0:
301,113,178361,2,0,P|255:105|201:92,1,90,0|0,1:0|1:2,0:0:0:0:
102,201,178642,2,0,P|58:190|13:183,1,90,0|10,1:0|0:0,0:0:0:0:
282,199,178922,6,0,P|310:262|328:384,1,180,0|0,1:0|1:0,0:0:0:0:
328,371,179273,1,0,1:0:0:0:
328,371,179343,1,10,0:0:0:0:
407,252,179483,2,0,L|423:151,1,90,0|0,1:0|1:0,0:0:0:0:
512,329,179763,1,0,1:0:0:0:
512,329,179833,1,0,1:0:0:0:
512,329,179903,2,0,P|449:344|417:344,1,90,10|0,0:0|1:0,0:0:0:0:
279,207,180184,5,0,1:1:0:0:
437,158,180324,1,0,1:0:0:0:
308,72,180464,1,10,0:0:0:0:
472,4,180604,2,0,P|490:55|490:92,1,90,0|0,1:0|1:0,0:0:0:0:
362,237,180885,2,0,P|360:192|343:150,1,90,0|10,1:0|0:0,0:0:0:0:
207,43,181165,6,0,P|153:75|28:62,1,180,0|0,1:0|1:0,0:0:0:0:
32,62,181516,1,0,1:0:0:0:
22,54,181586,2,0,P|-2:111|-2:152,1,90,14|0,0:0|1:0,0:0:0:0:
73,333,181866,2,0,L|108:185,1,135,14|0,0:0|1:0,0:0:0:0:
104,201,182146,1,14,0:0:0:0:
179,328,182287,5,0,0:0:0:0:
179,328,182357,1,0,1:0:0:0:
179,328,182427,2,0,P|230:355|262:390,1,90,4|0,1:1|1:0,0:0:0:0:
267,207,182707,1,10,0:0:0:0:
335,307,182847,2,0,P|382:223|363:139,1,180,0|0,1:0|1:0,0:0:0:0:
360,136,183198,1,0,0:0:0:0:
352,132,183268,1,10,0:0:0:0:
407,240,183408,6,0,P|479:269|509:272,1,90,0|0,1:0|2:0,0:0:0:0:
368,44,183688,2,0,P|324:54|284:74,1,90,0|10,1:0|0:0,0:0:0:0:
176,147,183969,2,0,B|123:136|123:136|109:115|109:115|-7:82,1,180,0|0,1:0|1:0,0:0:0:0:
12,87,184319,1,0,0:0:0:0:
12,87,184389,2,0,P|71:76|117:60,1,90,8|0,0:0|1:0,0:0:0:0:
261,156,184670,5,4,1:1:0:0:
73,200,184810,1,0,1:0:0:0:
296,246,184950,5,10,0:0:0:0:
62,197,185090,1,4,1:2:0:0:
194,88,185230,5,0,1:0:0:0:
162,309,185371,1,0,1:0:0:0:
49,196,185511,1,10,0:0:0:0:
306,252,185651,2,0,P|392:253|481:188,1,180,4|0,1:0|1:0,0:0:0:0:
391,3,186072,2,0,P|371:55|368:93,2,60,8|8|8,2:0|0:3|0:3,0:0:0:0:
307,114,186352,2,0,P|277:125|249:129,2,60,8|8|8,2:0|0:3|0:3,0:0:0:0:
402,166,186632,2,0,P|431:171|459:181,2,60,8|8|8,2:0|0:3|0:3,0:0:0:0:
337,246,186913,5,2,1:2:0:0:
1,156,195044,6,0,B|4:162|4:162|55:172|55:172|61:168|61:168|156:180,1,143.999995605469
206,134,195324,1,8,2:3:0:0:
206,134,195417,2,0,L|198:66,1,60,8|8,2:3|2:3,0:0:0:0:
289,169,195604,1,4,2:3:0:0:
289,169,195697,2,0,L|281:237,1,60,4|4,2:3|2:3,0:0:0:0:
388,320,195885,1,0,1:0:0:0:
388,320,195978,2,0,P|371:288|339:271,1,60
203,258,196165,6,0,B|130:272|130:272|140:276|140:276|22:295,1,188.999994232178,8|0,3:2|0:0,0:0:0:0:
0,368,196445,2,0,L|79:382,2,60,4|0|0,1:0|0:0|0:0,0:0:0:0:
10,213,196726,2,0,L|0:153,1,60,10|0,0:0|0:0,0:0:0:0:
113,17,196913,6,0,L|92:211,1,180
51,83,197287,1,10,0:0:0:0:
195,48,197427,2,0,P|253:74|376:80,1,180,0|0,1:0|1:0,0:0:0:0:
498,0,197847,2,0,P|474:38|460:91,1,90,10|0,0:0|1:0,0:0:0:0:
512,254,198128,5,0,1:1:0:0:
368,81,198268,1,0,1:0:0:0:
498,165,198408,1,10,0:0:0:0:
334,270,198548,2,0,P|237:243|138:239,1,180,0|0,1:0|1:0,0:0:0:0:
0,384,198969,1,10,0:0:0:0:
108,168,199109,6,0,P|173:154|237:250,1,180,0|0,1:0|1:0,0:0:0:0:
93,161,199530,2,0,P|48:111|99:8,1,180,14|14,0:0|0:0,0:0:0:0:
94,177,199950,2,0,P|84:206|29:210,1,90,0|14,1:0|0:0,0:0:0:0:
9,108,200230,1,0,1:0:0:0:
157,248,200371,5,4,1:1:0:0:
25,112,200511,1,0,1:0:0:0:
170,21,200651,1,10,0:0:0:0:
258,70,200791,2,0,L|452:57,1,180,0|0,1:0|1:0,0:0:0:0:
265,55,201212,1,10,0:0:0:0:
444,237,201352,2,0,P|501:199|501:75,1,180,0|0,1:0|1:0,0:0:0:0:
354,1,201702,5,0,1:0:0:0:
340,0,201773,2,0,P|351:52|356:99,1,90,10|0,0:0|1:0,0:0:0:0:
185,212,202053,2,0,P|190:167|200:123,1,90,0|0,1:0|1:0,0:0:0:0:
450,244,202333,2,0,P|415:305|302:317,1,180,10|0,0:0|1:1,0:0:0:0:
402,167,202754,1,0,1:0:0:0:
265,55,202894,1,10,0:0:0:0:
185,212,203034,2,0,P|112:236|7:243,1,180,0|0,1:0|1:0,0:0:0:0:
282,146,203455,2,0,P|306:219|313:324,1,180,10|0,0:0|2:0,0:0:0:0:
96,374,203875,5,0,1:0:0:0:
96,374,203945,1,0,1:0:0:0:
96,374,204016,2,0,L|2:361,1,90,14|0,0:0|1:0,0:0:0:0:
185,212,204296,1,8,0:0:0:0:
185,212,204366,1,8,0:0:0:0:
185,212,204436,2,0,L|177:273,1,45,8|8,0:0|0:0,0:0:0:0:
313,321,204576,1,8,0:0:0:0:
313,321,204646,1,0,3:0:0:0:
312,320,204716,2,0,L|306:275,1,45,8|8,0:0|0:0,0:0:0:0:
384,378,204857,6,0,P|434:363|494:360,1,90,4|0,1:2|1:0,0:0:0:0:
327,190,205137,1,10,0:0:0:0:
410,129,205277,2,0,P|460:144|520:147,1,90,0|0,1:0|1:2,0:0:0:0:
320,85,205558,2,0,P|307:34|280:-19,1,90,0|10,1:0|0:0,0:0:0:0:
254,257,205838,2,0,P|180:298|80:309,1,180,0|0,1:0|1:0,0:0:0:0:
3,204,206259,5,10,0:0:0:0:
3,204,206329,1,0,3:0:0:0:
3,204,206399,2,0,L|8:263,1,45,8|0,0:0|3:0,0:0:0:0:
86,309,206539,1,8,0:0:0:0:
86,309,206609,1,0,3:0:0:0:
86,309,206679,2,0,L|145:304,1,45,8|0,0:0|3:0,0:0:0:0:
264,253,206819,2,0,P|246:318|238:393,1,135,8|8,0:0|0:0,0:0:0:0:
181,237,207100,5,4,1:1:0:0:
109,179,207240,2,0,L|100:105,1,72,0|10,1:0|3:2,0:0:0:0:
3,8,207520,5,0,1:0:0:0:
3,8,207660,1,2,1:3:0:0:
79,72,207801,1,0,1:0:0:0:
79,72,207941,1,10,3:2:0:0:
170,73,208081,2,0,P|212:53|253:49,1,72,0|2,1:0|0:3,0:0:0:0:
234,171,208361,6,0,L|227:134,1,36,0|0,1:0|1:0,0:0:0:0:
291,234,208502,2,0,P|249:254|208:258,1,72,10|0,3:2|1:0,0:0:0:0:
156,210,208782,1,2,0:3:0:0:
156,210,208922,1,0,1:0:0:0:
82,265,209062,1,10,3:2:0:0:
3,227,209202,2,0,L|-1:155,2,72,0|2|0,1:0|1:2|1:0,0:0:0:0:
9,317,209623,5,10,3:2:0:0:
89,354,209763,2,0,L|160:343,1,72,0|2,1:0|1:3,0:0:0:0:
216,278,210044,1,0,1:0:0:0:
264,356,210184,1,10,3:2:0:0:
339,314,210324,2,0,P|392:320|474:356,1,144,0|0,1:0|1:0,0:0:0:0:
482,351,210674,1,0,1:0:0:0:
492,347,210745,1,10,3:2:0:0:
295,238,211025,6,0,L|287:198,3,36,2|0|0|0,0:3|0:0|1:3|1:0,0:0:0:0:
222,151,211305,1,10,3:2:0:0:
281,0,211516,1,0,3:0:0:0:
285,15,211586,6,0,P|328:29|372:31,1,72,0|0,1:1|1:0,0:0:0:0:
512,0,211866,1,10,3:2:0:0:
512,0,212006,1,0,1:0:0:0:
438,51,212146,1,2,1:3:0:0:
438,51,212287,1,0,1:0:0:0:
423,137,212427,2,0,B|434:152|434:152|444:213,1,72,10|0,3:2|1:0,0:0:0:0:
508,263,212707,6,0,B|489:239|489:239|79:204,1,432,2|10,0:3|3:2,0:0:0:0:
0,162,213688,1,0,0:0:0:0:
79,195,213829,6,0,B|110:183|110:183|151:-4,1,216,2|0,1:2|1:0,0:0:0:0:
10,250,214389,2,0,B|109:232|109:232|132:213|132:213|229:202|229:202|148:233|148:233|124:252|124:252|81:265,1,377.999988464356,2|0,1:3|1:0,0:0:0:0:
204,379,214950,6,0,L|191:294,1,72,0|0,0:0|1:0,0:0:0:0:
101,250,215160,1,0,1:0:0:0:
92,261,215230,2,0,L|81:332,1,72,10|0,3:2|1:0,0:0:0:0:
316,380,215511,2,0,L|366:386,1,36,2|0,0:3|1:0,0:0:0:0:
278,294,215651,2,0,P|254:239|236:112,1,180,0|0,1:3|3:0,0:0:0:0:
270,46,216072,6,0,P|302:69|370:83,1,90,2|0,1:2|1:0,0:0:0:0:
512,249,216352,2,0,P|515:209|494:143,1,90,10|0,3:2|1:0,0:0:0:0:
396,9,216632,1,2,1:3:0:0:
329,172,216773,1,0,1:0:0:0:
512,74,216913,1,10,3:2:0:0:
349,163,217053,2,0,P|403:209|420:327,1,180,0|0,1:0|1:0,0:0:0:0:
418,319,217403,1,0,1:0:0:0:
409,323,217473,1,10,3:2:0:0:
226,384,217614,6,0,L|247:289,1,90,0|2,1:0|0:3,0:0:0:0:
324,343,217894,1,0,1:0:0:0:
186,228,218034,1,10,3:2:0:0:
349,163,218174,1,0,1:0:0:0:
245,296,218315,2,0,L|158:317,1,90,2|0,1:2|1:0,0:0:0:0:
117,169,218595,1,10,3:2:0:0:
42,384,218735,6,0,P|32:311|-3:204,1,180,0|0,1:0|1:0,0:0:0:0:
103,252,219156,1,10,3:2:0:0:
199,138,219296,2,0,P|209:88|225:39,1,90,0|2,1:0|0:3,0:0:0:0:
83,46,219576,1,0,1:0:0:0:
83,46,219646,1,0,1:0:0:0:
83,46,219716,2,0,P|40:17|-5:-5,1,90,10|0,3:2|1:0,0:0:0:0:
0,209,219997,5,8,3:3:0:0:
5,191,220090,2,0,P|35:169|71:160,1,60,8|8,3:3|3:3,0:0:0:0:
130,112,220277,1,4,3:3:0:0:
148,108,220370,2,0,P|182:122|207:149,1,60,4|4,3:3|3:3,0:0:0:0:
250,220,220558,5,4,1:1:0:0:
213,324,220698,1,0,1:0:0:0:
301,384,220838,1,14,3:2:0:0:
239,222,220978,5,0,1:0:0:0:
219,330,221118,1,2,1:3:0:0:
112,338,221258,1,0,1:0:0:0:
315,289,221399,2,0,L|411:307,2,90,14|0|2,3:2|1:0|0:3,0:0:0:0:
276,124,221819,6,0,L|267:18,1,90,0|10,1:0|3:2,0:0:0:0:
187,0,222100,1,0,1:0:0:0:
359,153,222240,2,0,P|403:167|464:173,1,90,2|0,0:3|1:0,0:0:0:0:
184,93,222520,2,0,P|140:107|79:113,1,90,14|0,3:2|1:0,0:0:0:0:
241,202,222801,5,2,1:2:0:0:
278,306,222941,1,0,1:0:0:0:
190,366,223081,1,10,3:2:0:0:
252,204,223221,5,0,1:0:0:0:
272,312,223361,1,2,1:3:0:0:
379,320,223501,1,0,1:0:0:0:
176,271,223642,1,10,3:2:0:0:
345,173,223782,6,0,P|368:123|374:23,1,144,4|0,1:0|0:0,0:0:0:0:
156,0,224202,2,0,P|192:26|232:30,1,72,8|0,3:2|0:0,0:0:0:0:
469,62,224483,2,0,P|495:26|499:-14,1,72,0|0,1:0|1:0,0:0:0:0:
378,35,224763,2,0,P|380:89|401:139,1,108,8|0,3:2|0:0,0:0:0:0:
296,0,225044,5,4,1:2:0:0:
256,192,225114,12,4,229530,1:2:0:0:
