osu file format v14

[General]
AudioFilename: audio.mp3
AudioLeadIn: 0
PreviewTime: 64162
Countdown: 0
SampleSet: Normal
StackLeniency: 0.5
Mode: 0
LetterboxInBreaks: 0
WidescreenStoryboard: 1

[Editor]
DistanceSpacing: 1.2
BeatDivisor: 4
GridSize: 8
TimelineZoom: 1.4

[Metadata]
Title:Rebirth the edge
TitleUnicode:Rebirth the edge
Artist:Shade
ArtistUnicode:Shade
Creator:ponbot
Version:Insane
Source:戦国ランス
Tags:sengoku rance 7 vii visual novel vn eroge rock instrumental video game
BeatmapID:4385037
BeatmapSetID:2044204

[Difficulty]
HPDrainRate:5
CircleSize:4
OverallDifficulty:8
ApproachRate:9
SliderMultiplier:1.5
SliderTickRate:1

[Events]
//Background and Video events
0,0,"315e908df81bed441fa5c67b9b2f9798.jpg",0,0
//Break Periods
//Storyboard Layer 0 (Background)
//Storyboard Layer 1 (Fail)
//Storyboard Layer 2 (Pass)
//Storyboard Layer 3 (Foreground)
//Storyboard Layer 4 (Overlay)
//Storyboard Sound Samples

[TimingPoints]
557,288.461538461538,4,2,1,50,1,0
8345,-100,4,1,1,60,0,0
28249,-83.3333333333333,4,1,1,80,0,1
45845,-83.3333333333333,4,1,1,75,0,1
46710,-100,4,1,1,70,0,0
60556,-100,4,1,1,60,0,0
64162,-100,4,1,1,70,0,0
65172,-83.3333333333333,4,1,1,80,0,1
92864,-100,4,1,1,70,0,0
97480,-83.3333333333333,4,1,1,80,0,1
106710,-100,4,1,1,70,0,0
115941,-83.3333333333333,4,1,1,80,0,1
125172,-100,4,1,1,80,0,0
125460,-100,4,1,1,60,0,0
134403,-100,4,1,1,70,0,0

[Colours]
Combo1 : 17,254,176
Combo2 : 173,255,95
Combo3 : 255,88,100
Combo4 : 255,94,55

[HitObjects]
256,192,557,5,4,1:0:0:0:
256,192,845,2,0,P|175:215|91:232,1,150,8|0,1:0|0:0,0:0:0:0:
110,228,1422,2,0,P|146:187|212:102,1,150,8|0,1:0|0:0,0:0:0:0:
204,111,1999,2,0,P|250:152|327:202,1,150,8|0,1:0|0:0,0:0:0:0:
323,200,2576,2,0,P|292:224|248:265,1,75,8|0,1:0|0:0,0:0:0:0:
192,320,2864,5,0,0:0:0:0:
192,320,3153,2,0,P|99:284|46:268,1,150,8|0,1:0|0:0,0:0:0:0:
50,269,3730,2,0,P|142:226|185:202,1,150,8|0,1:0|0:0,0:0:0:0:
184,202,4306,2,0,P|118:148|70:100,1,150,8|0,1:0|0:0,0:0:0:0:
72,102,4883,2,0,P|109:95|167:72,1,75,12|0,1:0|0:0,0:0:0:0:
225,35,5172,5,4,1:0:0:0:
225,35,5460,2,0,P|198:90|170:184,1,150,8|0,1:0|0:0,0:0:0:0:
171,174,6037,2,0,P|222:227|290:293,1,150,8|0,1:0|0:0,0:0:0:0:
276,280,6614,2,0,P|324:257|425:219,1,150,8|0,1:0|0:0,0:0:0:0:
414,222,7191,2,0,P|413:164|402:113,1,75,8|0,1:0|0:0,0:0:0:0:
390,63,7480,1,0,0:0:0:0:
390,63,7768,6,0,P|346:73|237:89,1,150,8|0,1:0|0:0,0:0:0:0:
242,88,8345,2,0,P|249:136|250:181,1,75,8|0,1:0|0:0,0:0:0:0:
228,234,8633,5,4,1:0:0:0:
313,307,8778,1,8,1:0:0:0:
189,366,8922,2,0,P|190:317|185:215,1,150,8|8,1:0|1:0,0:0:0:0:
185,216,9282,1,8,1:0:0:0:
185,216,9355,1,8,1:0:0:0:
94,338,9499,2,0,B|95:295|95:295|77:260,1,75,8|8,1:0|1:0,0:0:0:0:
108,181,9787,6,0,P|108:99|105:21,2,150,4|8|0,1:0|1:0|1:0,0:0:0:0:
108,181,10436,1,2,1:2:0:0:
108,181,10508,1,0,1:0:0:0:
208,120,10653,1,8,1:0:0:0:
208,120,10797,2,0,B|277:146|277:146|350:107,1,150,0|0,1:0|1:0,0:0:0:0:
405,165,11230,1,8,1:0:0:0:
464,107,11374,5,0,1:0:0:0:
343,221,11518,1,2,1:2:0:0:
426,254,11662,1,2,1:2:0:0:
426,254,11806,2,0,P|423:316|423:356,1,75,8|0,1:0|0:0,0:0:0:0:
352,384,12095,6,0,B|315:375|315:375|267:374,1,75,0|0,1:0|1:0,0:0:0:0:
239,296,12383,2,0,B|201:306|201:306|160:306,1,75,8|2,1:0|1:2,0:0:0:0:
108,374,12672,1,2,1:2:0:0:
108,374,12744,1,2,1:2:0:0:
108,374,12816,1,2,1:2:0:0:
20,288,12960,5,8,1:0:0:0:
67,216,13105,2,0,P|65:146|65:67,1,150,0|0,1:0|1:0,0:0:0:0:
72,58,13465,1,0,1:0:0:0:
79,50,13537,2,0,B|116:62|116:62|178:58,1,75,8|0,1:0|0:0,0:0:0:0:
213,121,13826,2,0,L|273:114,2,50,2|2|2,1:2|1:2|1:2,0:0:0:0:
295,78,14114,6,0,P|300:128|309:177,1,75,8|8,1:0|1:0,0:0:0:0:
227,215,14403,2,0,P|242:294|250:373,1,150,0|8,1:0|1:0,0:0:0:0:
249,363,14835,1,0,1:0:0:0:
322,264,14980,5,2,1:2:0:0:
370,354,15124,1,2,1:2:0:0:
430,269,15268,2,0,P|468:268|519:264,1,75,8|0,1:0|1:0,0:0:0:0:
380,143,15556,6,0,P|310:171|229:202,2,150,0|8|0,1:0|1:0|1:0,0:0:0:0:
454,189,16278,1,0,1:0:0:0:
501,86,16422,2,0,P|461:75|398:57,1,75,8|0,1:0|1:0,0:0:0:0:
307,4,16710,5,0,1:0:0:0:
245,80,16855,1,0,1:0:0:0:
245,80,16927,1,0,1:0:0:0:
245,80,16999,2,0,B|254:115|254:115|249:163,1,75,8|0,1:0|1:0,0:0:0:0:
292,232,17287,1,8,1:0:0:0:
208,264,17431,1,8,1:0:0:0:
270,329,17576,1,8,1:0:0:0:
150,380,17720,6,0,B|108:357|108:357|-13:357,1,150,4|8,1:0|1:3,0:0:0:0:
6,357,18153,2,0,L|6:266,1,75,4|4,1:3|1:3,0:0:0:0:
7,192,18441,1,8,1:0:0:0:
92,273,18585,1,8,1:0:0:0:
95,178,18730,1,8,1:0:0:0:
5,282,18874,1,8,1:0:0:0:
47,103,19018,6,0,P|142:89|230:72,1,150,4|8,1:0|1:0,0:0:0:0:
239,150,19451,1,0,0:0:0:0:
283,41,19595,1,2,1:2:0:0:
283,41,19667,1,2,1:2:0:0:
283,41,19739,1,2,1:2:0:0:
373,116,19883,1,8,1:0:0:0:
373,116,20028,2,0,B|362:157|362:157|364:193,1,75
369,305,20316,5,0,1:0:0:0:
433,227,20460,1,8,1:0:0:0:
328,271,20605,1,0,1:0:0:0:
422,365,20749,2,0,P|469:353|510:340,1,75,2|2,1:2|1:2,0:0:0:0:
291,237,21037,2,0,P|244:249|203:262,1,75,8|0,1:0|0:0,0:0:0:0:
176,336,21326,6,0,B|188:258|188:258|176:179,1,150,0|8,1:0|1:0,0:0:0:0:
242,125,21758,1,0,1:0:0:0:
168,81,21903,1,2,1:2:0:0:
168,81,21975,1,2,1:2:0:0:
168,81,22047,2,0,P|121:83|70:82,1,75,2|8,1:2|1:0,0:0:0:0:
13,171,22335,2,0,P|59:171|113:169,1,75
104,267,22624,5,0,0:0:0:0:
104,267,22696,1,0,0:0:0:0:
104,267,22768,2,0,B|89:302|89:302|89:352,1,75,8|0,0:0|0:0,0:0:0:0:
187,215,23056,2,0,L|183:148,2,50,2|2|2,1:2|1:2|1:2,0:0:0:0:
187,306,23345,2,0,P|227:303|285:301,1,75,8|0,1:0|1:0,0:0:0:0:
308,229,23633,6,0,B|383:249|383:249|467:221,1,150,0|8,1:0|0:0,0:0:0:0:
452,226,24066,1,0,0:0:0:0:
413,149,24210,2,0,L|326:157,1,75
348,330,24499,1,8,1:0:0:0:
348,330,24643,2,0,L|426:322,1,75
256,211,24931,5,0,0:0:0:0:
256,211,25076,2,0,B|263:251|263:251|262:305,1,75,8|0,0:0|0:0,0:0:0:0:
178,348,25364,2,0,B|171:308|171:308|172:254,1,75
89,177,25653,2,0,P|138:186|187:181,1,75,8|0,0:0|0:0,0:0:0:0:
256,192,25941,12,8,27960,1:0:0:0:
149,124,28249,6,0,P|176:183|183:219,1,89.9999972534181,6|0,1:0|0:0,0:0:0:0:
192,284,28537,1,10,1:0:0:0:
265,163,28681,2,0,P|325:183|349:304,1,179.999994506836,2|2,1:0|1:2,0:0:0:0:
282,342,29114,5,8,1:0:0:0:
282,342,29258,2,0,P|275:271|277:227,1,89.9999972534181,2|0,1:2|0:0,0:0:0:0:
384,208,29547,1,2,1:2:0:0:
384,208,29691,2,0,P|383:163|377:118,1,89.9999972534181,8|0,1:0|1:2,0:0:0:0:
325,39,29980,1,2,1:2:0:0:
220,129,30124,5,2,1:2:0:0:
220,129,30196,1,2,1:2:0:0:
220,129,30268,2,0,B|154:153|154:153|84:132,1,134.999995880127,10|0,1:0|0:0,0:0:0:0:
60,93,30556,2,0,P|55:177|54:283,1,179.999994506836,2|8,1:0|1:0,0:0:0:0:
103,339,30989,1,2,1:2:0:0:
221,270,31133,6,0,B|179:254|179:254|134:263,1,89.9999972534181,2|2,1:0|1:2,0:0:0:0:
286,374,31422,1,8,1:0:0:0:
389,305,31566,2,0,B|361:220|404:209|367:125,1,179.999994506836,2|2,1:0|1:0,0:0:0:0:
297,178,31999,2,0,P|368:217|472:259,1,179.999994506836,10|0,1:0|1:0,0:0:0:0:
467,172,32431,1,2,1:0:0:0:
467,172,32504,1,0,1:0:0:0:
467,172,32576,2,0,P|411:191|371:208,1,89.9999972534181,8|8,1:0|1:0,0:0:0:0:
265,276,32864,6,0,P|258:185|248:79,2,179.999994506836,6|8|2,1:0|1:0|1:2,0:0:0:0:
184,264,33585,1,2,1:2:0:0:
156,342,33730,1,8,1:0:0:0:
156,342,33874,2,0,P|110:352|38:359,1,89.9999972534181,2|0,1:0|0:0,0:0:0:0:
0,311,34162,5,2,1:0:0:0:
73,278,34306,1,10,1:0:0:0:
7,229,34451,1,0,1:0:0:0:
135,148,34595,5,2,1:0:0:0:
137,228,34739,1,2,1:0:0:0:
209,191,34883,1,8,1:0:0:0:
209,109,35028,1,10,1:0:0:0:
212,273,35172,6,0,P|291:294|393:314,1,179.999994506836,2|6,1:0|1:0,0:0:0:0:
339,195,35605,1,0,0:0:0:0:
429,241,35749,2,0,P|454:237|483:223,2,44.999998626709,8|8|8,1:0|1:0|1:0,0:0:0:0:
384,105,36037,5,8,1:0:0:0:
384,105,36181,2,0,B|326:89|278:153|206:126,1,179.999994506836,4|8,1:0|1:0,0:0:0:0:
117,76,36614,1,8,1:0:0:0:
191,58,36758,1,8,1:0:0:0:
121,125,36903,2,0,L|64:122,2,44.999998626709,8|8|8,1:0|1:0|1:0,0:0:0:0:
202,176,37191,1,12,1:0:0:0:
202,176,37335,1,8,1:0:0:0:
42,221,37480,6,0,P|127:229|145:319,1,179.999994506836,6|10,1:0|1:0,0:0:0:0:
84,358,37912,1,2,1:0:0:0:
179,384,38056,2,0,P|178:315|180:269,1,89.9999972534181,2|2,1:2|1:2,0:0:0:0:
224,226,38345,1,8,1:0:0:0:
342,336,38489,6,0,P|404:297|387:200,1,179.999994506836,2|2,1:2|1:2,0:0:0:0:
310,162,38922,2,0,P|308:206|312:251,1,89.9999972534181,8|2,1:0|1:2,0:0:0:0:
365,95,39210,2,0,P|364:70|363:49,3,44.999998626709,8|8|8|8,1:0|1:0|1:0|1:0,0:0:0:0:
289,19,39499,2,0,B|245:33|245:33|186:30,1,89.9999972534181,10|10,1:0|1:0,0:0:0:0:
84,122,39787,6,0,L|95:212,1,89.9999972534181,6|8,1:0|1:0,0:0:0:0:
298,301,40076,2,0,L|209:310,1,89.9999972534181,6|8,1:0|1:0,0:0:0:0:
394,201,40364,2,0,L|400:112,1,89.9999972534181,6|8,1:2|1:0,0:0:0:0:
248,84,40653,5,8,1:0:0:0:
248,84,40797,2,0,P|231:173|249:263,1,179.999994506836,6|0,1:0|1:0,0:0:0:0:
287,344,41230,1,10,1:0:0:0:
287,344,41374,2,0,P|199:341|106:345,2,179.999994506836,10|10|8,1:0|1:0|1:0,0:0:0:0:
349,287,42095,6,0,P|337:243|328:199,1,89.9999972534181,6|0,1:0|1:0,0:0:0:0:
163,97,42383,2,0,P|174:140|183:184,1,89.9999972534181,10|0,1:0|1:0,0:0:0:0:
147,301,42672,2,0,P|198:280|254:266,1,89.9999972534181,2|2,1:0|1:0,0:0:0:0:
365,82,42960,1,8,1:0:0:0:
365,82,43105,2,0,P|323:100|280:113,1,89.9999972534181,2|0,1:0|0:0,0:0:0:0:
472,216,43393,5,2,1:0:0:0:
472,216,43538,2,0,P|476:168|443:129,1,89.9999972534181,8|0,1:0|0:0,0:0:0:0:
357,270,43826,2,0,P|360:299|360:343,2,59.9999981689454,2|2|2,1:0|1:2|1:2,0:0:0:0:
399,359,44114,2,0,P|341:348|292:360,1,89.9999972534181,10|0,1:0|0:0,0:0:0:0:
188,223,44403,6,0,P|260:204|370:168,1,179.999994506836,2|10,1:0|1:0,0:0:0:0:
303,110,44835,2,0,P|262:251|249:292,1,179.999994506836,2|10,1:0|1:0,0:0:0:0:
229,363,45268,1,10,1:0:0:0:
229,363,45412,1,14,1:0:0:0:
90,199,45701,5,2,1:0:0:0:
90,199,45845,2,0,P|65:188|36:174,3,44.999998626709,8|8|8|8,1:0|1:0|1:0|1:0,0:0:0:0:
70,278,46133,2,0,P|77:312|83:341,3,44.999998626709,8|8|8|8,1:3|1:3|1:3|1:3,0:0:0:0:
156,269,46422,1,4,1:3:0:0:
156,269,46494,1,4,1:3:0:0:
156,269,46566,1,4,1:3:0:0:
49,180,46710,6,0,P|59:100|64:20,1,150,6|8,1:0|1:0,0:0:0:0:
63,30,47143,1,2,1:0:0:0:
216,144,47431,1,0,1:0:0:0:
160,206,47576,1,8,1:0:0:0:
240,224,47720,2,0,B|310:199|310:199|402:223,1,150,6|0,1:2|1:0,0:0:0:0:
431,285,48153,5,10,1:0:0:0:
509,250,48297,1,0,1:0:0:0:
509,250,48369,1,8,1:0:0:0:
509,250,48441,2,0,P|498:201|486:155,1,75,0|2,1:0|1:2,0:0:0:0:
419,137,48730,1,10,1:0:0:0:
480,24,48874,6,0,P|387:50|314:73,1,150,6|2,1:0|1:2,0:0:0:0:
240,49,49306,2,0,P|256:109|269:144,1,75,10|0,1:0|1:0,0:0:0:0:
333,160,49595,1,2,1:2:0:0:
295,290,49739,2,0,P|286:253|275:218,1,75,0|8,1:0|1:0,0:0:0:0:
165,111,50028,2,0,P|179:164|205:277,1,150,2|0,1:2|1:0,0:0:0:0:
221,343,50460,1,10,1:0:0:0:
141,325,50605,1,0,1:0:0:0:
141,325,50677,1,0,1:0:0:0:
141,325,50749,5,6,1:0:0:0:
376,192,51037,1,6,1:2:0:0:
141,59,51326,2,0,P|71:108|2:149,1,150,6|8,1:0|1:0,0:0:0:0:
15,141,51758,1,2,1:0:0:0:
208,200,52047,5,2,1:2:0:0:
184,288,52191,1,8,1:0:0:0:
120,224,52335,2,0,P|161:214|214:198,1,75,6|0,1:0|0:0,0:0:0:0:
279,264,52624,5,0,1:0:0:0:
343,192,52768,1,10,1:0:0:0:
426,256,52912,1,0,1:0:0:0:
426,256,52984,1,0,1:0:0:0:
426,256,53056,2,0,P|425:186|418:95,1,150,2|10,1:2|1:0,0:0:0:0:
460,40,53489,6,0,B|400:83|400:83|324:70,1,150,6|2,1:0|1:2,0:0:0:0:
240,22,53922,2,0,P|244:74|243:111,1,75,10|0,1:0|0:0,0:0:0:0:
234,186,54210,1,8,1:0:0:0:
289,269,54355,1,8,1:0:0:0:
289,269,54427,1,8,1:0:0:0:
289,269,54499,1,8,1:0:0:0:
240,344,54643,6,0,P|141:347|63:352,1,150,4|0,1:2|1:0,0:0:0:0:
28,284,55076,1,8,1:0:0:0:
111,317,55220,1,4,1:3:0:0:
8,368,55364,5,4,1:2:0:0:
256,200,55653,1,4,1:2:0:0:
504,368,55941,2,0,P|439:363|335:354,1,150,2|8,1:0|1:0,0:0:0:0:
258,374,56374,1,2,1:0:0:0:
346,334,56518,1,2,1:2:0:0:
226,272,56662,1,2,1:2:0:0:
365,217,56806,1,8,1:0:0:0:
195,156,56951,6,0,P|115:151|31:144,1,150,6|0,1:2|1:0,0:0:0:0:
45,145,57383,1,10,1:0:0:0:
144,264,57528,1,0,1:0:0:0:
144,264,57600,1,0,1:0:0:0:
144,264,57672,2,0,P|176:238|223:242,1,75,2|0,1:0|0:0,0:0:0:0:
280,136,57960,1,2,1:0:0:0:
280,136,58105,2,0,P|357:155|444:173,1,150,6|0,1:2|1:0,0:0:0:0:
497,236,58537,1,10,1:0:0:0:
504,80,58681,6,0,B|456:59|400:97|354:62,1,150,2|0,1:0|1:0,0:0:0:0:
296,0,59114,1,8,1:0:0:0:
240,112,59258,2,0,B|262:185|262:185|244:258,1,150,0|0,1:0|1:0,0:0:0:0:
220,343,59691,1,8,1:0:0:0:
141,281,59835,1,0,1:0:0:0:
141,281,59907,1,8,1:0:0:0:
141,281,59980,2,0,P|153:238|162:194,1,75,0|0,1:0|1:0,0:0:0:0:
40,288,60268,2,0,P|28:331|19:375,1,75,8|8,1:0|1:0,0:0:0:0:
62,198,60556,5,12,1:0:0:0:
121,370,60701,1,8,1:0:0:0:
121,370,60773,1,0,1:0:0:0:
121,370,60845,1,8,1:0:0:0:
256,263,60989,1,0,1:0:0:0:
256,263,61061,1,0,1:0:0:0:
256,263,61133,2,0,P|294:270|339:273,1,75,8|0,1:0|1:0,0:0:0:0:
376,350,61422,1,0,1:0:0:0:
481,202,61566,6,0,B|442:182|384:210|327:183,1,150,4|0,1:0|1:0,0:0:0:0:
243,178,61999,1,8,1:0:0:0:
293,103,62143,1,0,1:0:0:0:
293,103,62215,1,0,1:0:0:0:
293,103,62287,2,0,P|334:99|371:90,1,75,8|4,1:3|1:3,0:0:0:0:
280,261,62576,1,4,1:3:0:0:
149,227,62720,6,0,P|154:166|167:70,1,150,4|4,1:0|1:3,0:0:0:0:
218,4,63153,1,8,1:0:0:0:
85,34,63297,1,4,1:3:0:0:
85,34,63369,1,4,1:3:0:0:
85,34,63441,2,0,P|76:98|71:132,1,75,4|8,1:3|1:0,0:0:0:0:
176,192,63730,1,8,1:0:0:0:
24,264,63874,6,0,B|97:254|97:254|167:291,1,150,4|8,1:0|1:0,0:0:0:0:
200,368,64306,1,8,1:0:0:0:
304,248,64451,2,0,B|295:189|295:189|302:151|302:151|293:87,1,150,8|0,1:0|1:0,0:0:0:0:
219,146,64883,1,8,1:0:0:0:
219,146,65028,1,0,1:0:0:0:
402,254,65172,6,0,P|395:317|393:357,1,89.9999972534181,6|0,0:0|1:0,0:0:0:0:
212,281,65460,2,0,P|229:323|242:366,1,89.9999972534181,10|0,0:0|0:0,0:0:0:0:
301,152,65749,6,0,P|320:108|330:53,1,89.9999972534181,2|2,0:0|1:0,0:0:0:0:
402,254,66037,1,8,0:0:0:0:
456,177,66181,2,0,P|381:127|296:155,1,179.999994506836,2|2,1:0|0:2,0:0:0:0:
234,238,66614,1,10,0:0:0:0:
209,133,66758,1,0,0:0:0:0:
134,211,66903,6,0,P|122:269|110:315,1,89.9999972534181,6|2,0:0|0:2,0:0:0:0:
224,376,67191,2,0,P|232:331|243:281,1,89.9999972534181,14|2,0:0|0:2,0:0:0:0:
380,194,67480,6,0,P|300:175|263:165,1,89.9999972534181,6|0,0:0|0:0,0:0:0:0:
134,211,67768,2,0,P|90:200|46:190,1,89.9999972534181,10|0,0:0|0:0,0:0:0:0:
208,48,68056,2,0,P|252:59|296:69,1,89.9999972534181,2|2,0:0|0:0,0:0:0:0:
220,235,68345,1,8,0:0:0:0:
49,83,68489,6,0,P|38:127|28:171,1,89.9999972534181,2|0,0:0|0:0,0:0:0:0:
75,326,68778,1,2,0:0:0:0:
75,326,68850,1,0,0:0:0:0:
75,326,68922,2,0,P|105:302|162:290,1,89.9999972534181,8|2,0:0|0:2,0:0:0:0:
219,218,69210,1,2,0:0:0:0:
300,338,69355,1,2,0:0:0:0:
410,246,69499,2,0,P|365:249|322:232,1,89.9999972534181,8|0,0:0|0:0,0:0:0:0:
148,116,69787,6,0,P|138:161|128:224,1,89.9999972534181,6|0,0:0|0:0,0:0:0:0:
255,43,70076,2,0,P|299:50|343:60,1,89.9999972534181,10|0,0:0|0:0,0:0:0:0:
410,246,70364,2,0,P|419:202|427:157,1,89.9999972534181,2|2,0:0|0:0,0:0:0:0:
248,144,70653,1,8,0:0:0:0:
248,144,70797,6,0,P|226:225|214:332,1,179.999994506836,2|2,0:0|0:0,0:0:0:0:
272,384,71230,1,8,0:0:0:0:
342,304,71374,1,2,0:2:0:0:
261,298,71518,1,2,0:0:0:0:
354,384,71662,1,2,0:0:0:0:
430,283,71806,2,0,P|424:234|412:169,1,89.9999972534181,8|0,0:0|0:0,0:0:0:0:
391,107,72095,5,6,0:0:0:0:
322,164,72239,2,0,P|326:187|331:208,2,44.999998626709,0|0|8,0:0|0:0|0:0,0:0:0:0:
305,76,72528,1,10,0:0:0:0:
237,172,72672,1,8,0:0:0:0:
199,39,72816,1,0,0:0:0:0:
127,178,72960,2,0,P|217:195|312:209,1,179.999994506836,14|0,0:0|0:0,0:0:0:0:
401,160,73393,5,8,0:3:0:0:
406,267,73537,1,4,0:3:0:0:
303,234,73681,1,4,0:3:0:0:
303,342,73826,2,0,B|253:310|162:369|118:327,1,179.999994506836,4|8,0:3|0:0,0:0:0:0:
126,333,74258,1,8,0:0:0:0:
40,232,74403,6,0,P|80:237|135:233,1,89.9999972534181,14|0,0:0|0:0,0:0:0:0:
224,140,74691,2,0,P|184:135|129:139,1,89.9999972534181,10|0,0:0|0:0,0:0:0:0:
41,53,74980,2,0,P|37:118|50:178,1,89.9999972534181,2|2,0:0|0:0,0:0:0:0:
217,315,75268,1,8,0:0:0:0:
217,315,75412,2,0,P|221:233|217:198,1,89.9999972534181,2|0,0:0|0:0,0:0:0:0:
334,157,75701,5,2,0:0:0:0:
332,266,75845,1,8,0:0:0:0:
430,221,75989,1,2,0:2:0:0:
259,130,76133,5,6,0:0:0:0:
246,280,76278,1,2,0:2:0:0:
367,215,76422,1,14,0:0:0:0:
137,203,76566,1,0,0:0:0:0:
137,203,76710,6,0,P|134:262|136:320,1,89.9999972534181,6|0,0:0|0:0,0:0:0:0:
259,130,76999,2,0,P|262:71|260:13,1,89.9999972534181,10|0,0:0|0:0,0:0:0:0:
246,280,77287,2,0,P|243:339|245:397,1,89.9999972534181,2|2,0:0|0:0,0:0:0:0:
367,215,77576,1,8,0:0:0:0:
367,215,77720,2,0,P|370:156|368:98,1,89.9999972534181,2|0,0:0|0:0,0:0:0:0:
261,40,78008,5,2,0:0:0:0:
261,40,78081,1,0,0:0:0:0:
261,40,78153,2,0,B|220:64|220:64|156:53,1,89.9999972534181,8|2,0:0|0:2,0:0:0:0:
118,146,78441,1,2,0:0:0:0:
75,46,78585,1,2,0:0:0:0:
15,136,78730,2,0,P|20:181|24:231,1,89.9999972534181,8|0,0:0|0:0,0:0:0:0:
104,336,79018,6,0,P|108:282|115:223,1,89.9999972534181,6|0,0:0|0:0,0:0:0:0:
111,137,79306,2,0,P|107:92|104:48,1,89.9999972534181,10|0,0:0|0:0,0:0:0:0:
224,102,79595,6,0,P|227:147|232:192,1,89.9999972534181,2|2,0:0|0:0,0:0:0:0:
224,281,79883,1,8,0:0:0:0:
224,281,80028,2,0,P|227:236|232:192,1,89.9999972534181,2|0,0:0|0:0,0:0:0:0:
203,19,80316,5,2,0:0:0:0:
302,60,80460,2,0,P|355:75|407:81,1,89.9999972534181,8|2,0:0|0:2,0:0:0:0:
149,161,80749,5,2,0:0:0:0:
317,195,80893,1,2,0:0:0:0:
192,248,81037,2,0,P|183:298|179:346,1,89.9999972534181,8|2,0:0|0:2,0:0:0:0:
280,384,81326,6,0,P|302:381|341:374,2,59.9999981689454,14|8|8,0:0|0:0|0:0,0:0:0:0:
340,332,81614,2,0,P|362:329|401:322,2,59.9999981689454,4|4|4,0:3|0:3|0:3,0:0:0:0:
415,365,81903,2,0,P|437:362|476:355,2,59.9999981689454,10|0|0,0:0|0:0|0:0,0:0:0:0:
505,347,82191,6,0,P|490:258|461:153,1,179.999994506836,6|0,0:0|0:0,0:0:0:0:
466,171,82624,1,0,0:0:0:0:
466,171,82768,2,0,P|412:195|369:196,1,89.9999972534181,0|8,0:0|0:0,0:0:0:0:
310,253,83056,5,8,0:0:0:0:
310,253,83129,1,8,0:0:0:0:
310,253,83201,1,10,0:0:0:0:
310,253,83273,1,0,0:0:0:0:
310,253,83345,2,0,P|299:186|297:141,1,89.9999972534181,10|10,0:0|0:0,0:0:0:0:
288,16,83633,6,0,P|227:12|166:106,1,179.999994506836,6|8,0:0|0:0,0:0:0:0:
216,168,84066,1,0,0:0:0:0:
74,82,84210,2,0,P|89:148|96:186,1,89.9999972534181,0|2,0:0|0:2,0:0:0:0:
128,320,84499,5,10,0:0:0:0:
64,256,84643,2,0,B|69:215|77:188|77:188|60:140|60:140|71:105|74:73,1,179.999994506836,2|2,0:0|0:0,0:0:0:0:
131,24,85076,2,0,P|163:64|165:103,1,89.9999972534181,8|2,0:0|0:0,0:0:0:0:
64,256,85364,2,0,P|137:231|181:213,1,89.9999972534181,2|2,0:0|0:2,0:0:0:0:
303,266,85653,2,0,P|230:291|186:309,1,89.9999972534181,10|0,0:0|0:0,0:0:0:0:
320,173,85941,6,0,P|364:194|379:321,1,179.999994506836,2|10,0:0|0:0,0:0:0:0:
218,295,86374,2,0,P|230:190|243:113,1,179.999994506836,2|2,0:0|0:0,0:0:0:0:
171,60,86806,1,8,0:0:0:0:
142,146,86951,2,0,P|218:161|327:173,1,179.999994506836,2|2,0:0|0:2,0:0:0:0:
346,202,87311,1,2,0:2:0:0:
375,229,87383,2,0,P|419:230|464:235,1,89.9999972534181,10|0,0:0|0:0,0:0:0:0:
512,168,87672,5,2,0:0:0:0:
416,312,87816,1,0,0:0:0:0:
415,312,87960,2,0,P|370:309|325:303,1,89.9999972534181,6|0,0:2|0:0,0:0:0:0:
245,245,88249,5,2,0:0:0:0:
220,345,88393,1,2,0:0:0:0:
220,345,88465,1,0,0:2:0:0:
220,345,88537,1,8,0:0:0:0:
135,298,88681,1,2,0:0:0:0:
135,298,88754,1,0,0:2:0:0:
135,298,88826,2,0,P|148:247|160:190,1,89.9999972534181,8|2,0:0|0:0,0:0:0:0:
182,115,89114,5,8,0:0:0:0:
93,71,89258,2,0,P|76:141|52:255,1,179.999994506836,2|2,0:0|0:0,0:0:0:0:
40,348,89691,1,10,0:0:0:0:
40,348,89835,1,0,0:0:0:0:
135,298,89980,2,0,P|143:263|150:234,2,59.9999981689454,2|2|2,0:0|0:2|0:2,0:0:0:0:
155,217,90268,2,0,B|194:239|194:239|245:237,1,89.9999972534181,10|2,0:0|0:0,0:0:0:0:
387,202,90556,6,0,B|296:251|340:280|249:328,1,179.999994506836,6|0,0:2|0:0,0:0:0:0:
337,353,90989,2,0,P|323:264|304:176,1,179.999994506836,6|0,0:2|0:0,0:0:0:0:
239,237,91422,1,14,0:0:0:0:
239,237,91566,2,0,L|411:290,1,179.999994506836,14|8,0:0|0:0,0:0:0:0:
450,302,91927,1,0,0:0:0:0:
488,314,91999,6,0,P|492:292|498:271,3,44.999998626709,0|0|8|0,0:0|0:0|0:0|0:0,0:0:0:0:
472,225,92287,2,0,P|478:203|482:181,3,44.999998626709,8|8|8|8,0:0|0:0|0:0|0:0,0:0:0:0:
511,144,92576,2,0,P|467:139|424:124,1,89.9999972534181,8|0,0:0|0:0,0:0:0:0:
348,85,92864,6,0,P|327:155|308:229,1,150,6|0,0:0|0:0,0:0:0:0:
247,133,93297,2,0,P|269:61|284:-11,2,150,2|2|0,0:0|0:0|0:0,0:0:0:0:
244,144,93946,1,0,0:0:0:0:
242,155,94018,2,0,P|214:116|180:108,1,75,10|0,0:0|0:0,0:0:0:0:
128,42,94306,1,2,0:0:0:0:
42,70,94451,2,0,P|21:146|6:217,1,150,10|0,0:0|0:0,0:0:0:0:
81,265,94883,2,0,P|93:221|100:183,1,75,2|8,0:0|0:0,0:0:0:0:
8,308,95100,5,8,0:0:0:0:
8,308,95172,2,0,P|72:292|144:342,1,150,2|0,0:0|0:0,0:0:0:0:
223,299,95605,1,2,0:0:0:0:
275,371,95749,2,0,P|314:363|369:355,1,75,10|8,0:0|0:0,0:0:0:0:
453,272,96037,5,8,0:0:0:0:
453,272,96181,2,0,B|402:261|402:261|352:271|352:271|290:257,1,150,2|2,0:0|0:0,0:0:0:0:
217,286,96614,2,0,P|224:245|235:188,1,75,2|0,0:0|0:0,0:0:0:0:
249,123,96903,1,10,0:0:0:0:
318,180,97047,1,2,0:0:0:0:
336,92,97191,1,0,0:0:0:0:
230,212,97335,1,2,0:0:0:0:
182,61,97480,6,0,P|123:57|81:51,1,89.9999972534181,6|2,0:0|0:2,0:0:0:0:
11,123,97768,1,10,0:0:0:0:
121,162,97912,1,2,0:2:0:0:
121,162,97984,1,2,0:2:0:0:
121,162,98056,2,0,B|104:208|104:208|100:261,1,89.9999972534181,10|10,0:0|0:0,0:0:0:0:
97,357,98345,1,8,0:0:0:0:
32,294,98489,1,8,0:0:0:0:
182,260,98633,6,0,P|224:274|278:288,1,89.9999972534181,2|2,0:0|0:0,0:0:0:0:
352,308,98922,1,2,0:2:0:0:
352,308,99066,1,2,0:0:0:0:
411,186,99210,2,0,P|370:204|328:218,1,89.9999972534181,8|2,0:0|0:0,0:0:0:0:
268,285,99499,1,10,0:0:0:0:
249,178,99643,1,0,0:0:0:0:
168,288,99787,6,0,B|179:330|179:330|184:400,1,89.9999972534181,6|8,0:0|0:0,0:0:0:0:
110,149,100076,1,8,0:0:0:0:
228,200,100220,2,0,P|239:148|249:92,1,89.9999972534181,6|8,0:0|0:0,0:0:0:0:
120,58,100508,5,8,0:0:0:0:
29,172,100653,2,0,B|70:158|70:158|116:164,1,89.9999972534181,6|8,0:0|0:0,0:0:0:0:
245,111,100941,1,8,0:0:0:0:
280,268,101085,2,0,P|272:320|265:381,1,89.9999972534181,6|8,0:0|0:0,0:0:0:0:
416,176,101374,5,8,0:0:0:0:
338,96,101518,2,0,B|298:118|298:118|253:121,1,89.9999972534181,6|8,0:0|0:0,0:0:0:0:
267,357,101806,2,0,B|304:337|304:337|355:328,1,89.9999972534181,6|8,0:0|0:0,0:0:0:0:
160,208,102095,6,0,P|166:265|169:313,1,89.9999972534181,14|0,0:0|0:0,0:0:0:0:
267,357,102383,2,0,P|261:300|258:252,1,89.9999972534181,8|0,0:3|0:0,0:0:0:0:
338,96,102672,2,0,P|344:153|347:201,1,89.9999972534181,4|0,0:3|0:0,0:0:0:0:
445,245,102960,1,4,0:3:0:0:
445,245,103105,2,0,P|439:188|436:140,1,89.9999972534181,6|0,0:0|0:0,0:0:0:0:
431,59,103393,5,10,0:0:0:0:
346,185,103537,2,0,B|302:168|302:168|251:176,1,89.9999972534181,10|8,0:0|0:0,0:0:0:0:
183,113,103826,1,10,0:0:0:0:
113,190,103970,1,8,0:0:0:0:
95,99,104114,5,10,0:0:0:0:
189,194,104258,1,8,0:0:0:0:
73,266,104403,2,0,P|71:185|68:87,2,179.999994506836,6|12|12,0:0|0:0|0:0,0:0:0:0:
198,214,105124,1,10,0:0:0:0:
253,336,105268,1,10,0:0:0:0:
365,261,105412,6,0,B|444:303|444:303|506:237,1,179.999994506836,6|8,0:0|0:0,0:0:0:0:
505,237,105773,1,8,0:0:0:0:
505,237,105845,2,0,L|498:189,3,44.999998626709,8|8|8|8,0:0|0:0|0:0|0:0,0:0:0:0:
457,166,106133,2,0,L|450:118,3,44.999998626709,8|8|8|8,0:3|0:3|0:3|0:3,0:0:0:0:
480,88,106422,1,4,0:3:0:0:
477,74,106494,1,4,0:3:0:0:
474,60,106566,1,4,0:3:0:0:
472,46,106638,1,4,0:3:0:0:
466,10,106710,6,0,P|391:22|297:33,1,150,4|8,0:0|0:0,0:0:0:0:
231,44,107143,1,0,0:0:0:0:
276,121,107287,2,0,P|315:116|362:110,1,75,2|0,0:2|0:0,0:0:0:0:
350,111,107576,1,8,0:0:0:0:
241,203,107720,6,0,P|171:185|89:228,1,150,2|0,0:2|0:0,0:0:0:0:
76,253,108081,1,0,0:0:0:0:
76,253,108153,2,0,P|71:204|63:159,1,75,8|0,0:0|0:0,0:0:0:0:
144,83,108441,2,0,P|149:132|157:177,1,75,2|0,0:2|0:0,0:0:0:0:
248,265,108730,2,0,P|211:267|174:272,1,75,8|0,0:0|0:0,0:0:0:0:
84,371,109018,6,0,B|137:358|137:358|179:361|179:361|248:346,1,150,2|8,0:2|0:0,0:0:0:0:
318,374,109451,1,0,0:0:0:0:
367,299,109595,2,0,P|354:246|341:207,1,75,2|0,0:2|0:0,0:0:0:0:
315,142,109883,1,8,0:0:0:0:
244,198,110028,2,0,P|259:236|270:285,1,75,2|0,0:2|0:0,0:0:0:0:
451,240,110316,5,0,0:0:0:0:
451,240,110388,1,0,0:0:0:0:
451,240,110460,2,0,P|438:201|427:163,1,75,8|0,0:0|0:0,0:0:0:0:
388,83,110749,1,2,0:2:0:0:
349,166,110893,1,8,0:0:0:0:
475,95,111037,2,0,P|459:35|448:6,1,75,8|0,0:0|0:0,0:0:0:0:
265,20,111326,6,0,P|264:104|271:196,1,150,2|8,0:2|0:0,0:0:0:0:
350,205,111758,1,0,0:0:0:0:
280,262,111903,2,0,B|243:252|243:252|190:263,1,75,2|0,0:2|0:0,0:0:0:0:
169,341,112191,1,8,0:0:0:0:
110,272,112335,6,0,P|129:194|140:124,1,150,2|0,0:2|0:0,0:0:0:0:
61,80,112768,2,0,P|50:131|46:162,1,75,8|0,0:0|0:0,0:0:0:0:
33,245,113056,1,2,0:2:0:0:
33,245,113201,1,0,0:0:0:0:
161,199,113345,2,0,P|190:209|244:216,1,75,8|0,0:0|0:0,0:0:0:0:
302,273,113633,5,8,0:0:0:0:
229,323,113778,1,0,0:0:0:0:
229,323,113850,1,0,0:0:0:0:
229,323,113922,1,8,0:0:0:0:
302,375,114066,1,0,0:0:0:0:
302,375,114138,1,0,0:0:0:0:
302,375,114210,2,0,P|343:363|396:354,1,75,8|8,0:0|0:0,0:0:0:0:
463,338,114499,5,8,0:0:0:0:
494,254,114643,2,0,B|463:184|463:184|484:111,1,150,4|8,0:0|0:3,0:0:0:0:
483,113,115076,1,4,0:3:0:0:
424,164,115220,1,4,0:3:0:0:
379,100,115364,5,8,0:0:0:0:
351,191,115508,1,8,0:0:0:0:
287,76,115653,1,8,0:0:0:0:
254,207,115797,1,8,0:0:0:0:
191,52,115941,2,0,P|114:69|-2:85,1,179.999994506836,6|10,0:0|0:0,0:0:0:0:
156,222,116374,5,0,0:0:0:0:
227,160,116518,2,0,B|250:219|224:276|247:337,1,179.999994506836,2|10,0:0|0:0,0:0:0:0:
312,384,116951,2,0,P|224:363|124:346,1,179.999994506836,2|2,0:0|0:2,0:0:0:0:
52,328,117383,2,0,B|66:285|66:285|66:238,1,89.9999972534181,10|0,0:0|0:0,0:0:0:0:
166,176,117672,2,0,B|152:219|152:219|152:266,1,89.9999972534181,2|0,0:0|0:0,0:0:0:0:
0,192,117960,2,0,B|14:149|14:149|14:102,1,89.9999972534181,10|0,0:0|0:0,0:0:0:0:
147,83,118249,6,0,L|151:262,1,179.999994506836,6|8,0:0|0:0,0:0:0:0:
155,361,118681,1,2,0:2:0:0:
246,321,118826,2,0,P|245:280|243:232,1,89.9999972534181,2|2,0:0|0:0,0:0:0:0:
239,132,119114,1,8,0:0:0:0:
333,103,119258,2,0,B|337:176|337:176|327:213|327:213|332:293,1,179.999994506836,2|2,0:0|0:0,0:0:0:0:
333,294,119619,1,0,0:0:0:0:
335,307,119691,6,0,P|408:301|450:296,1,89.9999972534181,8|2,0:0|0:0,0:0:0:0:
424,173,119980,1,8,0:0:0:0:
487,236,120124,1,10,0:0:0:0:
488,114,120268,1,10,0:0:0:0:
408,256,120412,1,8,0:0:0:0:
376,96,120556,6,0,P|285:108|196:118,3,179.999994506836,6|10|2|8,0:0|0:0|0:0|0:0,0:0:0:0:
104,82,121566,2,0,P|106:140|115:182,1,89.9999972534181,2|0,0:0|0:0,0:0:0:0:
205,204,121855,1,2,0:0:0:0:
244,113,121999,2,0,P|238:46|234:17,1,89.9999972534181,10|0,0:0|0:0,0:0:0:0:
125,269,122287,5,2,0:0:0:0:
112,171,122431,1,2,0:0:0:0:
34,233,122576,2,0,P|41:297|47:333,1,89.9999972534181,8|0,0:0|0:0,0:0:0:0:
141,370,122864,5,14,0:0:0:0:
236,275,123008,1,0,0:0:0:0:
351,346,123153,2,0,P|360:281|365:234,1,89.9999972534181,10|0,0:0|0:0,0:0:0:0:
339,176,123441,5,10,0:0:0:0:
442,323,123585,1,4,0:3:0:0:
511,156,123730,1,4,0:3:0:0:
362,256,123874,2,0,L|166:267,1,179.999994506836,6|8,0:0|0:0,0:0:0:0:
116,324,124306,5,8,0:0:0:0:
37,183,124451,1,8,0:0:0:0:
114,210,124595,1,8,0:0:0:0:
48,265,124739,5,8,0:0:0:0:
110,116,124883,1,8,0:0:0:0:
222,234,125028,1,8,0:0:0:0:
285,156,125172,6,0,P|284:95|288:-2,2,150,4|8|2,0:0|0:0|0:2,0:0:0:0:
432,224,126037,1,8,0:0:0:0:
432,224,126181,2,0,B|403:293|403:293|424:365,1,150,2|0,0:2|0:0,0:0:0:0:
424,365,126614,2,0,L|509:363,1,75,8|0,0:0|0:0,0:0:0:0:
315,293,126903,2,0,L|230:295,1,75,2|0,0:2|0:0,0:0:0:0:
166,379,127191,1,8,0:0:0:0:
166,379,127335,1,0,0:0:0:0:
79,313,127480,6,0,L|93:221,1,75,2|0,0:2|0:0,0:0:0:0:
185,134,127768,2,0,L|174:226,1,75,8|0,0:0|0:0,0:0:0:0:
240,294,128056,2,0,B|199:287|199:287|144:293,1,75,2|0,0:2|0:0,0:0:0:0:
16,198,128345,1,8,0:0:0:0:
16,198,128489,2,0,B|57:205|57:205|112:199,1,75,2|0,0:2|0:0,0:0:0:0:
135,100,128778,5,0,0:0:0:0:
135,100,128850,1,0,0:0:0:0:
135,100,128922,2,0,L|229:93,1,75,8|0,0:0|0:0,0:0:0:0:
265,170,129210,1,2,0:2:0:0:
360,33,129355,2,0,L|267:42,1,75,8|0,0:0|0:0,0:0:0:0:
336,218,129643,5,8,0:0:0:0:
422,136,129787,2,0,B|419:212|419:212|432:285,1,150,2|8,0:2|0:0,0:0:0:0:
509,330,130220,1,0,0:0:0:0:
433,379,130364,2,0,P|362:372|332:370,1,75,2|0,0:2|0:0,0:0:0:0:
297,305,130653,5,8,0:0:0:0:
229,363,130797,2,0,P|190:370|153:376,1,75,2|0,0:2|0:0,0:0:0:0:
287,213,131085,1,0,0:0:0:0:
385,291,131230,2,0,B|383:249|383:249|391:204,1,75,8|0,0:0|0:0,0:0:0:0:
200,200,131518,6,0,B|201:239|201:239|192:273,1,75,2|0,0:2|0:0,0:0:0:0:
229,363,131806,1,8,0:0:0:0:
229,363,131951,1,0,0:0:0:0:
81,346,132095,2,0,P|83:300|87:250,1,75,2|0,0:2|0:0,0:0:0:0:
77,257,132311,1,0,0:0:0:0:
71,243,132383,2,0,B|82:202|82:202|82:162,1,75,8|0,0:0|0:0,0:0:0:0:
72,67,132672,5,8,0:0:0:0:
0,120,132816,1,8,0:0:0:0:
81,157,132960,1,0,0:0:0:0:
171,57,133105,6,0,P|251:64|338:68,1,150,4|8,0:0|0:3,0:0:0:0:
383,120,133537,1,4,0:3:0:0:
313,164,133681,1,4,0:3:0:0:
402,212,133826,1,8,0:0:0:0:
294,258,133970,1,8,0:0:0:0:
416,323,134114,1,8,0:0:0:0:
271,366,134258,5,8,0:0:0:0:
271,366,134403,2,0,P|188:356|107:350,1,150,6|8,0:0|0:0,0:0:0:0:
121,350,134835,1,0,0:0:0:0:
77,254,134980,2,0,B|115:265|115:265|162:250,1,75,2|0,0:0|0:0,0:0:0:0:
234,226,135268,1,8,0:0:0:0:
167,165,135412,2,0,P|175:128|181:91,1,75,2|0,0:0|0:0,0:0:0:0:
339,200,135701,5,0,0:0:0:0:
423,133,135845,2,0,P|421:96|418:58,1,75,10|0,0:0|0:0,0:0:0:0:
322,220,136133,2,0,P|324:257|327:295,1,75,2|0,0:0|0:0,0:0:0:0:
454,356,136422,1,10,0:0:0:0:
454,356,136566,1,2,0:0:0:0:
502,250,136710,6,0,B|468:262|468:262|428:259,1,75,2|0,0:0|0:0,0:0:0:0:
423,133,136999,2,0,B|384:130|384:130|350:142,1,75,10|0,0:0|0:0,0:0:0:0:
244,246,137287,2,0,P|242:209|242:171,1,75,2|2,0:0|0:0,0:0:0:0:
350,142,137576,1,8,0:0:0:0:
274,58,137720,6,0,B|219:60|219:60|182:79|182:79|127:81,1,150,2|0,0:0|0:0,0:0:0:0:
117,82,138081,1,0,0:0:0:0:
105,83,138153,2,0,P|106:140|107:164,1,75,10|0,0:0|0:0,0:0:0:0:
170,217,138441,1,2,0:0:0:0:
27,198,138585,2,0,P|28:273|30:348,1,150,10|10,0:0|0:0,0:0:0:0:
30,347,139018,6,0,P|86:342|129:337,1,75,6|0,0:0|0:0,0:0:0:0:
186,377,139306,1,10,0:0:0:0:
206,288,139451,1,0,0:0:0:0:
282,335,139595,2,0,P|327:340|359:343,1,75,2|0,0:0|0:0,0:0:0:0:
312,167,139883,5,10,0:0:0:0:
225,192,140028,2,0,P|161:186|66:167,1,150,2|0,0:0|0:0,0:0:0:0:
77,170,140460,2,0,B|85:127|85:127|84:78,1,75,10|0,0:0|0:0,0:0:0:0:
178,30,140749,2,0,B|170:73|170:73|171:122,1,75,2|0,0:0|0:0,0:0:0:0:
225,192,141037,1,10,0:0:0:0:
225,192,141181,1,0,0:0:0:0:
299,101,141326,6,0,P|323:104|358:104,2,50,10|8|8,0:0|0:0|0:0,0:0:0:0:
365,141,141614,2,0,P|390:141|415:144,2,50,8|4|4,0:3|0:3|0:3,0:0:0:0:
437,113,141903,2,0,P|462:116|487:116,2,50,8|8|8,0:0|0:0|0:0,0:0:0:0:
509,154,142191,1,4,0:3:0:0:
440,256,142335,6,0,P|366:252|309:310,1,150,6|0,0:0|0:0,0:0:0:0:
232,232,142768,2,0,P|237:194|241:165,3,37.5,8|8|8|8,0:0|0:0|0:0|0:0,0:0:0:0:
281,167,143056,2,0,P|286:127|288:116,3,37.5,8|8|8|8,0:3|0:3|0:3|0:3,0:0:0:0:
256,94,143345,1,4,0:3:0:0:
245,89,143417,1,4,0:3:0:0:
235,84,143489,1,4,0:3:0:0:
224,79,143561,1,4,0:3:0:0:
213,73,143633,1,4,0:0:0:0:
