osu file format v14

[General]
AudioFilename: audio.mp3
AudioLeadIn: 0
PreviewTime: 127166
Countdown: 0
SampleSet: Drum
StackLeniency: 0.7
Mode: 0
LetterboxInBreaks: 0
WidescreenStoryboard: 1

[Editor]
Bookmarks: 100026,119000,252846
DistanceSpacing: 0.9
BeatDivisor: 4
GridSize: 32
TimelineZoom: 2.999999

[Metadata]
Title:Ontology
TitleUnicode:Ontology
Artist:Shade
ArtistUnicode:Shade
Creator:LMT
Version:Zelq's Extra
Source:鬼畜王ランス
Tags:kichikuou rance arrange collection alicesoft eroge zelq instrumental
BeatmapID:2207682
BeatmapSetID:1050313

[Difficulty]
HPDrainRate:6.5
CircleSize:3.5
OverallDifficulty:8.5
ApproachRate:9.5
SliderMultiplier:1.6
SliderTickRate:1

[Events]
//Background and Video events
0,0,"ontology_bg.jpg",0,0
//Break Periods
2,100291,119013
2,175123,177359
//Storyboard Layer 0 (Background)
//Storyboard Layer 1 (Fail)
//Storyboard Layer 2 (Pass)
//Storyboard Layer 3 (Foreground)
//Storyboard Layer 4 (Overlay)
//Storyboard Sound Samples

[TimingPoints]
30037,256.410256410256,4,3,1,35,1,0
30037,-250.000000000001,4,3,1,35,0,0
44395,-500.000000000005,4,3,1,35,0,0
46960,-500.000000000005,4,3,1,45,0,0
47216,-166.666666666667,4,3,1,45,0,0
47472,-166.666666666667,4,3,1,55,0,0
47857,-111.111111111111,4,3,1,70,0,0
48498,-90.9090909090908,4,3,1,70,0,0
64908,-100,4,3,1,60,0,0
68498,-83.3333333333333,4,3,1,60,0,0
69011,-100,4,3,1,60,0,0
73113,-90.9090909090909,4,3,1,60,0,0
79395,-90.9090909090909,4,3,1,70,0,0
85421,-83.3333333333333,4,3,1,70,0,0
95678,259.74025974026,4,3,1,70,1,0
95678,-111.111111111111,4,3,1,70,0,0
96716,272.727272727273,4,3,1,70,1,0
96716,-125,4,3,1,70,0,0
97806,288.115246098439,4,3,1,70,1,0
99534,303.030303030303,4,3,1,70,1,0
118513,256.410256410256,4,3,1,70,1,0
119025,-100,4,3,1,30,0,0
119282,-100,4,3,1,35,0,0
119538,-250.000000000001,4,3,1,40,0,0
127230,-83.3333333333333,4,3,1,70,0,0
127743,-90.9090909090908,4,3,1,70,0,0
135948,-99.9999999999999,4,3,1,70,0,0
140051,-83.3333333333333,4,3,1,70,0,0
155436,-111.111111111111,4,3,1,70,0,0
157487,-71.4285714285714,4,3,1,70,0,1
158000,-71.4285714285714,4,3,1,70,0,0
158128,-90.9090909090909,4,3,1,70,0,0
158512,-71.4285714285714,4,3,1,70,0,0
160564,-90.9090909090909,4,3,1,70,0,0
164282,-76.9230769230769,4,3,1,70,0,0
164666,-90.9090909090909,4,3,1,70,0,0
172487,-76.9230769230769,4,3,1,70,0,0
172871,-90.9090909090909,4,3,1,70,0,0
178000,-111.111111111111,4,3,1,70,0,0
179025,-90.9090909090909,4,3,1,70,0,0
184795,-76.9230769230769,4,3,1,70,0,0
185179,-90.9090909090909,4,3,1,70,0,0
186718,-76.9230769230769,4,3,1,70,0,0
187230,-90.9090909090909,4,3,1,70,0,0
189282,-100,4,3,1,70,0,0
197102,-76.9230769230769,4,3,1,70,0,0
197487,-90.9090909090909,4,3,1,70,0,0
203641,-142.857142857143,4,3,1,70,0,0
206718,-111.111111111111,4,3,1,70,0,0
209538,-90.9090909090909,4,3,1,70,0,0
209795,-83.3333333333333,4,3,1,70,0,0
248769,-250.000000000001,4,3,1,70,0,0

[Colours]
Combo1 : 202,202,149
Combo2 : 145,200,200
Combo3 : 180,180,180
Combo4 : 128,128,255

[HitObjects]
424,384,30036,5,2,0:2:0:0:
480,328,30165,2,0,L|490:257,2,64,2|2|2,0:2|0:2|0:2,0:0:0:0:
414,381,30806,1,2,0:2:0:0:
345,337,30934,2,0,L|276:329,2,64,2|2|2,0:2|0:2|0:2,0:0:0:0:
404,283,31575,1,0,0:0:0:0:
404,283,31703,1,2,0:2:0:0:
340,226,31831,2,0,L|296:235,1,32,2|0,0:2|0:0,0:0:0:0:
421,184,32088,5,2,0:2:0:0:
421,184,32601,2,0,P|450:159|451:72,2,128,2|4|0,0:2|0:2|0:0,0:0:0:0:
342,148,33754,1,2,0:2:0:0:
342,148,33883,2,0,L|308:139,1,32,2|0,0:2|0:2,0:0:0:0:
245,72,34139,5,2,0:2:0:0:
177,117,34267,2,0,L|169:192,2,64,2|2|2,0:2|0:2|0:2,0:0:0:0:
248,66,34908,2,0,L|243:26,2,32,2|0|2,0:2|0:0|0:2,0:0:0:0:
166,28,35293,2,0,L|97:21,1,64,2|2,0:2|0:2,0:0:0:0:
16,185,35806,1,2,0:2:0:0:
39,117,35934,1,2,0:2:0:0:
108,137,36062,1,0,0:0:0:0:
87,207,36190,5,2,0:2:0:0:
87,207,36703,2,0,P|101:237|73:332,2,128,2|4|0,0:2|0:2|0:0,0:0:0:0:
119,126,37857,2,0,L|113:87,2,32,2|2|0,0:2|0:2|0:2,0:0:0:0:
188,196,38242,5,2,0:2:0:0:
188,196,38370,2,0,L|263:182,2,64,2|2|2,0:2|0:2|0:2,0:0:0:0:
129,270,39011,1,2,0:2:0:0:
129,270,39139,2,0,L|54:261,2,64,2|2|2,0:2|0:2|0:2,0:0:0:0:
208,354,39780,1,0,0:0:0:0:
208,354,39908,2,0,L|204:317,1,32,2|2,0:2|0:2,0:0:0:0:
282,287,40165,1,0,0:0:0:0:
361,339,40293,5,2,0:2:0:0:
361,339,40806,2,0,P|406:350|483:314,2,128,2|4|0,0:2|0:2|0:0,0:0:0:0:
361,339,42344,5,2,0:2:0:0:
361,339,42472,2,0,L|292:346,2,64,2|2|2,0:2|0:2|0:2,0:0:0:0:
402,274,43113,1,2,0:2:0:0:
402,274,43242,1,0,0:0:0:0:
335,223,43370,1,2,0:2:0:0:
335,223,43498,2,0,L|342:121,1,96,2|0,0:2|0:0,0:0:0:0:
327,54,44011,1,2,0:2:0:0:
399,35,44139,1,2,0:2:0:0:
418,109,44267,1,0,0:0:0:0:
250,10,44395,6,0,B|186:15|186:15|148:64|148:64|121:24|68:-19|14:50|33:89|78:90,1,320,4|0,0:3|0:0,0:0:0:0:
148,154,47131,5,0,0:0:0:0:
148,154,47216,2,0,P|163:153|179:150,2,31.9999990234375
213,221,47472,2,0,P|226:212|238:202,2,31.9999990234375
306,243,47729,1,0,0:0:0:0:
400,173,47857,2,0,L|387:119,2,35.9999989013672,0|0|0,1:0|1:0|1:0,0:0:0:0:
459,265,48113,6,0,B|356:270|423:329|281:342,1,179.999994506836,4|0,0:3|0:0,0:0:0:0:
215,384,48498,6,0,P|217:340|206:297,1,88.000002685547,4|0,0:1|1:0,0:0:0:0:
116,232,48754,1,0,0:0:0:0:
51,326,48883,2,0,P|80:243|59:159,1,176.000005371094,4|0,0:3|1:0,0:0:0:0:
18,78,49203,1,0,1:0:0:0:
18,78,49267,1,0,1:0:0:0:
200,39,49395,2,0,B|203:74|190:104|190:104|209:137|209:137|193:165|195:206,1,176.000005371094,0|4,1:0|0:3,0:0:0:0:
108,55,49780,1,0,1:0:0:0:
288,97,49908,2,0,P|374:89|402:-19,1,176.000005371094,4|0,0:3|1:0,0:0:0:0:
400,203,50293,1,4,0:3:0:0:
323,20,50421,1,0,1:0:0:0:
287,195,50549,6,0,P|287:257|309:299,1,88.000002685547,4|0,0:1|1:0,0:0:0:0:
400,203,50806,1,0,0:3:0:0:
449,341,50934,2,0,B|339:331|397:383|260:385,1,176.000005371094,4|0,0:3|1:0,0:0:0:0:
201,322,51254,1,0,1:0:0:0:
201,322,51319,1,0,1:0:0:0:
0,337,51447,2,0,B|16:382|80:368|80:368|87:290|43:316|36:209,1,264.000008056641,4|0,1:0|1:0,0:0:0:0:
38,94,51960,1,4,0:1:0:0:
124,216,52088,6,0,P|124:189|130:151,1,44.0000013427735,0|0,1:0|0:0,0:0:0:0:
195,129,52216,2,0,P|199:108|205:87,1,44.0000013427735,4|4,0:3|0:3,0:0:0:0:
258,233,52344,6,0,P|253:206|252:167,1,44.0000013427735,0|0,1:0|0:0,0:0:0:0:
312,132,52472,2,0,P|311:110|314:89,1,44.0000013427735,4|4,0:3|0:3,0:0:0:0:
371,237,52601,5,4,0:1:0:0:
446,137,52729,2,0,P|433:88|313:81,2,176.000005371094,0|4|0,1:0|0:3|1:0,0:0:0:0:
486,221,53306,1,0,1:0:0:0:
486,221,53370,1,0,1:0:0:0:
383,338,53498,2,0,B|324:335|324:335|275:361|275:361|213:356,1,176.000005371094,0|4,1:0|0:3,0:0:0:0:
54,255,53883,1,0,1:0:0:0:
116,382,54011,1,4,0:3:0:0:
189,249,54139,1,0,0:0:0:0:
189,249,54267,2,0,L|206:154,2,88.000002685547,0|4|0,1:0|0:3|1:0,0:0:0:0:
49,293,54652,5,0,1:0:0:0:
29,271,54737,1,4,0:3:0:0:
26,241,54823,1,4,0:3:0:0:
77,172,54908,5,0,1:0:0:0:
106,166,54993,1,4,0:3:0:0:
133,178,55079,1,4,0:3:0:0:
189,249,55165,6,0,L|255:258,2,58.6666684570313,0|4|4,1:0|0:3|0:3,0:0:0:0:
127,167,55421,6,0,P|130:103|275:155,1,234.666673828125,0|0,1:0|1:0,0:0:0:0:
353,103,55848,1,0,1:0:0:0:
368,88,55934,2,0,L|359:-6,1,88.000002685547,0|0,1:0|0:0,0:0:0:0:
512,198,56190,1,0,1:0:0:0:
487,216,56254,1,0,1:0:0:0:
459,229,56319,1,0,1:0:0:0:
428,229,56383,1,0,1:0:0:0:
398,219,56447,2,0,L|391:165,2,44.0000013427735,8|8|4,0:3|0:3|0:3,0:0:0:0:
469,361,56703,6,0,B|446:318|446:318|317:303,1,176.000005371094,4|0,0:1|0:0,0:0:0:0:
171,384,57088,2,0,P|187:337|165:234,1,132.00000402832,4|0,0:3|0:0,0:0:0:0:
127,184,57344,1,0,1:0:0:0:
127,184,57408,1,0,1:0:0:0:
127,184,57472,1,0,1:0:0:0:
301,92,57601,2,0,B|337:106|338:167|338:167|286:187|227:156,1,176.000005371094,0|4,1:0|0:3,0:0:0:0:
85,97,57985,2,0,P|40:98|-4:114,1,88.000002685547,0|4,1:0|0:3,0:0:0:0:
212,57,58242,1,4,0:3:0:0:
212,57,58370,1,0,1:0:0:0:
15,0,58498,1,4,0:3:0:0:
15,0,58626,1,0,1:0:0:0:
66,200,58754,6,0,P|76:248|78:308,1,88.000002685547,4|0,0:1|1:0,0:0:0:0:
168,171,59011,1,0,0:0:0:0:
273,289,59139,2,0,L|453:311,1,176.000005371094,4|0,0:3|1:0,0:0:0:0:
512,384,59460,1,0,1:0:0:0:
512,384,59524,1,0,1:0:0:0:
467,139,59652,2,0,B|516:170|516:170|414:183|414:183|386:167|386:167|312:175,1,264.000008056641,4|0,1:0|1:0,0:0:0:0:
112,136,60165,1,4,0:1:0:0:
211,14,60293,6,0,L|277:21,1,44.0000013427735,0|0,1:0|1:0,0:0:0:0:
224,29,60421,2,0,L|285:35,1,44.0000013427735,4|4,0:3|0:3,0:0:0:0:
81,52,60549,6,0,L|15:59,1,44.0000013427735,0|0,1:0|1:0,0:0:0:0:
68,67,60677,2,0,L|7:73,1,44.0000013427735,0|0,1:0|1:0,0:0:0:0:
221,174,60806,6,0,P|240:213|247:256,1,88.000002685547,4|0,0:3|1:0,0:0:0:0:
127,376,61062,1,4,0:3:0:0:
26,157,61190,2,0,P|6:196|0:239,1,88.000002685547,4|0,0:3|1:0,0:0:0:0:
120,359,61446,1,4,0:3:0:0:
120,359,61511,1,4,0:3:0:0:
120,359,61575,1,0,1:0:0:0:
254,271,61703,2,0,L|373:285,1,88.000002685547,4|4,0:3|0:3,0:0:0:0:
463,384,61960,6,0,P|445:320|457:256,1,132.00000402832,0|0,1:0|0:3,0:0:0:0:
496,165,62216,1,0,1:0:0:0:
508,137,62280,1,0,1:0:0:0:
512,106,62344,1,4,0:3:0:0:
506,75,62408,1,4,0:3:0:0:
488,49,62472,1,4,0:3:0:0:
462,31,62536,1,4,0:3:0:0:
431,24,62601,2,0,P|416:65|428:123,1,88.000002685547,4|4,0:3|0:3,0:0:0:0:
330,159,62793,1,4,0:3:0:0:
330,159,62857,2,0,L|263:142,1,44.0000013427735,4|0,1:0|0:0,0:0:0:0:
338,0,62985,6,0,L|348:39,1,22.0000006713867,0|0,1:0|0:0,0:0:0:0:
329,3,63242,2,0,L|339:42,1,22.0000006713867,0|0,1:0|0:0,0:0:0:0:
319,5,63498,2,0,L|329:44,1,22.0000006713867,0|0,1:0|0:0,0:0:0:0:
310,8,63755,2,0,L|320:47,1,22.0000006713867,0|0,1:0|0:0,0:0:0:0:
303,9,64011,2,0,L|313:48,1,22.0000006713867,0|0,1:0|0:0,0:0:0:0:
294,12,64268,2,0,L|304:51,1,22.0000006713867,4|0,1:0|0:0,0:0:0:0:
107,92,64524,6,0,B|111:64|147:46|147:46|196:123|158:210,1,220.000006713867,0|0,1:0|0:3,0:0:0:0:
108,267,64908,5,4,1:0:0:0:
21,160,65036,1,0,0:0:0:0:
1,340,65165,1,0,1:0:0:0:
119,283,65293,2,0,P|157:271|196:277,1,80,4|0,0:3|0:0,0:0:0:0:
309,357,65549,1,0,0:0:0:0:
309,357,65613,1,0,0:0:0:0:
309,357,65678,1,0,1:0:0:0:
428,311,65806,1,0,0:0:0:0:
283,209,65934,5,4,0:3:0:0:
264,203,66062,1,0,0:0:0:0:
459,144,66190,1,0,1:0:0:0:
476,139,66318,1,4,0:3:0:0:
262,50,66447,2,0,L|208:38,4,40,2|2|2|0|4,0:2|0:2|1:2|0:0|0:3,0:0:0:0:
391,205,66831,1,0,0:0:0:0:
463,38,66960,6,0,L|375:29,1,80,4|0,0:3|0:0,0:0:0:0:
241,129,67216,1,0,1:0:0:0:
44,35,67344,6,0,L|132:26,1,80,4|0,0:3|0:0,0:0:0:0:
267,126,67601,2,0,L|316:135,2,40,0|0|0,0:0|0:0|1:0,0:0:0:0:
155,234,67857,1,0,0:0:0:0:
0,192,67985,6,0,B|-10:153|-10:153|9:115,1,80,4|0,0:3|0:0,0:0:0:0:
164,138,68242,2,0,B|174:177|174:177|155:215,1,80,0|0,1:0|0:0,0:0:0:0:
3,335,68498,2,0,B|37:320|81:337|81:337|106:325|106:325|145:348|201:325,1,191.999994140625,0|8,1:0|0:0,0:0:0:0:
313,187,68883,1,8,0:0:0:0:
400,338,69011,6,0,L|502:324,1,80,4|0,1:0|0:0,0:0:0:0:
285,291,69267,1,0,1:0:0:0:
428,140,69395,2,0,L|530:154,1,80,4|0,0:3|0:0,0:0:0:0:
313,187,69651,1,0,0:0:0:0:
304,186,69716,1,0,0:0:0:0:
296,185,69780,1,0,1:0:0:0:
427,241,69908,1,0,0:0:0:0:
345,102,70036,6,0,P|349:63|361:25,1,80,4|0,0:3|0:0,0:0:0:0:
182,55,70293,2,0,P|194:92|197:132,1,80,0|4,1:0|0:3,0:0:0:0:
89,217,70549,2,0,L|31:210,4,40,2|2|2|0|4,0:2|0:2|1:2|0:0|0:3,0:0:0:0:
257,281,70934,1,0,0:0:0:0:
65,320,71062,5,4,0:3:0:0:
65,320,71126,1,4,0:3:0:0:
65,320,71190,1,4,0:3:0:0:
89,217,71319,1,0,1:0:0:0:
172,334,71447,6,0,L|177:373,2,40,4|4|0,0:3|0:3|1:0,0:0:0:0:
228,199,71703,1,4,0:3:0:0:
228,199,71767,1,4,0:3:0:0:
228,199,71831,2,0,P|280:196|341:267,1,120,0|0,1:0|0:0,0:0:0:0:
350,346,72088,5,0,1:0:0:0:
423,375,72173,1,0,1:0:0:0:
488,328,72259,1,0,1:0:0:0:
480,249,72344,2,0,P|454:191|451:124,1,120,0|0,1:0|0:0,0:0:0:0:
500,32,72601,5,0,1:0:0:0:
474,42,72665,1,0,1:0:0:0:
446,42,72729,1,0,1:0:0:0:
418,36,72793,1,0,1:0:0:0:
391,23,72857,2,0,P|352:19|313:27,1,80,4|4,1:3|0:3,0:0:0:0:
303,214,73113,6,0,P|326:181|338:134,1,88.000002685547,4|0,1:0|0:0,0:0:0:0:
306,40,73370,1,0,1:0:0:0:
187,39,73498,2,0,P|203:75|237:114,1,88.000002685547,4|0,0:3|0:0,0:0:0:0:
159,219,73754,1,4,0:3:0:0:
159,219,73819,1,4,0:3:0:0:
159,219,73883,1,0,1:0:0:0:
66,118,74011,1,0,0:0:0:0:
25,285,74139,6,0,L|12:197,1,88.000002685547,4|2,0:3|0:2,0:0:0:0:
156,315,74395,2,0,L|168:227,1,88.000002685547,0|4,1:0|0:3,0:0:0:0:
0,379,74652,2,0,B|35:369|35:369|50:373|50:373|84:362,1,88.000002685547,4|0,0:3|1:0,0:0:0:0:
258,352,74908,1,4,0:3:0:0:
138,306,75036,1,0,1:3:0:0:
273,192,75165,5,4,0:3:0:0:
247,334,75293,1,0,0:0:0:0:
203,144,75421,1,0,1:0:0:0:
312,277,75549,5,4,0:3:0:0:
388,176,75677,1,0,0:0:0:0:
406,322,75806,2,0,L|413:381,2,44.0000013427735,4|4|0,0:3|0:3|1:0,0:0:0:0:
288,187,76062,1,0,0:0:0:0:
471,118,76190,6,0,P|477:74|474:30,1,88.000002685547,4|2,0:3|0:2,0:0:0:0:
321,23,76447,2,0,P|314:66|317:110,1,88.000002685547,0|4,1:3|0:3,0:0:0:0:
442,217,76703,1,0,1:0:0:0:
442,217,76767,1,0,1:0:0:0:
442,217,76831,1,0,1:0:0:0:
312,277,76960,2,0,L|220:257,1,88.000002685547,4|0,0:3|1:0,0:0:0:0:
23,321,77216,5,4,1:0:0:0:
111,197,77344,1,4,0:3:0:0:
148,373,77472,1,4,0:3:0:0:
20,178,77601,5,0,1:0:0:0:
106,300,77729,1,4,0:3:0:0:
192,145,77857,2,0,L|249:156,2,44.0000013427735,4|4|0,0:3|0:3|1:0,0:0:0:0:
50,51,78113,1,4,0:3:0:0:
117,212,78242,5,0,0:0:0:0:
179,58,78370,2,0,P|218:40|335:128,1,176.000005371094,0|0,1:0|0:0,0:0:0:0:
385,244,78754,2,0,L|377:299,2,44.0000013427735,0|0|0,1:0|1:0|1:0,0:0:0:0:
457,183,78947,1,0,1:0:0:0:
457,183,79011,2,0,L|466:125,2,44.0000013427735,4|4|4,0:3|0:3|0:3,0:0:0:0:
494,371,79267,1,4,1:0:0:0:
306,337,79395,6,0,L|274:343,1,22.0000006713867,0|0,1:0|0:0,0:0:0:0:
300,326,79652,2,0,L|268:332,1,22.0000006713867,0|0,1:0|0:0,0:0:0:0:
294,312,79908,2,0,L|262:318,1,22.0000006713867,0|0,1:0|0:0,0:0:0:0:
288,301,80165,2,0,L|256:307,1,22.0000006713867,0|0,1:0|0:0,0:0:0:0:
284,291,80421,2,0,L|252:297,1,22.0000006713867,0|0,1:0|0:0,0:0:0:0:
278,280,80678,2,0,L|246:286,1,22.0000006713867,4|0,1:0|0:0,0:0:0:0:
46,365,80934,5,0,1:0:0:0:
65,341,80998,1,0,1:0:0:0:
78,313,81062,1,0,1:3:0:0:
80,282,81126,1,0,1:3:0:0:
74,251,81190,1,0,1:3:0:0:
59,224,81254,1,0,1:3:0:0:
36,202,81319,6,0,B|-12:126|32:36|32:36|117:16|117:16|93:85|77:171|146:177|240:165|199:60,1,528.000016113282,4|0,1:0|1:0,0:0:0:0:
264,18,82152,1,0,1:0:0:0:
264,18,82216,1,4,0:3:0:0:
341,184,82344,5,0,1:3:0:0:
486,34,82472,2,0,L|398:27,1,88.000002685547,4|0,0:3|0:0,0:0:0:0:
424,224,82729,2,0,P|435:182|423:140,1,88.000002685547,4|0,0:3|0:0,0:0:0:0:
277,266,82985,2,0,L|269:377,2,88.000002685547,0|4|0,1:0|0:3|1:0,0:0:0:0:
150,188,83370,6,0,B|63:169|63:169|27:205|32:248|32:248|127:268,1,264.000008056641,4|4,1:1|0:3,0:0:0:0:
273,181,83883,1,4,0:3:0:0:
189,334,84011,1,4,0:3:0:0:
189,334,84075,1,4,0:3:0:0:
189,334,84139,1,0,1:0:0:0:
150,188,84267,1,0,0:0:0:0:
339,282,84395,5,4,0:3:0:0:
278,87,84524,1,4,0:3:0:0:
201,250,84652,1,0,1:0:0:0:
364,143,84780,1,4,0:3:0:0:
185,45,84908,6,0,L|129:57,1,44.0000013427735,0|0,1:0|1:0,0:0:0:0:
175,30,85036,2,0,L|119:42,1,44.0000013427735,4|0,0:3|0:0,0:0:0:0:
358,16,85165,6,0,L|414:28,1,44.0000013427735,0|0,1:0|0:0,0:0:0:0:
368,0,85293,2,0,L|424:12,1,44.0000013427735,4|0,0:3|0:0,0:0:0:0:
219,155,85421,6,0,B|155:167|155:167|103:139|103:139|36:151,1,191.999994140625,4|0,1:0|0:0,0:0:0:0:
71,333,85806,2,0,L|86:238,1,95.9999970703126,4|0,0:3|0:0,0:0:0:0:
35,65,86062,1,4,0:3:0:0:
35,65,86126,1,4,0:3:0:0:
35,65,86190,1,0,1:0:0:0:
219,155,86319,2,0,P|297:122|253:50,1,191.999994140625,4|4,1:0|0:3,0:0:0:0:
118,145,86703,1,0,1:0:0:0:
228,245,86831,2,0,L|351:222,1,95.9999970703126,4|0,0:3|0:0,0:0:0:0:
455,187,87088,1,4,0:3:0:0:
327,117,87216,1,0,1:0:0:0:
480,72,87344,1,4,0:3:0:0:
429,268,87472,6,0,L|481:278,2,47.9999985351563,0|4|4,1:0|0:3|0:3,0:0:0:0:
228,245,87729,1,4,0:3:0:0:
386,357,87857,2,0,L|438:367,2,47.9999985351563,4|4|0,0:3|0:3|1:0,0:0:0:0:
192,342,88113,1,4,0:3:0:0:
192,342,88178,1,4,0:3:0:0:
192,342,88242,1,0,1:0:0:0:
339,231,88370,2,0,B|396:200|378:116|290:114|275:176|275:176|219:142|156:191,1,287.999991210938,4|0,0:3|1:0,0:0:0:0:
20,277,88883,1,4,0:3:0:0:
99,128,89011,1,0,1:0:0:0:
99,128,89075,1,0,1:0:0:0:
99,128,89139,1,4,0:3:0:0:
177,255,89267,2,0,L|166:350,1,95.9999970703126,0|4,1:0|0:3,0:0:0:0:
32,197,89524,5,0,1:0:0:0:
62,366,89652,1,0,1:0:0:0:
469,16,90036,5,0,1:0:0:0:
439,185,90164,1,0,1:0:0:0:
32,197,90549,5,0,1:0:0:0:
136,180,90677,1,0,1:0:0:0:
439,185,91062,5,0,1:0:0:0:
335,168,91190,1,0,1:0:0:0:
310,42,91447,5,0,0:0:0:0:
310,42,91575,1,0,1:0:0:0:
310,42,91703,1,4,0:3:0:0:
215,12,91960,5,4,0:3:0:0:
117,46,92216,5,4,0:3:0:0:
45,133,92472,5,4,0:3:0:0:
40,260,92729,5,4,0:3:0:0:
156,383,92985,5,4,0:3:0:0:
243,280,93113,2,0,L|133:299,1,95.9999970703126,0|4,1:0|0:3,0:0:0:0:
306,208,93370,1,0,1:0:0:0:
332,230,93434,1,0,1:0:0:0:
345,262,93498,1,0,1:0:0:0:
345,296,93562,1,0,1:0:0:0:
329,326,93626,5,4,1:0:0:0:
438,271,93754,2,0,L|456:368,1,95.9999970703126,0|4,1:0|0:3,0:0:0:0:
306,208,94011,5,0,1:0:0:0:
454,267,94139,2,0,L|472:364,1,95.9999970703126,0|4,1:0|0:3,0:0:0:0:
351,96,94395,5,0,1:0:0:0:
471,264,94524,2,0,L|489:361,1,95.9999970703126,0|4,1:0|0:3,0:0:0:0:
467,28,94780,5,0,1:0:0:0:
487,260,94908,2,0,L|505:357,1,95.9999970703126,0|4,1:0|0:3,0:0:0:0:
306,208,95165,6,0,P|259:197|211:201,1,95.9999970703126,0|0,1:0|1:0,0:0:0:0:
95,310,95421,5,4,1:3:0:0:
31,265,95507,1,0,1:0:0:0:
15,191,95592,1,0,1:0:0:0:
50,117,95678,5,4,0:3:0:0:
60,115,95742,1,4,0:3:0:0:
70,113,95807,1,4,0:3:0:0:
80,112,95872,1,4,0:3:0:0:
90,110,95937,2,0,L|168:124,1,71.9999978027344,0|0,1:0|1:0,0:0:0:0:
0,7,96197,5,4,0:3:0:0:
10,9,96261,1,4,0:3:0:0:
20,11,96326,1,4,0:3:0:0:
30,12,96391,1,4,0:3:0:0:
40,14,96457,2,0,L|119:-2,1,71.9999978027344,0|0,1:0|1:0,0:0:0:0:
164,66,96716,5,0,1:0:0:0:
200,55,96806,1,0,1:0:0:0:
237,60,96897,1,0,1:0:0:0:
298,121,96988,5,0,1:0:0:0:
334,132,97078,1,0,1:0:0:0:
371,127,97169,1,0,1:0:0:0:
448,85,97261,6,0,L|458:-5,2,64,0|4|0,1:0|0:3|0:0,0:0:0:0:
502,204,97670,5,0,1:0:0:0:
502,204,97738,1,0,1:0:0:0:
502,204,97806,1,4,0:3:0:0:
332,233,99534,5,0,1:0:0:0:
215,269,99685,1,0,1:0:0:0:
182,150,99837,1,0,1:0:0:0:
299,114,99988,1,0,1:0:0:0:
186,52,119538,5,2,0:2:0:0:
186,52,119666,2,0,L|257:42,2,64,2|2|2,0:2|0:2|0:2,0:0:0:0:
97,110,120307,1,0,0:0:0:0:
97,110,120435,2,0,L|26:100,2,64,2|2|2,0:2|0:2|0:2,0:0:0:0:
192,173,121077,2,0,L|201:245,1,64,0|2,0:0|0:2,0:0:0:0:
112,227,121461,1,0,0:0:0:0:
41,302,121589,5,2,0:2:0:0:
41,302,121718,2,0,L|31:368,2,64,2|2|2,0:2|0:2|0:2,0:0:0:0:
114,236,122359,1,2,0:2:0:0:
176,313,122487,1,0,0:0:0:0:
176,313,122615,1,2,0:2:0:0:
262,267,122743,2,0,L|338:284,1,64,2|2,0:2|0:2,0:0:0:0:
409,355,123128,2,0,L|420:287,1,64,0|0,0:0|0:0,0:0:0:0:
511,253,123512,1,2,0:2:0:0:
511,253,123641,6,0,P|486:198|484:162,2,96,2|0|0,0:2|0:0|0:0,0:0:0:0:
403,217,124538,1,0,0:0:0:0:
317,258,124666,2,0,P|322:218|321:188,2,64,2|2|2,0:2|0:2|0:2,0:0:0:0:
237,229,125307,1,0,0:0:0:0:
207,152,125436,1,0,0:0:0:0:
271,98,125564,1,0,0:0:0:0:
358,114,125692,6,0,P|399:114|462:58,2,128,2|2|2,0:2|0:2|0:2,0:0:0:0:
208,42,126974,5,0,1:0:0:0:
184,35,127038,1,0,1:0:0:0:
160,35,127102,1,0,1:0:0:0:
136,40,127166,1,0,1:0:0:0:
114,50,127230,2,0,L|100:-8,1,47.9999985351563,4|0,1:0|0:0,0:0:0:0:
0,210,127359,6,0,P|77:187|35:305,1,239.999992675781,4|0,0:3|0:0,0:0:0:0:
1,192,127743,6,0,L|19:89,1,88.000002685547,4|0,1:0|0:0,0:0:0:0:
200,191,128000,1,4,0:3:0:0:
81,0,128128,1,0,1:3:0:0:
278,89,128256,2,0,L|344:79,2,44.0000013427735,4|4|4,0:3|0:3|1:3,0:0:0:0:
59,111,128512,2,0,L|-7:101,2,44.0000013427735,4|4|4,0:3|0:3|1:3,0:0:0:0:
269,305,128769,6,0,P|278:222|207:178,1,176.000005371094,4|2,1:0|0:2,0:0:0:0:
358,192,129111,1,2,0:2:0:0:
425,136,129196,1,2,0:2:0:0:
418,47,129282,2,0,L|408:147,1,88.000002685547,0|0,1:2|1:0,0:0:0:0:
406,348,129538,1,4,0:3:0:0:
370,330,129602,1,4,0:3:0:0:
330,325,129666,1,4,0:3:0:0:
290,329,129730,1,4,0:3:0:0:
255,348,129795,5,4,1:0:0:0:
139,200,129923,1,4,0:3:0:0:
3,374,130051,1,0,1:0:0:0:
174,289,130179,1,4,0:3:0:0:
27,153,130307,5,0,1:0:0:0:
20,113,130393,1,0,1:0:0:0:
30,74,130478,1,0,1:0:0:0:
56,44,130564,2,0,L|172:57,1,88.000002685547,2|0,1:2|1:0,0:0:0:0:
394,147,130820,6,0,P|437:117|377:109,1,132.00000402832,4|0,1:0|0:0,0:0:0:0:
324,204,131077,2,0,P|284:221|209:192,1,88.000002685547,4|4,0:3|0:3,0:0:0:0:
144,54,131333,2,0,B|200:13|288:42|276:132|276:132|259:85|230:79,1,264.000008056641,0|4,1:0|0:3,0:0:0:0:
167,134,131782,5,4,0:3:0:0:
167,134,131846,2,0,P|143:182|136:243,1,88.000002685547,4|0,1:0|0:0,0:0:0:0:
210,370,132102,1,4,0:3:0:0:
92,315,132230,2,0,P|45:298|-10:300,1,88.000002685547,0|0,1:0|0:0,0:0:0:0:
221,286,132487,2,0,L|284:278,1,44.0000013427735,0|0,1:0|0:0,0:0:0:0:
343,269,132615,2,0,L|406:261,1,44.0000013427735,4|0,0:3|0:0,0:0:0:0:
465,252,132743,2,0,L|528:244,1,44.0000013427735,0|0,1:0|0:0,0:0:0:0:
405,347,132871,5,4,1:0:0:0:
343,269,133000,2,0,L|320:87,1,176.000005371094,0|0,1:0|1:0,0:0:0:0:
436,6,133384,1,4,0:3:0:0:
451,152,133512,2,0,P|369:163|321:95,1,176.000005371094,0|0,1:0|1:0,0:0:0:0:
126,41,133897,5,0,1:0:0:0:
134,38,133961,1,0,1:0:0:0:
142,36,134025,1,0,1:0:0:0:
150,35,134089,1,0,1:0:0:0:
158,34,134154,1,4,0:3:0:0:
166,34,134218,1,4,0:3:0:0:
174,34,134282,1,4,0:3:0:0:
182,34,134346,1,4,0:3:0:0:
190,35,134410,5,0,1:0:0:0:
200,59,134474,1,0,1:0:0:0:
204,84,134538,1,0,1:0:0:0:
199,109,134602,1,0,1:0:0:0:
187,132,134666,2,0,L|136:147,1,44.0000013427735,4|4,0:3|0:3,0:0:0:0:
57,206,134795,2,0,L|6:191,1,44.0000013427735,4|4,0:3|0:3,0:0:0:0:
181,242,134923,6,0,L|232:227,1,44.0000013427735,0|0,1:0|1:0,0:0:0:0:
84,360,135051,2,0,P|39:288|78:214,1,176.000005371094,0|0,1:0|1:0,0:0:0:0:
281,353,135436,5,0,1:0:0:0:
306,360,135500,1,4,0:3:0:0:
332,360,135564,1,4,0:3:0:0:
358,356,135628,1,4,0:3:0:0:
382,346,135692,5,4,0:3:0:0:
361,307,135756,1,4,0:3:0:0:
359,263,135820,1,4,0:3:0:0:
372,221,135884,1,4,0:3:0:0:
402,192,135948,6,0,B|518:116|438:-38|274:11|289:131|289:131|309:67|375:68,1,480,4|0,1:0|1:0,0:0:0:0:
474,117,136782,1,0,1:0:0:0:
474,117,136846,1,4,0:3:0:0:
311,0,136974,5,0,1:0:0:0:
207,98,137102,2,0,P|169:127|111:129,1,80,4|0,0:3|0:0,0:0:0:0:
11,0,137359,2,0,P|48:12|76:41,1,80,4|0,0:3|0:0,0:0:0:0:
31,222,137615,2,0,P|23:183|33:144,2,80,0|4|0,1:0|0:3|1:0,0:0:0:0:
137,340,138000,6,0,L|259:355,1,120,4|0,1:0|0:0,0:0:0:0:
346,365,138256,2,0,L|332:272,1,80,0|4,1:0|0:3,0:0:0:0:
207,169,138512,2,0,P|243:184|283:185,1,80,4|4,0:3|0:3,0:0:0:0:
340,129,138705,1,4,0:3:0:0:
340,129,138769,2,0,L|398:121,1,40,0|0,1:0|0:0,0:0:0:0:
445,277,138897,1,0,0:0:0:0:
473,56,139025,5,4,0:3:0:0:
375,209,139154,1,4,0:3:0:0:
296,33,139282,1,0,1:0:0:0:
457,167,139410,1,4,0:3:0:0:
242,128,139538,6,0,P|222:138|205:153,1,40,0|0,1:0|1:0,0:0:0:0:
246,136,139666,2,0,P|228:149|213:167,1,40,4|0,0:3|0:0,0:0:0:0:
324,335,139795,6,0,P|344:325|361:310,1,40,0|0,1:0|1:0,0:0:0:0:
320,326,139923,2,0,P|337:312|352:294,1,40,4|0,0:3|0:0,0:0:0:0:
137,285,140051,6,0,B|46:308|46:308|1:268|19:200,1,191.999994140625,4|0,1:1|1:0,0:0:0:0:
128,29,140436,2,0,P|82:42|35:33,1,95.9999970703126,4|0,0:3|0:0,0:0:0:0:
139,190,140692,1,4,0:3:0:0:
139,190,140756,1,4,0:3:0:0:
139,190,140820,1,0,1:0:0:0:
280,48,140948,2,0,P|325:34|435:118,1,191.999994140625,4|4,1:0|0:3,0:0:0:0:
379,307,141333,1,0,1:0:0:0:
512,199,141461,2,0,P|465:189|420:205,1,95.9999970703126,4|0,0:3|0:0,0:0:0:0:
277,363,141718,1,0,1:0:0:0:
335,140,141846,1,4,0:3:0:0:
471,286,141974,1,0,1:0:0:0:
247,214,142102,5,4,1:0:0:0:
247,214,142166,1,0,0:0:0:0:
247,214,142230,2,0,B|171:208|171:208|139:228|139:228|51:220,1,191.999994140625,4|4,0:3|0:3,0:0:0:0:
7,155,142551,1,4,0:3:0:0:
7,155,142615,1,0,1:0:0:0:
72,340,142743,1,4,0:3:0:0:
72,340,142807,1,4,0:3:0:0:
72,340,142871,1,0,1:0:0:0:
271,309,143000,2,0,P|325:263|337:194,1,143.999995605469,4|0,0:3|0:0,0:0:0:0:
295,125,143256,2,0,L|183:110,1,95.9999970703126,0|0,1:0|0:3,0:0:0:0:
65,17,143512,1,4,0:3:0:0:
14,241,143641,2,0,L|109:228,1,95.9999970703126,0|0,1:0|0:0,0:0:0:0:
295,125,143897,1,4,0:3:0:0:
295,125,143961,1,0,0:0:0:0:
295,125,144025,1,0,1:0:0:0:
433,329,144154,5,4,1:0:0:0:
229,363,144282,1,0,1:0:0:0:
78,0,144666,5,0,1:0:0:0:
282,34,144794,1,0,1:0:0:0:
26,307,145179,5,0,1:0:0:0:
8,194,145307,1,0,1:0:0:0:
486,77,145692,5,0,1:0:0:0:
504,190,145820,1,0,1:0:0:0:
340,317,146077,5,4,0:3:0:0:
340,317,146205,1,0,1:0:0:0:
340,317,146333,1,4,0:3:0:0:
242,354,146589,5,4,0:3:0:0:
145,318,146846,5,4,0:3:0:0:
104,219,147102,5,4,0:3:0:0:
144,81,147359,5,4,0:3:0:0:
302,30,147615,5,4,0:3:0:0:
367,98,147743,2,0,P|324:124|265:125,1,95.9999970703126,0|4,1:0|0:3,0:0:0:0:
455,218,148000,1,0,1:0:0:0:
457,189,148064,1,0,1:0:0:0:
460,160,148128,1,0,1:0:0:0:
463,131,148192,1,0,1:0:0:0:
466,101,148256,5,4,1:0:0:0:
291,222,148384,2,0,L|279:127,1,95.9999970703126,0|4,1:0|0:3,0:0:0:0:
501,194,148641,5,0,1:0:0:0:
279,206,148769,2,0,L|267:111,1,95.9999970703126,0|4,1:0|0:3,0:0:0:0:
476,317,149025,5,0,1:0:0:0:
272,190,149153,2,0,L|260:95,1,95.9999970703126,0|4,1:0|0:3,0:0:0:0:
325,381,149410,5,0,1:0:0:0:
260,174,149538,2,0,L|248:79,1,95.9999970703126,0|4,1:0|0:3,0:0:0:0:
455,218,149795,5,0,1:0:0:0:
262,312,149923,1,0,1:0:0:0:
219,307,149987,1,4,0:3:0:0:
176,301,150051,1,4,0:3:0:0:
133,294,150115,1,4,0:3:0:0:
90,288,150179,2,0,L|103:369,1,47.9999985351563,4|0,0:3|0:0,0:0:0:0:
8,159,150307,5,4,1:0:0:0:
149,207,150436,2,0,L|270:220,1,95.9999970703126,0|4,1:0|0:3,0:0:0:0:
42,65,150692,5,0,1:0:0:0:
156,215,150820,2,0,L|277:228,1,95.9999970703126,0|4,1:0|0:3,0:0:0:0:
134,5,151077,5,0,1:0:0:0:
162,223,151205,2,0,L|283:236,1,95.9999970703126,0|4,1:0|0:3,0:0:0:0:
286,28,151462,5,0,1:0:0:0:
169,232,151589,2,0,L|290:245,1,95.9999970703126,0|4,1:0|0:3,0:0:0:0:
42,65,151846,5,0,1:0:0:0:
62,262,151974,1,0,1:0:0:0:
62,262,152038,1,0,0:0:0:0:
62,262,152102,2,0,L|11:271,2,47.9999985351563,4|0|4,0:3|0:0|0:3,0:0:0:0:
213,130,152359,5,4,1:0:0:0:
161,249,152487,2,0,L|173:344,1,95.9999970703126,4|4,1:0|0:3,0:0:0:0:
360,106,152743,5,4,1:0:0:0:
410,253,152871,2,0,L|397:348,1,95.9999970703126,4|4,1:0|0:3,0:0:0:0:
229,54,153128,5,4,1:0:0:0:
168,242,153256,2,0,L|180:337,1,95.9999970703126,4|4,0:3|1:0,0:0:0:0:
342,30,153512,5,4,1:0:0:0:
403,246,153640,2,0,L|390:341,1,95.9999970703126,4|4,1:0|0:3,0:0:0:0:
198,148,153897,5,4,1:0:0:0:
394,99,154025,1,4,1:0:0:0:
394,99,154089,1,0,1:0:0:0:
394,99,154154,2,0,L|453:108,3,47.9999985351563,4|0|4|0,0:3|0:0|0:3|0:0,0:0:0:0:
321,147,154410,5,4,1:0:0:0:
282,165,154474,1,0,1:0:0:0:
238,167,154538,1,0,1:0:0:0:
198,148,154602,1,0,1:0:0:0:
173,112,154666,2,0,L|168:52,3,47.9999985351563,0|4|0|4,1:0|0:3|0:3|0:3,0:0:0:0:
40,31,154923,5,0,1:0:0:0:
5,141,155051,1,0,1:0:0:0:
132,190,155179,5,4,0:3:0:0:
162,313,155307,1,4,0:3:0:0:
58,358,155436,5,0,1:0:0:0:
76,360,155521,1,0,1:0:0:0:
95,363,155607,1,0,1:0:0:0:
181,320,155692,5,0,1:0:0:0:
199,318,155777,1,0,1:0:0:0:
218,315,155863,1,0,1:0:0:0:
310,370,155948,5,0,1:0:0:0:
441,207,156077,2,0,B|423:253|449:319|449:319|469:301|468:272,1,143.999995605469,4|0,0:3|1:0,0:0:0:0:
321,235,156461,5,4,0:3:0:0:
322,220,156525,1,0,0:3:0:0:
324,205,156589,1,0,0:3:0:0:
325,190,156654,1,0,0:3:0:0:
326,175,156718,2,0,L|333:109,3,35.9999989013672,0|0|0|0,0:3|0:3|0:3|0:3,0:0:0:0:
434,97,156974,2,0,L|430:61,7,35.9999989013672,4|0|0|0|0|0|0|0,0:3|0:0|0:0|0:0|0:0|0:0|0:0|0:0,0:0:0:0:
315,34,157487,6,0,B|249:53|189:24|189:24|146:91|146:91|11:47|-3:110|4:206|116:158,1,447.999986328125,0|0,1:0|1:0,0:0:0:0:
194,246,158064,1,0,1:0:0:0:
194,246,158128,2,0,L|252:253,5,44.0000013427735,4|0|0|0|0|0,0:3|1:0|1:0|1:0|1:0|1:0,0:0:0:0:
133,323,158512,5,4,1:0:0:0:
96,339,158577,1,0,1:0:0:0:
56,337,158641,2,0,L|42:275,1,55.9999982910157,4|0,1:3|0:3,0:0:0:0:
112,215,158769,5,0,1:3:0:0:
73,199,158834,1,0,1:0:0:0:
47,169,158898,2,0,L|80:115,1,55.9999982910157,4|0,0:3|0:0,0:0:0:0:
197,114,159025,5,0,1:0:0:0:
182,76,159090,1,0,1:0:0:0:
184,36,159154,2,0,L|246:22,1,55.9999982910157,4|0,0:3|0:0,0:0:0:0:
371,110,159282,5,0,1:0:0:0:
387,71,159347,1,0,1:0:0:0:
417,45,159411,2,0,L|470:78,1,55.9999982910157,4|0,0:3|0:0,0:0:0:0:
436,236,159538,5,0,1:3:0:0:
436,236,159602,1,0,1:0:0:0:
436,236,159666,2,0,L|442:293,1,55.9999982910157,4|0,0:3|0:0,0:0:0:0:
349,366,159795,2,0,L|343:310,1,55.9999982910157,0|0,1:3|0:3,0:0:0:0:
252,209,159923,2,0,L|257:264,1,55.9999982910157,0|0,1:3|0:3,0:0:0:0:
163,375,160051,1,4,0:3:0:0:
47,169,160179,6,0,P|14:294|126:251,1,279.999991455078,4|0,0:3|0:0,0:0:0:0:
55,161,160564,6,0,P|54:117|60:68,1,88.000002685547,4|0,1:0|0:3,0:0:0:0:
148,196,160820,1,4,0:3:0:0:
225,26,160948,2,0,P|208:66|198:109,1,88.000002685547,0|0,1:3|1:0,0:0:0:0:
269,164,161141,1,0,1:0:0:0:
269,164,161205,2,0,L|369:159,1,88.000002685547,4|0,0:3|0:0,0:0:0:0:
480,46,161461,2,0,B|459:16|459:16|451:71|451:71|461:91|461:91|449:167,1,176.000005371094,4|0,0:3|0:3,0:0:0:0:
494,270,161846,1,4,0:3:0:0:
411,354,161974,1,0,1:0:0:0:
411,354,162038,1,0,1:0:0:0:
411,354,162102,1,4,0:3:0:0:
304,267,162230,2,0,P|261:254|218:254,2,88.000002685547,0|0|0,1:0|0:0|1:0,0:0:0:0:
153,336,162615,6,0,P|118:258|152:179,1,176.000005371094,4|4,1:0|0:3,0:0:0:0:
337,150,163000,1,0,0:0:0:0:
203,44,163128,1,0,1:0:0:0:
203,44,163192,1,0,1:0:0:0:
203,44,163256,2,0,L|91:63,2,88.000002685547,4|0|4,0:3|0:0|0:3,0:0:0:0:
36,167,163641,2,0,P|36:123|29:79,1,88.000002685547,4|0,0:3|0:0,0:0:0:0:
179,182,163897,2,0,P|172:225|172:269,1,88.000002685547,4|4,0:3|0:3,0:0:0:0:
33,354,164154,1,4,0:3:0:0:
33,354,164218,1,4,0:3:0:0:
33,354,164282,2,0,B|71:360|110:343|110:343|149:357|149:357|188:338|261:357,1,207.999990478516,0|0,1:0|0:0,0:0:0:0:
391,377,164666,6,0,P|373:325|416:237,1,132.00000402832,4|0,1:0|0:0,0:0:0:0:
456,195,164923,2,0,P|477:228|474:290,1,88.000002685547,4|4,0:3|0:3,0:0:0:0:
302,199,165179,1,0,1:0:0:0:
302,199,165307,2,0,L|196:222,1,88.000002685547,4|0,0:3|0:0,0:0:0:0:
371,97,165564,1,4,0:3:0:0:
371,97,165692,2,0,L|267:83,1,88.000002685547,4|0,0:3|0:0,0:0:0:0:
124,12,165948,5,0,1:0:0:0:
160,88,166034,1,0,1:0:0:0:
94,144,166119,1,0,1:0:0:0:
18,128,166205,1,0,1:0:0:0:
18,128,166333,6,0,B|21:219|-13:209|5:308,1,176.000005371094,4|0,0:3|0:0,0:0:0:0:
207,348,166718,6,0,L|267:339,4,44.0000013427735,4|0|0|0|4,1:0|0:0|0:0|0:0|0:3,0:0:0:0:
111,250,167102,1,4,0:3:0:0:
62,384,167230,1,0,1:0:0:0:
62,384,167295,1,0,1:0:0:0:
62,384,167359,1,4,0:3:0:0:
104,237,167487,2,0,P|107:187|89:124,1,88.000002685547,0|4,1:0|0:3,0:0:0:0:
32,8,167743,1,4,0:3:0:0:
168,79,167871,2,0,L|266:68,1,88.000002685547,0|0,1:0|0:0,0:0:0:0:
213,220,168128,2,0,L|311:231,1,88.000002685547,0|4,1:0|0:3,0:0:0:0:
136,331,168384,2,0,L|252:363,1,88.000002685547,0|4,1:0|0:3,0:0:0:0:
299,373,168577,1,4,0:3:0:0:
326,358,168641,1,4,0:3:0:0:
356,355,168705,1,4,0:3:0:0:
386,361,168769,6,0,P|394:318|411:237,2,88.000002685547,4|4|0,1:0|0:3|0:0,0:0:0:0:
496,229,169154,2,0,P|411:238|354:175,1,176.000005371094,4|4,0:3|0:3,0:0:0:0:
411,80,169538,1,0,1:0:0:0:
264,4,169666,2,0,P|285:41|283:101,1,88.000002685547,4|0,0:3|0:0,0:0:0:0:
190,203,169923,2,0,B|146:228|100:203|100:203|95:154|148:138,1,176.000005371094,0|0,1:0|1:0,0:0:0:0:
339,198,170307,1,4,0:3:0:0:
339,198,170371,1,4,0:3:0:0:
339,198,170435,1,0,1:0:0:0:
200,63,170564,1,4,0:3:0:0:
243,283,170692,1,0,0:0:0:0:
33,166,170820,6,0,B|70:196|70:196|59:341,1,176.000005371094,4|0,1:0|1:0,0:0:0:0:
177,357,171205,1,4,0:3:0:0:
116,243,171333,1,4,0:3:0:0:
243,283,171461,2,0,P|224:234|200:200,1,88.000002685547,4|0,0:3|0:0,0:0:0:0:
344,293,171718,2,0,P|352:241|348:199,1,88.000002685547,4|0,0:3|0:0,0:0:0:0:
426,352,171974,2,0,P|458:311|476:273,1,88.000002685547,4|0,0:3|0:0,0:0:0:0:
450,77,172230,1,4,0:3:0:0:
274,151,172359,1,0,1:0:0:0:
274,151,172423,1,0,1:0:0:0:
274,151,172487,2,0,P|322:93|315:187,1,207.999990478516,4|0,0:3|0:0,0:0:0:0:
193,339,172871,6,0,P|147:331|92:347,1,88.000002685547,4|0,1:0|0:0,0:0:0:0:
300,257,173128,2,0,P|345:264|400:248,1,88.000002685547,4|4,0:3|0:3,0:0:0:0:
189,85,173384,1,0,1:0:0:0:
173,225,173512,1,4,0:3:0:0:
32,211,173641,1,4,0:3:0:0:
55,70,173769,1,4,0:3:0:0:
55,70,173897,2,0,B|106:73|106:73|143:61|143:61|184:64,1,132.00000402832,4|0,1:0|0:0,0:0:0:0:
261,7,174154,2,0,P|278:41|263:115,1,88.000002685547,4|4,0:3|0:3,0:0:0:0:
100,154,174410,1,0,1:0:0:0:
276,248,174538,2,0,B|396:245|333:308|469:303,1,176.000005371094,4|0,0:3|0:0,0:0:0:0:
134,355,174923,5,4,1:0:0:0:
380,340,178000,5,4,0:3:0:0:
387,323,178085,5,4,0:3:0:0:
394,288,178171,5,4,0:3:0:0:
381,230,178256,5,0,1:0:0:0:
334,166,178342,5,0,1:0:0:0:
260,127,178427,5,0,1:0:0:0:
171,147,178512,6,0,L|162:199,1,35.9999989013672,0|0,1:0|0:0,0:0:0:0:
39,109,178641,6,0,L|57:271,1,143.999995605469,4|0,0:3|0:0,0:0:0:0:
244,363,179025,6,0,B|271:310|253:244|253:244|221:272|223:306,1,176.000005371094,4|4,1:0|0:3,0:0:0:0:
101,355,179410,1,4,0:3:0:0:
29,208,179538,2,0,L|127:224,1,88.000002685547,0|4,1:0|0:3,0:0:0:0:
253,146,179795,1,0,0:0:0:0:
93,26,179923,2,0,P|88:108|165:137,1,176.000005371094,4|0,0:3|0:0,0:0:0:0:
327,44,180307,5,0,1:0:0:0:
409,21,180393,1,0,1:0:0:0:
484,66,180478,1,0,1:0:0:0:
494,157,180564,1,0,1:0:0:0:
494,157,180692,6,0,P|478:213|465:329,1,176.000005371094,4|0,0:3|0:0,0:0:0:0:
218,349,181077,5,4,1:0:0:0:
239,351,181141,1,4,0:3:0:0:
260,354,181205,1,4,0:3:0:0:
281,358,181269,1,4,0:3:0:0:
303,362,181333,2,0,L|354:346,3,44.0000013427735,4|0|4|0,0:3|0:0|0:3|0:0,0:0:0:0:
378,258,181589,2,0,P|373:214|358:173,1,88.000002685547,0|0,1:0|1:0,0:0:0:0:
238,51,181846,1,4,0:3:0:0:
247,218,181974,1,4,0:3:0:0:
343,89,182102,1,0,1:0:0:0:
343,89,182230,2,0,P|344:32|357:-9,1,88.000002685547,4|0,0:3|0:0,0:0:0:0:
240,120,182487,2,0,P|217:82|204:40,1,88.000002685547,4|0,0:3|0:0,0:0:0:0:
166,198,182743,2,0,P|127:176|61:65,1,176.000005371094,4|0,0:3|0:0,0:0:0:0:
20,295,183128,6,0,B|92:288|92:288|119:301|119:301|192:292,1,176.000005371094,4|0,1:0|0:0,0:0:0:0:
399,264,183512,1,4,0:3:0:0:
285,360,183641,2,0,L|298:257,2,88.000002685547,0|4|0,1:0|0:3|1:0,0:0:0:0:
165,197,184025,2,0,P|228:212|282:177,1,132.00000402832,4|0,0:3|0:0,0:0:0:0:
382,181,184282,2,0,P|425:181|460:206,1,88.000002685547,4|0,0:3|1:0,0:0:0:0:
213,128,184538,1,4,0:3:0:0:
400,37,184666,1,0,1:0:0:0:
400,37,184730,1,0,1:0:0:0:
400,37,184795,2,0,B|451:32|490:66|490:66|432:49|373:83,1,207.999990478516,4|4,0:3|0:3,0:0:0:0:
282,235,185179,5,4,1:0:0:0:
224,295,185265,1,0,1:0:0:0:
141,295,185350,1,0,1:0:0:0:
83,234,185436,2,0,L|98:134,1,88.000002685547,0|4,1:0|0:3,0:0:0:0:
295,251,185692,5,0,1:0:0:0:
353,311,185778,1,0,1:0:0:0:
436,311,185863,1,0,1:0:0:0:
494,250,185949,2,0,L|476:149,1,88.000002685547,0|4,1:0|0:3,0:0:0:0:
290,19,186205,5,0,1:0:0:0:
248,16,186269,1,0,1:0:0:0:
213,39,186333,1,0,1:0:0:0:
200,78,186397,1,0,1:0:0:0:
214,115,186461,2,0,P|232:154|227:197,1,88.000002685547,0|4,1:0|0:3,0:0:0:0:
46,276,186718,2,0,B|14:253|82:213|144:236|143:323,1,155.999992858887,0|0,1:0|0:0,0:0:0:0:
129,377,186974,1,4,0:3:0:0:
146,164,187102,1,4,0:3:0:0:
289,308,187230,6,0,P|353:310|399:265,1,132.00000402832,4|0,1:0|0:0,0:0:0:0:
356,158,187487,2,0,P|326:189|322:232,1,88.000002685547,4|4,0:3|0:3,0:0:0:0:
205,81,187743,1,0,1:0:0:0:
173,244,187871,1,4,0:3:0:0:
302,78,188000,1,4,0:3:0:0:
453,198,188128,2,0,B|452:133|452:133|477:95|477:95|446:26,1,176.000005371094,4|0,0:3|0:0,0:0:0:0:
293,93,188512,2,0,P|249:100|206:97,1,88.000002685547,4|4,0:3|0:3,0:0:0:0:
33,20,188769,1,0,1:0:0:0:
33,20,188897,2,0,B|55:51|42:97|42:97|53:111|53:111|36:152|50:202,1,176.000005371094,4|4,0:3|0:3,0:0:0:0:
123,363,189282,6,0,P|141:315|46:355,1,240,4|0,1:0|0:0,0:0:0:0:
228,283,189795,1,0,1:0:0:0:
228,283,189859,1,0,1:0:0:0:
228,283,189923,2,0,L|236:191,1,80,4|0,0:3|0:0,0:0:0:0:
309,353,190179,2,0,P|347:363|386:359,1,80,4|0,0:3|0:0,0:0:0:0:
508,281,190436,2,0,P|470:271|431:274,1,80,4|0,0:3|0:0,0:0:0:0:
261,196,190692,2,0,P|299:206|338:202,1,80,4|0,0:3|1:0,0:0:0:0:
448,71,190949,2,0,P|409:60|302:137,1,160,4|0,0:3|0:0,0:0:0:0:
173,283,191333,6,0,B|176:355|176:355|126:314|126:314|118:149,1,280,4|0,0:3|0:0,0:0:0:0:
143,81,191846,1,0,1:0:0:0:
143,81,191910,1,0,1:0:0:0:
143,81,191974,1,4,0:3:0:0:
41,187,192102,1,0,0:0:0:0:
208,206,192230,2,0,P|286:207|346:257,1,160,4|4,0:3|0:3,0:0:0:0:
400,356,192615,1,0,0:0:0:0:
470,218,192743,2,0,L|481:297,1,80,4|0,0:3|1:0,0:0:0:0:
361,98,193000,2,0,L|346:261,1,160,4|4,0:3|0:3,0:0:0:0:
462,68,193384,6,0,B|477:27|509:-14|509:-14|430:22|355:0,1,240,4|0,0:3|0:0,0:0:0:0:
213,54,193897,1,0,1:0:0:0:
213,54,193961,1,0,1:0:0:0:
213,54,194025,1,4,0:3:0:0:
357,112,194154,1,0,1:0:0:0:
217,214,194282,2,0,B|198:256|215:298|215:298|199:322|199:322|205:371,1,160,4|0,0:3|0:0,0:0:0:0:
294,258,194666,1,4,0:3:0:0:
143,180,194795,1,0,1:0:0:0:
271,136,194923,1,4,0:3:0:0:
271,136,194987,1,4,0:3:0:0:
271,136,195051,2,0,L|444:159,1,160,0|0,1:0|0:0,0:0:0:0:
444,320,195436,6,0,P|427:261|366:252,1,120,4|0,0:3|0:0,0:0:0:0:
294,258,195692,2,0,L|280:354,1,80,4|4,0:3|0:3,0:0:0:0:
158,269,195948,2,0,L|156:228,2,40,0|0|4,0:0|0:0|0:3,0:0:0:0:
43,355,196205,2,0,L|32:269,1,80,4|4,0:3|0:3,0:0:0:0:
0,119,196461,2,0,P|54:136|122:108,1,120,4|0,0:3|0:0,0:0:0:0:
176,64,196718,2,0,P|214:53|252:62,1,80,4|0,0:3|1:0,0:0:0:0:
354,139,196974,1,4,0:3:0:0:
459,48,197102,2,0,P|398:105|388:231,1,207.999990478516,0|0,1:0|0:0,0:0:0:0:
241,370,197487,6,0,L|49:345,2,176.000005371094,4|4|0,1:0|0:3|1:0,0:0:0:0:
312,316,198064,1,0,1:0:0:0:
312,316,198128,1,4,0:3:0:0:
196,219,198256,1,0,1:0:0:0:
354,139,198384,2,0,P|433:143|434:286,1,220.000006713867,4|0,0:3|0:0,0:0:0:0:
399,327,198769,2,0,L|303:314,1,88.000002685547,4|4,0:3|0:3,0:0:0:0:
129,293,199025,1,0,1:0:0:0:
129,293,199089,1,0,1:0:0:0:
129,293,199154,1,4,0:3:0:0:
278,234,199282,1,0,1:0:0:0:
100,203,199410,1,4,0:3:0:0:
217,367,199538,6,0,B|239:273|174:295|198:165,1,176.000005371094,4|0,0:3|1:0,0:0:0:0:
281,47,199923,1,4,0:3:0:0:
281,47,199987,1,4,0:3:0:0:
281,47,200051,2,0,P|231:27|183:32,1,88.000002685547,0|4,1:0|0:3,0:0:0:0:
83,160,200307,1,0,0:0:0:0:
16,31,200436,1,4,0:3:0:0:
16,31,200564,2,0,L|103:41,1,88.000002685547,4|0,0:3|0:0,0:0:0:0:
207,167,200820,2,0,L|119:177,1,88.000002685547,4|0,0:3|0:3,0:0:0:0:
29,293,201077,1,0,1:0:0:0:
29,293,201141,1,0,1:0:0:0:
29,293,201205,1,4,0:3:0:0:
274,323,201333,5,4,0:3:0:0:
321,301,201418,1,4,0:3:0:0:
350,256,201504,1,4,0:3:0:0:
358,204,201589,6,0,P|343:146|401:38,2,176.000005371094,4|4|0,1:0|0:3|1:0,0:0:0:0:
454,282,202230,1,4,0:3:0:0:
457,142,202359,1,0,0:0:0:0:
457,142,202487,1,0,1:0:0:0:
331,209,202615,2,0,L|238:192,1,88.000002685547,4|4,0:3|0:3,0:0:0:0:
261,62,202871,2,0,L|171:93,1,88.000002685547,4|4,0:3|0:3,0:0:0:0:
69,35,203128,2,0,P|54:69|51:102,1,44.0000013427735,0|0,1:0|0:0,0:0:0:0:
24,163,203256,2,0,P|22:188|27:206,1,44.0000013427735,4|0,0:3|0:0,0:0:0:0:
160,270,203384,2,0,P|186:229|183:183,1,88.000002685547,0|4,1:0|0:3,0:0:0:0:
74,291,203641,6,0,B|85:352|155:383|205:360|242:314|242:314|309:226|356:161|539:185|493:293|467:376|383:358|345:335,1,671.999979492188,4|0,1:0|0:0,0:0:0:0:
347,336,205692,6,0,P|342:239|441:85,1,279.999991455078,4|0,1:0|0:0,0:0:0:0:
360,31,206461,2,0,L|293:22,1,55.9999982910157,0|0,1:0|1:0,0:0:0:0:
199,13,206718,5,4,0:3:0:0:
103,54,206846,5,0,1:0:0:0:
49,152,206974,5,0,1:0:0:0:
63,276,207102,5,0,1:0:0:0:
182,362,207230,5,4,0:3:0:0:
335,357,207359,6,0,L|342:304,1,35.9999989013672,0|0,1:0|0:0,0:0:0:0:
243,232,207487,2,0,L|253:287,1,35.9999989013672,4|0,0:3|0:0,0:0:0:0:
393,228,207615,2,0,L|330:213,1,35.9999989013672,0|0,1:0|0:0,0:0:0:0:
205,146,207743,5,4,0:3:0:0:
205,146,207807,1,0,0:0:0:0:
205,146,207871,2,0,L|253:133,1,35.9999989013672,0|0,0:0|0:0,0:0:0:0:
419,132,208000,1,4,0:3:0:0:
419,132,208064,1,0,0:0:0:0:
419,132,208128,2,0,L|364:119,1,35.9999989013672,0|0,0:0|0:0,0:0:0:0:
211,37,208256,2,0,L|168:30,7,35.9999989013672,4|0|0|0|4|0|0|0,0:3|0:0|0:0|0:0|0:3|0:0|0:0|0:0,0:0:0:0:
69,33,208769,5,0,1:0:0:0:
59,43,208833,1,0,1:0:0:0:
51,55,208897,1,0,1:0:0:0:
44,67,208961,1,0,1:0:0:0:
39,80,209025,1,0,1:0:0:0:
36,94,209089,1,0,1:0:0:0:
35,108,209154,1,0,1:0:0:0:
37,122,209218,1,0,1:0:0:0:
40,135,209282,1,0,1:0:0:0:
45,148,209346,1,0,1:0:0:0:
52,160,209410,1,0,1:0:0:0:
60,171,209474,1,0,1:0:0:0:
70,180,209538,2,0,B|100:204|136:198|136:198|114:157|75:154,1,132.00000402832,4|0,0:3|0:0,0:0:0:0:
26,295,209795,6,0,B|142:287|90:348|240:322,1,191.999994140625,4|0,0:1|0:0,0:0:0:0:
387,254,210179,2,0,L|375:349,1,95.9999970703126,4|0,0:3|0:0,0:0:0:0:
233,235,210436,1,0,1:0:0:0:
233,235,210500,1,0,1:0:0:0:
233,235,210564,1,0,1:0:0:0:
412,160,210692,2,0,B|456:84|408:24|408:24|350:41,1,191.999994140625,0|4,1:0|0:3,0:0:0:0:
235,143,211077,1,0,1:0:0:0:
387,254,211205,2,0,P|451:250|512:144,1,191.999994140625,4|0,0:3|1:0,0:0:0:0:
324,50,211589,1,4,0:3:0:0:
495,2,211718,1,0,1:0:0:0:
404,168,211846,6,0,L|289:154,1,95.9999970703126,4|0,0:1|1:0,0:0:0:0:
180,68,212102,1,0,0:0:0:0:
120,205,212230,2,0,L|102:327,2,95.9999970703126,4|0|0,0:3|0:0|1:0,0:0:0:0:
88,128,212552,1,0,0:0:0:0:
88,128,212616,1,0,1:0:0:0:
201,250,212743,2,0,B|275:242|275:242|305:263|305:263|414:250,1,191.999994140625,4|4,1:0|0:3,0:0:0:0:
262,361,213128,2,0,L|166:351,1,95.9999970703126,0|4,1:0|0:1,0:0:0:0:
23,278,213384,6,0,P|50:268|92:266,1,47.9999985351563,0|0,1:0|0:0,0:0:0:0:
156,233,213512,2,0,P|179:239|201:250,1,47.9999985351563,4|4,0:3|0:3,0:0:0:0:
21,186,213641,6,0,P|43:179|67:177,1,47.9999985351563,0|0,1:0|0:0,0:0:0:0:
155,141,213769,2,0,P|178:144|201:152,1,47.9999985351563,4|4,0:3|0:3,0:0:0:0:
39,72,213897,5,4,1:1:0:0:
170,36,214025,2,0,B|296:31|241:81|378:87,2,191.999994140625,0|4|0,1:0|0:3|0:0,0:0:0:0:
92,0,214602,1,0,1:0:0:0:
92,0,214666,1,0,1:0:0:0:
7,166,214795,2,0,B|48:179|84:162|84:162|110:177|110:177|160:146|205:170,1,191.999994140625,0|0,1:0|0:0,0:0:0:0:
307,287,215179,2,0,P|295:240|300:193,1,95.9999970703126,0|4,1:0|0:3,0:0:0:0:
368,71,215436,1,4,0:3:0:0:
492,116,215564,1,0,1:0:0:0:
454,237,215692,1,0,0:0:0:0:
322,186,215820,1,0,1:0:0:0:
392,367,215948,5,0,1:0:0:0:
387,335,216034,1,4,0:3:0:0:
397,304,216119,1,4,0:3:0:0:
512,210,216205,5,0,1:0:0:0:
486,230,216291,1,4,0:3:0:0:
454,237,216376,1,4,0:3:0:0:
322,186,216461,5,0,1:0:0:0:
352,198,216547,1,4,0:3:0:0:
374,222,216632,1,4,0:3:0:0:
302,314,216718,6,0,B|259:369|188:370|133:333|130:267|130:267|188:288|187:337,1,319.999990234375,0|0,1:0|1:0,0:0:0:0:
83,370,217230,1,0,1:0:0:0:
70,356,217316,2,0,P|51:324|46:294,1,63.9999980468751,0|0,1:0|0:0,0:0:0:0:
91,167,217487,5,0,1:0:0:0:
114,169,217551,1,0,1:0:0:0:
137,172,217615,1,0,1:0:0:0:
160,174,217679,1,0,1:0:0:0:
183,179,217743,2,0,P|197:127|172:69,1,95.9999970703126,8|4,0:3|0:3,0:0:0:0:
2,198,218000,6,0,B|28:247|28:247|163:263,1,191.999994140625,4|0,0:1|0:0,0:0:0:0:
325,367,218384,2,0,P|307:298|327:229,1,143.999995605469,4|0,0:3|0:0,0:0:0:0:
401,181,218641,1,0,1:0:0:0:
401,181,218705,1,0,1:0:0:0:
401,181,218769,1,0,1:0:0:0:
274,72,218897,2,0,B|164:62|206:127|93:119,1,191.999994140625,0|4,1:0|0:3,0:0:0:0:
334,7,219282,2,0,P|360:59|352:116,1,95.9999970703126,0|4,1:0|0:3,0:0:0:0:
255,240,219538,1,4,0:3:0:0:
255,240,219666,1,0,1:0:0:0:
124,34,219795,1,4,0:3:0:0:
124,34,219923,1,0,1:0:0:0:
20,225,220051,6,0,L|3:110,1,95.9999970703126,4|0,0:1|1:0,0:0:0:0:
215,162,220307,1,0,0:0:0:0:
86,286,220436,2,0,P|46:312|-3:313,1,95.9999970703126,4|0,0:3|0:0,0:0:0:0:
128,130,220692,1,0,1:0:0:0:
128,130,220756,1,0,1:0:0:0:
128,130,220820,1,0,1:0:0:0:
261,272,220948,2,0,B|230:321|230:321|217:219|217:219|234:182|234:182|222:96,1,287.999991210938,4|0,1:0|1:0,0:0:0:0:
29,212,221461,1,4,0:1:0:0:
19,10,221589,6,0,L|27:58,1,47.9999985351563,0|0,1:0|1:0,0:0:0:0:
29,3,221718,2,0,L|37:51,1,47.9999985351563,4|4,0:3|0:3,0:0:0:0:
122,199,221846,6,0,L|130:151,1,47.9999985351563,0|0,1:0|1:0,0:0:0:0:
132,206,221975,2,0,L|140:158,1,47.9999985351563,0|0,1:0|1:0,0:0:0:0:
280,40,222102,6,0,P|326:29|376:42,1,95.9999970703126,4|0,0:3|1:0,0:0:0:0:
484,182,222359,1,4,0:3:0:0:
232,149,222487,2,0,P|278:159|328:146,1,95.9999970703126,4|0,0:3|1:0,0:0:0:0:
458,10,222744,1,4,0:3:0:0:
458,10,222807,1,4,0:3:0:0:
458,10,222871,2,0,L|444:105,1,95.9999970703126,0|4,1:0|0:3,0:0:0:0:
480,290,223128,1,4,0:3:0:0:
334,233,223256,6,0,P|263:240|207:284,1,143.999995605469,0|0,1:0|0:3,0:0:0:0:
122,364,223512,1,0,1:0:0:0:
97,365,223577,1,0,1:0:0:0:
75,355,223641,1,4,0:3:0:0:
57,338,223705,1,4,0:3:0:0:
48,315,223769,1,4,0:3:0:0:
47,291,223833,1,4,0:3:0:0:
61,271,223897,2,0,P|78:209|49:154,1,95.9999970703126,4|4,0:3|0:3,0:0:0:0:
23,91,224089,1,4,0:3:0:0:
23,91,224154,2,0,L|72:95,1,47.9999985351563,4|0,1:0|0:0,0:0:0:0:
174,0,224282,6,0,L|165:40,1,23.9999992675781,0|0,1:0|0:0,0:0:0:0:
183,3,224539,2,0,L|175:45,1,23.9999992675781,0|0,1:0|0:0,0:0:0:0:
193,5,224795,2,0,L|184:45,1,23.9999992675781,0|0,1:0|0:0,0:0:0:0:
202,8,225052,2,0,L|195:50,1,23.9999992675781,0|0,1:0|0:0,0:0:0:0:
210,10,225308,2,0,L|204:55,1,23.9999992675781,0|0,1:0|0:0,0:0:0:0:
221,12,225565,2,0,L|212:55,1,23.9999992675781,4|0,1:0|0:0,0:0:0:0:
417,87,225692,5,4,0:3:0:0:
295,186,225820,1,0,1:0:0:0:
272,190,225884,1,0,1:0:0:0:
249,187,225948,1,4,0:3:0:0:
229,175,226012,1,4,0:3:0:0:
211,159,226077,2,0,L|203:108,1,47.9999985351563,0|0,1:0|0:0,0:0:0:0:
428,95,226205,6,0,L|413:200,1,95.9999970703126,4|0,1:1|0:0,0:0:0:0:
473,349,226461,1,0,1:3:0:0:
328,286,226589,2,0,P|267:285|193:341,1,143.999995605469,4|0,0:3|0:0,0:0:0:0:
117,356,226846,1,0,1:0:0:0:
117,356,226910,1,0,1:0:0:0:
117,356,226974,1,0,1:0:0:0:
6,197,227102,2,0,B|44:168|98:200|98:200|106:248|40:290,1,191.999994140625,0|4,1:0|0:3,0:0:0:0:
229,175,227487,2,0,P|227:120|202:72,1,95.9999970703126,0|4,1:0|0:3,0:0:0:0:
94,7,227743,1,4,0:3:0:0:
30,110,227871,1,0,1:0:0:0:
116,198,228000,2,0,L|241:185,1,95.9999970703126,4|0,0:3|1:0,0:0:0:0:
377,280,228256,6,0,B|338:192|338:192|366:99,1,191.999994140625,4|0,0:1|0:0,0:0:0:0:
482,26,228641,2,0,P|393:60|300:45,1,191.999994140625,4|0,0:3|1:0,0:0:0:0:
228,4,228961,1,0,1:0:0:0:
228,4,229025,1,0,1:0:0:0:
56,98,229154,2,0,B|39:137|54:175|54:175|39:197|39:197|59:232|47:294,1,191.999994140625,4|4,1:0|0:3,0:0:0:0:
189,369,229538,2,0,P|187:311|212:237,1,95.9999970703126,0|4,1:0|0:1,0:0:0:0:
331,194,229795,6,0,L|384:204,1,47.9999985351563,0|0,1:0|0:0,0:0:0:0:
241,172,229923,2,0,L|188:182,1,47.9999985351563,4|0,0:3|0:0,0:0:0:0:
353,111,230051,6,0,L|406:121,1,47.9999985351563,0|0,1:0|0:0,0:0:0:0:
232,89,230179,2,0,L|179:99,1,47.9999985351563,4|0,0:3|0:0,0:0:0:0:
369,24,230307,5,4,0:1:0:0:
225,4,230436,2,0,B|129:15|129:15|88:43|88:43|41:23,2,191.999994140625,0|4|0,1:0|0:3|1:0,0:0:0:0:
312,45,231012,1,0,1:0:0:0:
312,45,231077,1,0,1:0:0:0:
182,185,231205,2,0,B|126:228|85:323|157:362|216:373|264:317|232:252,1,287.999991210938,0|0,1:0|1:0,0:0:0:0:
111,132,231718,1,4,0:3:0:0:
269,212,231846,1,0,0:0:0:0:
101,258,231974,2,0,L|-17:247,2,95.9999970703126,0|4|0,1:0|0:3|1:0,0:0:0:0:
246,352,232359,5,4,0:3:0:0:
277,351,232444,1,4,0:3:0:0:
307,340,232530,1,0,1:0:0:0:
411,311,232615,5,4,0:3:0:0:
425,283,232700,1,4,0:3:0:0:
431,252,232786,1,0,1:0:0:0:
456,138,232871,5,4,0:3:0:0:
439,112,232956,1,4,0:3:0:0:
415,91,233042,1,0,1:0:0:0:
290,37,233128,6,0,B|152:19|216:116|9:94,1,255.9999921875,0|0,1:0|1:0,0:0:0:0:
6,192,233555,1,0,1:0:0:0:
26,193,233641,2,0,P|59:255|78:318,1,127.99999609375,0|0,1:0|0:0,0:0:0:0:
194,358,233897,5,0,1:0:0:0:
211,341,233961,1,0,1:0:0:0:
232,330,234025,1,0,1:0:0:0:
253,320,234089,1,0,1:0:0:0:
276,313,234154,1,8,0:3:0:0:
299,309,234218,1,8,0:3:0:0:
322,311,234282,1,4,0:3:0:0:
345,316,234346,1,4,0:3:0:0:
366,326,234410,6,0,P|411:347|430:237,1,191.999994140625,4|0,0:1|0:0,0:0:0:0:
296,125,234795,2,0,L|310:219,1,95.9999970703126,4|0,0:3|0:0,0:0:0:0:
206,369,235051,1,0,1:0:0:0:
206,369,235115,1,0,1:0:0:0:
206,369,235179,1,0,1:0:0:0:
74,221,235307,2,0,B|130:177|203:208|203:208|160:279,1,191.999994140625,0|4,1:0|0:3,0:0:0:0:
27,382,235692,2,0,P|31:328|13:273,1,95.9999970703126,0|4,1:0|0:3,0:0:0:0:
50,97,235948,2,0,P|45:144|56:191,1,95.9999970703126,4|0,0:3|1:0,0:0:0:0:
188,263,236205,1,4,0:3:0:0:
302,181,236333,1,4,0:3:0:0:
449,318,236461,6,0,L|460:219,1,95.9999970703126,4|0,0:1|1:0,0:0:0:0:
432,64,236718,1,0,0:0:0:0:
302,181,236846,2,0,P|236:191|198:109,1,143.999995605469,4|0,0:3|0:0,0:0:0:0:
232,58,237102,1,0,1:0:0:0:
232,58,237166,1,0,1:0:0:0:
232,58,237230,1,0,1:0:0:0:
41,0,237359,2,0,B|45:78|45:78|24:106|24:106|31:207,1,191.999994140625,4|4,1:0|0:3,0:0:0:0:
146,306,237743,2,0,P|151:259|132:216,1,95.9999970703126,0|4,1:0|0:1,0:0:0:0:
4,353,238000,6,0,L|61:360,1,47.9999985351563,0|0,1:0|0:0,0:0:0:0:
0,364,238128,2,0,L|57:371,1,47.9999985351563,4|0,0:3|0:0,0:0:0:0:
132,216,238256,6,0,L|189:209,1,47.9999985351563,0|0,1:0|1:0,0:0:0:0:
128,205,238384,2,0,L|185:198,1,47.9999985351563,0|0,1:0|1:0,0:0:0:0:
299,365,238512,6,0,P|298:299|280:236,1,95.9999970703126,4|0,0:3|1:0,0:0:0:0:
212,102,238769,1,4,0:3:0:0:
398,284,238897,2,0,P|398:218|417:155,1,95.9999970703126,4|0,0:3|1:0,0:0:0:0:
485,21,239154,1,4,0:3:0:0:
485,21,239218,1,4,0:3:0:0:
485,21,239282,2,0,L|375:12,2,95.9999970703126,0|4|4,1:0|0:3|0:3,0:0:0:0:
307,131,239666,6,0,P|291:47|222:2,1,143.999995605469,4|0,1:3|0:3,0:0:0:0:
138,33,239923,1,0,1:0:0:0:
114,36,239987,1,0,0:0:0:0:
94,50,240051,1,4,0:3:0:0:
78,68,240115,1,4,0:3:0:0:
75,91,240179,1,4,0:3:0:0:
77,114,240243,1,4,0:3:0:0:
88,135,240307,2,0,P|121:207|120:246,1,95.9999970703126,4|4,0:3|0:3,0:0:0:0:
65,285,240500,1,4,0:3:0:0:
65,285,240564,2,0,L|1:275,1,47.9999985351563,4|0,1:0|0:0,0:0:0:0:
191,345,240692,6,0,L|214:349,1,23.9999992675781,0|0,1:0|0:0,0:0:0:0:
197,334,240949,2,0,L|228:340,1,23.9999992675781,0|0,1:0|0:0,0:0:0:0:
203,320,241205,2,0,L|236:327,1,23.9999992675781,0|0,1:0|0:0,0:0:0:0:
209,309,241462,2,0,L|242:315,1,23.9999992675781,0|0,1:0|0:0,0:0:0:0:
213,299,241718,2,0,L|246:305,1,23.9999992675781,0|0,1:0|0:0,0:0:0:0:
219,288,241975,2,0,L|253:295,1,23.9999992675781,4|0,1:0|0:0,0:0:0:0:
421,351,242230,5,0,1:0:0:0:
388,321,242295,1,0,1:0:0:0:
375,279,242359,1,0,1:0:0:0:
375,235,242423,1,0,1:0:0:0:
391,195,242487,1,4,0:3:0:0:
425,168,242551,1,4,0:3:0:0:
464,151,242615,2,0,L|478:220,1,47.9999985351563,4|0,1:0|0:0,0:0:0:0:
465,32,242743,6,0,L|501:35,1,23.9999992675781,0|0,1:0|0:0,0:0:0:0:
462,43,243000,2,0,L|498:46,1,23.9999992675781,0|0,1:3|0:0,0:0:0:0:
329,101,243256,6,0,L|365:98,1,23.9999992675781,0|0,1:3|0:0,0:0:0:0:
326,90,243513,2,0,L|362:87,1,23.9999992675781,0|0,1:0|0:0,0:0:0:0:
177,17,243769,6,0,L|213:20,1,23.9999992675781,0|0,1:3|0:0,0:0:0:0:
174,28,244026,2,0,L|210:31,1,23.9999992675781,4|0,1:3|0:0,0:0:0:0:
39,117,244282,5,4,0:3:0:0:
26,158,244346,1,4,0:3:0:0:
29,200,244410,1,0,1:0:0:0:
51,236,244474,1,0,1:0:0:0:
86,259,244538,1,0,1:0:0:0:
127,269,244602,1,0,1:0:0:0:
169,264,244666,2,0,L|181:209,1,47.9999985351563,4|0,0:3|0:0,0:0:0:0:
107,370,244795,6,0,L|74:375,1,23.9999992675781,0|0,1:0|0:0,0:0:0:0:
405,304,245051,6,0,L|438:309,1,23.9999992675781,0|0,1:3|0:0,0:0:0:0:
86,259,245307,6,0,L|53:264,1,23.9999992675781,0|0,1:3|0:0,0:0:0:0:
426,193,245563,6,0,L|459:198,1,23.9999992675781,0|0,1:0|0:0,0:0:0:0:
65,148,245820,6,0,L|32:153,1,23.9999992675781,0|0,1:3|0:0,0:0:0:0:
447,82,246077,6,0,L|480:87,1,23.9999992675781,0|0,1:3|0:0,0:0:0:0:
222,6,246205,6,0,L|211:113,1,95.9999970703126,0|4,1:0|0:3,0:0:0:0:
278,186,246397,1,0,0:0:0:0:
278,186,246461,2,0,L|350:190,3,47.9999985351563,0|0|0|0,1:0|1:0|1:0|1:0,0:0:0:0:
176,284,246718,5,0,1:0:0:0:
161,283,246782,1,0,1:0:0:0:
146,285,246846,1,0,1:0:0:0:
132,290,246910,1,0,1:0:0:0:
119,297,246974,2,0,L|111:363,5,47.9999985351563,0|0|0|0|0|0,1:0|1:0|1:0|1:0|1:0|1:0,0:0:0:0:
4,236,247359,1,0,1:0:0:0:
4,236,247423,1,0,1:0:0:0:
4,236,247487,2,0,L|12:297,3,47.9999985351563,0|0|0|0,1:0|1:0|1:0|1:0,0:0:0:0:
108,160,247743,1,0,1:0:0:0:
108,160,247807,1,0,1:0:0:0:
108,160,247871,2,0,L|100:221,3,47.9999985351563,0|0|0|0,1:0|1:0|1:0|1:0,0:0:0:0:
13,105,248128,1,0,1:0:0:0:
8,91,248192,1,0,1:0:0:0:
3,77,248256,5,4,0:3:0:0:
40,46,248320,1,4,0:3:0:0:
85,30,248384,1,4,0:3:0:0:
132,28,248448,1,4,0:3:0:0:
176,46,248512,1,4,0:3:0:0:
208,81,248577,1,4,0:3:0:0:
249,105,248641,1,4,0:3:0:0:
296,102,248705,1,4,0:3:0:0:
337,80,248769,6,0,B|380:50|548:-46|629:348|415:353|286:238|283:231|281:238|222:80|11:83|-8:342|89:372|187:380|187:380|140:376|101:344|105:287,1,1024,4|0,1:0|0:0,0:0:0:0:
