osu file format v14

[General]
AudioFilename: audio.mp3
AudioLeadIn: 0
PreviewTime: 127166
Countdown: 0
SampleSet: Drum
StackLeniency: 0.7
Mode: 0
LetterboxInBreaks: 0
WidescreenStoryboard: 1

[Editor]
Bookmarks: 100026,119000,252846
DistanceSpacing: 1
BeatDivisor: 4
GridSize: 32
TimelineZoom: 1.9

[Metadata]
Title:Ontology
TitleUnicode:Ontology
Artist:Shade
ArtistUnicode:Shade
Creator:LMT
Version:Insane
Source:鬼畜王ランス
Tags:kichikuou rance arrange collection alicesoft eroge zelq instrumental
BeatmapID:2205248
BeatmapSetID:1050313

[Difficulty]
HPDrainRate:5
CircleSize:3
OverallDifficulty:8
ApproachRate:9
SliderMultiplier:1.4
SliderTickRate:1

[Events]
//Background and Video events
0,0,"ontology_bg.jpg",0,0
//Break Periods
2,65108,67898
2,69211,72513
2,100188,118938
2,175123,177912
//Storyboard Layer 0 (Background)
//Storyboard Layer 1 (Fail)
//Storyboard Layer 2 (Pass)
//Storyboard Layer 3 (Foreground)
//Storyboard Layer 4 (Overlay)
//Storyboard Sound Samples

[TimingPoints]
30037,256.410256410256,4,3,1,35,1,0
30037,-200,4,3,1,35,0,0
46960,-100,4,3,1,45,0,0
47472,-100,4,3,1,55,0,0
47857,-100,4,3,1,70,0,0
48498,-100,4,3,1,70,0,0
62985,-100,4,3,1,70,0,0
64908,-100,4,3,1,60,0,0
79395,-100,4,3,1,70,0,0
81319,-100,4,3,1,70,0,0
85421,-100,4,3,1,70,0,0
89524,-100,4,3,1,70,0,0
93113,-100,4,3,1,70,0,0
95678,259.74025974026,4,3,1,70,1,0
96716,272.727272727273,4,3,1,70,1,0
97806,288.115246098439,4,3,1,70,1,0
99534,303.030303030303,4,3,1,70,1,0
118513,256.410256410256,4,3,1,70,1,0
119025,-100,4,3,1,30,0,0
119282,-100,4,3,1,35,0,0
119538,-200,4,3,1,40,0,0
127230,-100,4,3,1,70,0,0
135948,-100,4,3,1,70,0,0
140051,-100,4,3,1,70,0,0
144282,-100,4,3,1,70,0,0
147615,-100,4,3,1,70,0,0
158512,-100,4,3,1,70,0,0
160179,-100,4,3,1,70,0,0
172871,-100,4,3,1,70,0,0
173384,-100,4,3,1,70,0,0
173897,-100,4,3,1,70,0,0
174410,-100,4,3,1,70,0,0
174923,-100,4,3,1,70,0,0
178641,-100,4,3,1,70,0,0
179025,-100,4,3,1,70,0,0
187230,-100,4,3,1,70,0,0
189282,-100,4,3,1,70,0,0
197487,-100,4,3,1,70,0,0
209538,-100,4,3,1,70,0,0
209795,-100,4,3,1,70,0,0
224154,-100,4,3,1,70,0,0
226205,-100,4,3,1,70,0,0
240564,-100,4,3,1,70,0,0
242743,-100,4,3,1,70,0,0
244795,-100,4,3,1,70,0,0

[Colours]
Combo1 : 202,202,149
Combo2 : 145,200,200
Combo3 : 180,180,180
Combo4 : 128,128,255

[HitObjects]
129,161,30036,5,2,0:2:0:0:
141,176,30165,2,0,L|132:250,1,70,2|2,0:2|0:2,0:0:0:0:
234,281,30678,1,2,0:2:0:0:
232,304,30806,1,2,0:2:0:0:
231,325,30934,1,0,0:0:0:0:
313,361,31062,5,2,0:2:0:0:
316,342,31190,2,0,L|323:264,1,70,2|2,0:2|0:2,0:0:0:0:
423,234,31703,1,2,0:2:0:0:
427,213,31831,1,2,0:2:0:0:
430,191,31960,1,0,0:0:0:0:
372,123,32088,5,2,0:2:0:0:
376,107,32216,1,2,0:2:0:0:
282,50,32472,1,2,0:2:0:0:
281,36,32601,6,0,P|249:26|205:22,1,70,2|0,0:2|0:0,0:0:0:0:
125,73,33113,2,0,P|137:104|64:172,1,140,4|0,0:2|0:0,0:0:0:0:
0,275,34139,5,2,0:2:0:0:
11,266,34267,2,0,L|91:275,1,70,2|2,0:2|0:2,0:0:0:0:
162,340,34780,1,2,0:2:0:0:
177,336,34908,1,2,0:2:0:0:
190,332,35036,1,0,0:0:0:0:
236,262,35165,5,2,0:2:0:0:
249,271,35293,2,0,L|332:265,1,70,2|2,0:2|0:2,0:0:0:0:
382,184,35806,1,2,0:2:0:0:
396,179,35934,1,2,0:2:0:0:
410,175,36062,1,0,0:0:0:0:
449,95,36190,5,2,0:2:0:0:
433,85,36319,1,2,0:2:0:0:
352,30,36575,1,2,0:2:0:0:
340,47,36703,6,0,P|328:75|317:113,1,70,2|0,0:2|0:0,0:0:0:0:
172,156,37216,2,0,P|204:149|262:224,1,140,4|0,0:2|0:0,0:0:0:0:
106,348,38242,5,2,0:2:0:0:
115,332,38370,2,0,L|200:323,1,70,2|2,0:2|0:2,0:0:0:0:
279,362,38883,1,2,0:2:0:0:
297,356,39011,1,2,0:2:0:0:
315,350,39139,1,0,0:0:0:0:
364,278,39267,5,2,0:2:0:0:
373,291,39395,2,0,L|450:279,1,70,2|2,0:2|0:2,0:0:0:0:
480,187,39908,1,2,0:2:0:0:
466,182,40036,1,2,0:2:0:0:
453,179,40165,1,0,0:0:0:0:
392,116,40293,5,2,0:2:0:0:
384,127,40421,1,2,0:2:0:0:
281,150,40678,1,2,0:2:0:0:
285,168,40806,2,0,P|272:200|226:218,1,70,2|0,0:2|0:0,0:0:0:0:
76,191,41319,2,0,P|129:201|130:286,1,140,4|0,0:2|0:0,0:0:0:0:
9,76,42344,5,2,0:2:0:0:
23,63,42472,2,0,L|95:54,1,70,2|2,0:2|0:2,0:0:0:0:
172,116,42985,1,2,0:2:0:0:
187,110,43113,1,2,0:2:0:0:
199,105,43242,1,0,0:0:0:0:
263,40,43370,5,2,0:2:0:0:
276,44,43498,2,0,B|294:67|294:67|302:106,1,70,2|2,0:2|0:2,0:0:0:0:
393,159,44011,1,2,0:2:0:0:
388,176,44139,1,2,0:2:0:0:
383,192,44267,1,0,0:0:0:0:
455,241,44395,6,0,P|438:294|419:379,2,140,4|0|4,0:3|0:0|0:2,0:0:0:0:
256,192,45678,12,0,47729,0:0:0:0:
412,40,47857,5,0,1:0:0:0:
409,57,47921,1,0,1:0:0:0:
405,72,47985,1,0,1:0:0:0:
335,113,48113,2,0,L|346:275,1,140,4|0,0:3|0:0,0:0:0:0:
233,261,48498,5,4,0:1:0:0:
190,192,48626,2,0,P|162:152|131:129,1,70,0|0,1:0|0:0,0:0:0:0:
176,59,48883,2,0,B|100:41|122:91|24:64,1,140,4|0,0:3|1:0,0:0:0:0:
244,16,49267,1,0,1:0:0:0:
321,84,49395,6,0,P|330:142|426:145,1,140,0|4,1:0|0:3,0:0:0:0:
480,91,49780,1,0,1:0:0:0:
428,31,49908,2,0,P|420:103|411:195,1,140,4|0,0:3|1:0,0:0:0:0:
417,271,50293,1,4,0:3:0:0:
340,299,50421,1,0,1:0:0:0:
245,259,50549,5,4,0:1:0:0:
305,204,50678,2,0,P|313:155|319:111,1,70,0|0,1:0|0:0,0:0:0:0:
105,111,50934,2,0,P|124:164|215:153,1,140,4|0,0:3|1:0,0:0:0:0:
12,240,51319,1,0,1:0:0:0:
19,161,51447,2,0,P|52:219|82:305,1,140,4|4,1:0|0:3,0:0:0:0:
143,338,51831,1,0,1:0:0:0:
225,352,51960,1,4,0:1:0:0:
298,312,52088,2,0,P|308:249|308:223,1,70,0|4,1:0|0:3,0:0:0:0:
351,80,52344,5,0,1:0:0:0:
391,153,52472,1,4,0:3:0:0:
448,16,52601,5,4,0:1:0:0:
367,67,52729,2,0,P|320:57|270:48,1,70,0|0,1:0|0:0,0:0:0:0:
151,66,52985,2,0,P|192:72|219:166,1,140,4|0,0:3|1:0,0:0:0:0:
99,282,53370,1,0,1:0:0:0:
27,238,53498,2,0,P|88:234|173:226,1,140,0|4,1:0|0:3,0:0:0:0:
266,384,53883,1,0,1:0:0:0:
217,310,54011,2,0,B|288:268|293:339|366:279,1,140,4|0,0:3|1:0,0:0:0:0:
501,216,54395,1,4,0:3:0:0:
436,265,54524,1,0,1:0:0:0:
387,199,54652,6,0,P|376:165|380:134,2,46.6666666666667,0|4|4,1:0|0:3|0:3,0:0:0:0:
287,140,54908,2,0,P|276:118|241:92,2,46.6666666666667,0|4|4,1:0|0:3|0:3,0:0:0:0:
228,201,55165,1,0,1:0:0:0:
189,185,55250,1,4,0:3:0:0:
144,198,55336,1,4,0:3:0:0:
108,231,55421,1,0,1:0:0:0:
58,236,55507,1,4,0:3:0:0:
22,213,55592,1,4,0:3:0:0:
13,166,55678,5,0,1:0:0:0:
35,214,55763,1,0,1:0:0:0:
34,270,55848,1,0,1:0:0:0:
8,314,55934,1,0,1:0:0:0:
166,334,56190,6,0,L|157:379,2,35,0|0|0,1:0|1:0|1:0,0:0:0:0:
241,286,56447,2,0,P|248:331|260:377,1,70,4|4,0:3|0:3,0:3:0:0:
377,294,56703,5,4,0:1:0:0:
347,219,56831,2,0,L|357:139,1,70,0|0,1:0|0:0,0:0:0:0:
197,30,57088,2,0,P|230:82|314:58,1,140,4|0,0:3|1:0,0:0:0:0:
368,28,57472,1,0,1:0:0:0:
250,172,57601,2,0,P|188:162|105:156,1,140,0|4,1:0|0:3,0:0:0:0:
37,306,57985,1,0,1:0:0:0:
18,226,58113,2,0,B|101:218|73:263|165:252,1,140,4|0,0:3|1:0,0:0:0:0:
329,285,58498,1,4,0:3:0:0:
269,360,58626,1,0,1:0:0:0:
240,276,58754,5,4,0:1:0:0:
338,292,58883,2,0,P|368:301|414:330,1,70,0|0,1:0|0:0,0:0:0:0:
323,186,59139,2,0,P|360:205|463:203,1,140,4|0,0:3|1:0,0:0:0:0:
311,105,59524,1,0,1:0:0:0:
230,157,59652,2,0,P|231:87|234:18,1,140,4|4,1:0|0:3,0:0:0:0:
149,178,60036,1,0,1:0:0:0:
70,162,60165,1,4,0:1:0:0:
208,252,60293,6,0,P|199:294|193:339,1,70,0|4,1:0|0:3,0:0:0:0:
293,355,60549,1,0,1:0:0:0:
293,346,60613,1,0,1:0:0:0:
296,337,60677,1,0,1:0:0:0:
426,285,60805,5,4,0:3:0:0:
349,261,60934,2,0,P|355:204|357:165,1,70,0|4,1:0|0:3,0:0:0:0:
229,137,61190,5,4,0:3:0:0:
306,112,61319,2,0,P|299:58|295:22,1,70,0|4,1:0|0:3,0:0:0:0:
115,211,61575,5,0,1:0:0:0:
40,179,61703,2,0,P|33:123|32:95,1,70,4|4,0:3|0:3,0:0:0:0:
205,306,61960,5,0,1:0:0:0:
268,257,62088,2,0,P|267:239|267:222,2,35,4|4|0,0:3|0:3|1:0,0:0:0:0:
370,265,62344,5,4,0:3:0:0:
373,280,62408,1,4,0:3:0:0:
375,294,62472,1,4,0:3:0:0:
453,315,62601,1,4,0:3:0:0:
506,253,62729,1,4,0:3:0:0:
382,174,62857,6,0,L|375:92,1,70,4|0,1:0|1:0,0:0:0:0:
205,112,63242,1,0,1:0:0:0:
470,97,63498,1,0,1:0:0:0:
205,112,63754,1,0,1:0:0:0:
470,97,64010,1,0,1:0:0:0:
205,112,64267,1,4,1:0:0:0:
143,27,64395,1,4,0:3:0:0:
299,84,64524,2,0,L|310:241,1,140,0|4,1:0|0:3,0:0:0:0:
385,287,64908,5,4,1:0:0:0:
220,122,68498,5,0,1:0:0:0:
221,137,68562,1,0,1:0:0:0:
222,149,68626,1,0,1:0:0:0:
281,206,68754,2,0,L|269:286,1,70,8|8,0:0|0:0,0:0:0:0:
331,331,69011,1,4,1:0:0:0:
205,117,73113,5,4,1:0:0:0:
281,148,73242,1,0,0:0:0:0:
362,139,73370,1,0,1:0:0:0:
417,80,73498,2,0,P|400:142|385:229,1,140,4|4,0:3|0:3,0:0:0:0:
464,240,73883,1,0,1:0:0:0:
284,277,74139,5,4,0:3:0:0:
208,249,74267,2,0,P|171:238|62:213,1,140,2|4,0:2|0:3,0:0:0:0:
216,162,74652,2,0,P|230:156|273:145,2,35,4|4|0,0:3|0:3|1:0,0:0:0:0:
107,73,74908,2,0,P|129:116|140:148,1,70,4|0,0:3|1:3,0:0:0:0:
286,16,75165,5,4,0:3:0:0:
340,78,75293,1,0,0:0:0:0:
360,157,75421,1,0,1:0:0:0:
335,235,75549,2,0,P|324:281|313:316,1,70,4|0,0:3|0:0,0:0:0:0:
256,357,75806,1,4,0:3:0:0:
256,357,75870,1,4,0:3:0:0:
256,357,75934,1,0,1:0:0:0:
108,234,76190,5,4,0:3:0:0:
182,207,76319,1,2,0:2:0:0:
118,154,76447,1,0,1:3:0:0:
108,241,76575,1,4,0:3:0:0:
189,216,76703,2,0,L|232:231,2,35,0|0|0,1:0|1:0|1:0,0:0:0:0:
304,163,76960,1,4,0:3:0:0:
391,208,77088,1,0,1:0:0:0:
404,97,77216,5,4,1:0:0:0:
483,111,77344,2,0,P|486:145|493:192,1,70,4|0,0:3|0:0,0:0:0:0:
351,295,77601,5,0,1:0:0:0:
272,310,77729,2,0,P|270:340|268:382,1,70,4|4,0:3|0:3,0:0:0:0:
129,182,77985,5,0,1:0:0:0:
53,212,78113,2,0,P|66:254|75:297,1,70,4|0,0:3|0:0,0:0:0:0:
172,41,78370,5,0,1:0:0:0:
251,56,78498,2,0,P|258:102|268:144,1,70,4|0,0:3|0:0,0:0:0:0:
401,26,78754,5,0,1:0:0:0:
403,37,78819,1,0,1:0:0:0:
404,47,78883,1,0,1:0:0:0:
470,93,79011,1,4,0:3:0:0:
440,169,79139,1,4,0:3:0:0:
360,198,79267,6,0,L|357:281,1,70,4|0,1:0|1:0,0:0:0:0:
198,260,79652,1,2,1:3:0:0:
442,273,79908,1,0,1:0:0:0:
198,260,80165,1,2,1:3:0:0:
442,273,80421,1,0,1:0:0:0:
198,260,80678,1,4,1:0:0:0:
241,346,80806,1,4,0:3:0:0:
267,185,80934,2,0,L|283:26,1,140,0|0,1:0|0:0,0:0:0:0:
194,18,81319,6,0,P|162:95|97:83,1,140,4|0,1:0|0:0,0:0:0:0:
1,179,81703,2,0,B|80:166|50:225|161:188,1,140,4|4,0:3|0:3,0:0:0:0:
133,300,82088,2,0,P|119:303|75:324,2,35,0|0|0,1:0|0:0|0:0,0:0:0:0:
232,277,82344,5,0,1:3:0:0:
311,298,82472,2,0,L|317:377,1,70,4|0,0:3|0:0,0:0:0:0:
471,185,82729,2,0,P|460:230|365:238,1,140,4|0,0:3|1:0,0:0:0:0:
257,133,83113,1,4,0:3:0:0:
343,76,83242,1,0,1:0:0:0:
336,177,83370,6,0,P|253:154|197:147,1,140,4|0,1:1|1:0,0:0:0:0:
153,83,83754,1,4,0:3:0:0:
70,176,83883,2,0,P|102:234|178:207,1,140,4|0,0:3|1:0,0:0:0:0:
203,154,84267,1,0,0:0:0:0:
263,275,84395,2,0,P|261:314|256:363,1,70,4|4,0:3|0:3,0:0:0:0:
427,154,84652,2,0,P|435:103|439:74,1,70,0|4,1:0|0:3,0:0:0:0:
363,208,84908,1,0,1:0:0:0:
283,195,85036,1,4,0:3:0:0:
251,56,85165,5,0,1:0:0:0:
347,84,85293,1,4,0:3:0:0:
209,149,85421,6,0,P|153:126|53:115,1,140,4|0,1:0|0:0,0:0:0:0:
189,237,85806,2,0,P|151:284|75:262,1,140,4|4,0:3|0:3,0:0:0:0:
17,214,86190,1,0,1:0:0:0:
191,229,86319,2,0,B|246:233|246:233|269:242|269:242|341:244,1,140,4|4,1:0|0:3,0:0:0:0:
371,311,86703,1,0,1:0:0:0:
190,221,86831,2,0,L|179:54,1,140,4|4,0:3|0:3,0:0:0:0:
256,43,87216,1,0,1:0:0:0:
330,79,87344,1,4,0:3:0:0:
426,10,87472,5,0,1:0:0:0:
333,90,87601,2,0,P|327:141|321:187,1,70,4|0,0:3|0:0,0:0:0:0:
381,222,87857,1,4,0:3:0:0:
381,235,87921,1,4,0:3:0:0:
381,246,87985,1,0,1:0:0:0:
429,312,88113,1,4,0:3:0:0:
507,281,88242,2,0,P|508:227|512:197,1,70,0|4,1:0|0:3,0:0:0:0:
336,326,88498,6,0,P|270:296|192:297,1,140,0|0,1:0|1:0,0:0:0:0:
63,177,88883,2,0,B|128:169|128:169|147:178|147:178|221:165,1,140,4|4,0:3|0:3,0:0:0:0:
272,133,89267,1,0,1:0:0:0:
303,58,89395,1,4,0:3:0:0:
347,179,89524,5,0,1:0:0:0:
277,140,89652,2,0,P|224:108|146:75,1,140,0|0,1:0|0:0,0:0:0:0:
276,225,90036,5,0,1:0:0:0:
350,185,90165,2,0,P|409:160|500:130,1,140,0|0,1:0|0:0,0:0:0:0:
349,269,90549,5,0,1:0:0:0:
279,235,90678,2,0,P|223:208|141:174,1,140,0|0,1:0|0:0,0:0:0:0:
284,316,91062,5,0,1:0:0:0:
354,274,91190,2,0,P|396:254|434:244,1,70,0|0,1:0|0:0,0:0:0:0:
496,239,91447,1,4,0:3:0:0:
357,358,91575,5,0,1:0:0:0:
284,325,91703,2,0,P|232:307|205:300,1,70,4|0,0:3|0:0,0:0:0:0:
166,369,91960,2,0,P|114:351|87:344,1,70,4|0,0:3|0:0,0:0:0:0:
76,265,92216,2,0,P|24:247|-3:240,1,70,4|0,0:3|0:0,0:0:0:0:
285,332,92473,2,0,P|233:314|206:307,1,70,4|0,0:3|0:0,0:0:0:0:
173,375,92729,2,0,P|121:357|94:350,1,70,4|0,0:3|0:0,0:0:0:0:
86,260,92985,1,4,0:3:0:0:
166,177,93113,6,0,L|324:163,1,140,0|0,1:0|1:0,0:0:0:0:
315,163,93434,1,0,1:0:0:0:
327,161,93498,1,0,1:0:0:0:
417,147,93626,5,4,1:0:0:0:
402,228,93754,2,0,P|396:268|391:304,1,70,0|4,1:0|0:3,0:0:0:0:
235,69,94011,5,0,1:0:0:0:
157,58,94139,2,0,P|111:54|76:52,1,70,0|4,1:0|0:3,0:0:0:0:
365,8,94395,5,0,1:0:0:0:
423,63,94524,2,0,P|453:57|503:49,1,70,0|4,1:0|0:3,0:0:0:0:
297,211,94780,5,0,1:0:0:0:
233,166,94908,2,0,P|168:158|141:153,1,70,0|4,1:0|0:3,0:0:0:0:
32,219,95165,5,0,1:0:0:0:
90,275,95293,1,0,1:0:0:0:
119,351,95421,1,4,0:3:0:0:
280,331,95678,6,0,P|282:351|282:390,3,35,0|0|0|0,1:0|1:0|1:0|1:0,0:0:0:0:
351,299,95937,1,0,1:0:0:0:
428,318,96067,1,4,0:3:0:0:
475,233,96197,6,0,P|478:207|482:170,3,35,0|0|0|0,1:0|1:0|1:0|1:0,0:0:0:0:
395,225,96457,1,0,1:0:0:0:
333,176,96587,1,4,0:3:0:0:
277,104,96716,6,0,P|279:80|284:30,2,46.6666666666667,0|0|0,1:0|1:0|1:0,0:0:0:0:
198,121,96988,2,0,P|187:95|166:59,2,46.6666666666667,0|0|0,1:0|1:0|1:0,0:0:0:0:
137,194,97261,5,0,1:0:0:0:
214,220,97397,2,0,P|205:265|187:362,1,140,4|0,0:3|1:0,0:0:0:0:
187,365,97738,1,0,1:0:0:0:
189,376,97806,1,4,0:3:0:0:
119,191,99534,5,0,1:0:0:0:
207,238,99685,1,0,1:0:0:0:
303,221,99837,1,0,1:0:0:0:
360,142,99988,1,0,1:0:0:0:
175,106,119538,5,2,0:2:0:0:
179,123,119666,1,2,0:2:0:0:
258,183,119923,2,0,L|250:253,1,70,2|2,0:2|0:2,0:0:0:0:
255,267,120307,1,0,0:0:0:0:
260,281,120436,1,2,0:2:0:0:
337,304,120564,5,2,0:2:0:0:
337,322,120692,1,2,0:2:0:0:
414,248,120948,2,0,L|420:165,1,70,2|2,0:2|0:2,0:0:0:0:
421,166,121333,1,2,0:2:0:0:
422,153,121461,1,0,0:0:0:0:
393,70,121589,5,2,0:2:0:0:
377,66,121718,2,0,P|334:74|300:75,1,70,2|2,0:2|0:2,0:0:0:0:
210,131,122230,1,2,0:2:0:0:
197,123,122359,1,2,0:2:0:0:
182,116,122487,1,0,0:0:0:0:
101,135,122615,5,2,0:2:0:0:
97,121,122743,1,2,0:2:0:0:
49,220,123000,1,2,0:2:0:0:
34,209,123128,1,0,0:0:0:0:
21,197,123256,1,2,0:2:0:0:
90,296,123512,1,2,0:2:0:0:
81,306,123641,6,0,P|91:332|96:349,1,35,2|0,0:2|0:0,0:0:0:0:
172,354,123897,2,0,P|185:341|189:320,1,35,2|0,0:2|0:0,0:0:0:0:
267,297,124154,2,0,P|295:290|351:282,1,70,2|0,0:2|0:0,0:0:0:0:
433,148,124666,6,0,P|419:137|392:128,1,35,2|0,0:2|0:0,0:0:0:0:
326,103,124923,2,0,P|306:104|286:117,1,35,2|0,0:2|0:0,0:0:0:0:
229,161,125179,2,0,P|193:172|153:152,1,70,2|0,0:2|0:0,0:0:0:0:
88,99,125692,5,2,0:2:0:0:
60,190,126205,1,2,0:2:0:0:
88,281,126718,1,2,0:2:0:0:
213,334,126974,6,0,L|207:365,3,17.5,0|0|0|0,1:0|1:0|1:0|1:0,0:0:0:0:
282,290,127230,1,4,1:0:0:0:
178,232,127359,2,0,P|204:274|289:285,1,140,4|0,0:3|0:0,0:0:0:0:
354,230,127743,5,4,1:0:0:0:
444,287,127871,2,0,P|438:328|431:368,1,70,4|0,0:3|0:0,0:0:0:0:
434,185,128128,2,0,B|409:128|409:128|424:48,1,140,0|0,1:0|1:0,0:0:0:0:
244,29,128512,1,4,0:3:0:0:
230,121,128641,1,0,1:0:0:0:
343,9,128769,6,0,L|314:146,1,140,4|2,1:0|0:2,0:0:0:0:
284,189,129111,2,0,L|267:262,1,46.6666666666667,2|2,0:2|0:2,0:0:0:0:
237,263,129282,1,0,1:2:0:0:
166,299,129410,2,0,P|112:312|41:258,1,140,0|0,1:0|1:0,0:0:0:0:
206,370,129795,5,4,1:0:0:0:
281,339,129923,1,2,0:2:0:0:
363,335,130051,1,0,1:0:0:0:
441,348,130179,1,4,0:3:0:0:
466,263,130307,6,0,P|495:260|535:261,2,46.6666666666667,2|0|0,1:2|1:0|1:0,0:0:0:0:
404,213,130564,2,0,P|374:182|329:159,1,70,4|4,0:3|0:3,0:0:0:0:
364,86,130820,6,0,P|392:49|434:28,1,70,4|0,1:0|0:0,0:0:0:0:
285,76,131077,2,0,P|265:28|245:5,1,70,0|4,0:0|0:3,0:0:0:0:
75,76,131333,2,0,P|143:73|230:121,1,140,0|4,1:0|0:3,0:0:0:0:
261,316,131846,5,4,1:0:0:0:
185,285,131974,2,0,L|170:195,1,70,0|0,1:0|0:0,0:0:0:0:
102,300,132230,2,0,L|86:206,1,70,0|0,1:0|0:0,0:0:0:0:
342,278,132487,1,0,1:0:0:0:
415,312,132615,1,4,0:3:0:0:
409,129,132871,5,4,1:0:0:0:
486,101,133000,2,0,L|495:25,1,70,0|0,1:0|0:0,0:0:0:0:
328,143,133256,1,0,1:0:0:0:
247,127,133384,1,4,0:3:0:0:
177,79,133512,2,0,P|176:32|174:-7,1,70,4|0,0:3|0:0,0:0:0:0:
89,106,133769,1,0,1:0:0:0:
0,140,133897,5,0,1:0:0:0:
56,200,134025,2,0,P|51:246|44:288,1,70,0|4,1:0|0:3,0:0:0:0:
254,281,134282,2,0,P|260:334|262:369,1,70,4|0,0:3|1:0,0:0:0:0:
411,200,134538,1,0,1:0:0:0:
479,157,134666,2,0,P|492:199|503:233,1,70,4|4,0:3|0:3,0:0:0:0:
329,39,134923,5,0,1:0:0:0:
247,39,135051,2,0,P|196:44|158:53,1,70,0|0,1:0|1:0,0:0:0:0:
102,72,135307,1,0,1:0:0:0:
28,148,135436,5,0,1:0:0:0:
94,196,135564,1,4,0:3:0:0:
94,207,135628,1,4,0:3:0:0:
94,217,135692,1,4,0:3:0:0:
176,205,135820,1,4,0:3:0:0:
253,172,135948,6,0,B|343:145|343:145|404:102,1,140,4|0,1:0|1:0,0:0:0:0:
410,41,136333,1,4,0:3:0:0:
458,201,136589,1,4,0:3:0:0:
456,210,136654,1,4,0:3:0:0:
454,221,136718,2,0,P|448:272|448:307,1,70,0|0,1:0|0:0,0:0:0:0:
378,360,136974,5,0,1:0:0:0:
325,302,137102,2,0,P|272:285|227:282,1,70,4|0,0:3|0:0,0:0:0:0:
82,352,137359,2,0,P|166:359|179:298,1,140,4|0,0:3|1:0,0:0:0:0:
111,161,137743,1,4,0:3:0:0:
75,249,137871,1,0,1:0:0:0:
193,236,138000,6,0,P|232:180|320:176,1,140,4|0,1:0|1:0,0:0:0:0:
374,195,138384,1,4,0:3:0:0:
260,83,138512,2,0,P|212:73|106:65,1,140,4|0,0:3|1:0,0:0:0:0:
41,82,138897,1,0,0:0:0:0:
272,0,139025,5,4,0:3:0:0:
336,52,139154,1,4,0:3:0:0:
414,70,139282,1,0,1:0:0:0:
493,53,139410,1,4,0:3:0:0:
494,137,139538,5,0,1:0:0:0:
488,143,139602,1,0,1:0:0:0:
484,150,139666,1,4,0:3:0:0:
428,206,139795,2,0,P|421:251|414:298,1,70,0|4,1:0|0:3,0:0:0:0:
260,342,140051,6,0,B|194:328|194:328|186:316|186:316|103:300,1,140,4|0,1:1|1:0,0:0:0:0:
19,163,140436,2,0,P|58:154|111:242,1,140,4|4,0:3|0:3,0:0:0:0:
51,273,140820,1,0,1:0:0:0:
197,191,140948,6,0,P|205:118|214:34,1,140,4|4,1:0|0:3,0:0:0:0:
281,6,141333,1,0,1:0:0:0:
427,98,141461,2,0,B|355:66|374:129|267:77,1,140,4|0,0:3|1:0,0:0:0:0:
391,174,141846,1,4,0:3:0:0:
473,168,141974,1,0,1:0:0:0:
488,259,142102,5,4,1:0:0:0:
413,290,142230,2,0,P|383:304|344:349,1,70,4|0,0:3|0:0,0:0:0:0:
187,351,142487,1,4,0:3:0:0:
187,351,142551,1,4,0:3:0:0:
187,351,142615,1,0,1:0:0:0:
272,365,142743,2,0,P|262:296|238:230,1,140,4|0,0:3|1:0,0:0:0:0:
122,120,143128,5,0,1:0:0:0:
202,134,143256,1,0,1:0:0:0:
280,111,143384,1,0,1:0:0:0:
334,52,143512,2,0,P|321:106|305:211,1,140,4|0,0:3|1:0,0:0:0:0:
376,232,143897,2,0,P|387:269|393:314,1,70,4|0,0:3|1:0,0:0:0:0:
229,227,144154,5,4,1:0:0:0:
151,209,144282,2,0,P|71:187|-11:170,1,140,0|0,1:0|0:0,0:0:0:0:
132,292,144666,5,0,1:0:0:0:
151,213,144795,2,0,P|171:132|185:51,1,140,0|0,1:0|0:0,0:0:0:0:
47,266,145179,5,0,1:0:0:0:
135,298,145307,2,0,P|198:307|277:314,1,140,0|0,1:0|0:0,0:0:0:0:
146,210,145692,5,0,1:0:0:0:
130,292,145820,2,0,P|121:337|117:372,1,70,0|4,1:0|0:3,0:0:0:0:
126,371,146077,1,4,0:3:0:0:
41,273,146205,5,0,1:0:0:0:
54,189,146333,2,0,P|63:135|69:103,1,70,4|0,0:3|0:0,0:0:0:0:
140,84,146589,2,0,P|149:30|155:0,1,70,4|0,0:3|0:0,0:0:0:0:
208,207,146846,2,0,P|217:153|223:121,1,70,4|0,0:3|0:0,0:0:0:0:
68,196,147102,2,0,P|77:142|83:112,1,70,4|0,0:3|0:0,0:0:0:0:
151,91,147359,2,0,P|160:37|166:5,1,70,4|0,0:3|0:0,0:0:0:0:
210,214,147615,1,4,0:3:0:0:
289,223,147743,2,0,P|273:296|262:379,1,140,0|0,1:0|1:0,0:0:0:0:
492,293,148256,5,4,1:0:0:0:
434,239,148384,2,0,P|435:183|435:154,1,70,0|4,1:0|0:3,0:0:0:0:
231,140,148641,5,0,1:0:0:0:
301,99,148769,2,0,P|308:53|313:22,1,70,0|4,1:0|0:3,0:0:0:0:
107,280,149025,5,0,1:0:0:0:
44,229,149154,2,0,P|34:172|30:132,1,70,0|4,1:0|0:3,0:0:0:0:
286,362,149410,5,0,1:0:0:0:
325,292,149538,2,0,P|337:240|341:206,1,70,0|4,1:0|0:3,0:0:0:0:
67,83,149795,5,0,1:0:0:0:
116,150,149923,2,0,P|139:171|183:201,1,70,0|0,1:0|0:0,0:0:0:0:
243,227,150179,1,4,0:3:0:0:
329,140,150307,5,4,1:0:0:0:
410,139,150436,2,0,P|460:147|499:156,1,70,0|4,1:0|0:3,0:0:0:0:
179,303,150692,5,0,1:0:0:0:
97,296,150820,2,0,P|51:292|19:292,1,70,0|4,1:0|0:3,0:0:0:0:
253,106,151077,5,0,1:0:0:0:
317,54,151205,2,0,P|370:42|415:37,1,70,0|4,1:0|0:3,0:0:0:0:
104,163,151461,5,0,1:0:0:0:
28,130,151589,2,0,P|15:75|15:51,1,70,0|4,1:0|0:3,0:0:0:0:
303,207,151846,5,0,1:0:0:0:
361,267,151974,1,0,1:0:0:0:
362,278,152038,1,0,1:0:0:0:
365,288,152102,2,0,P|371:334|380:384,1,70,4|4,0:3|0:3,0:0:0:0:
193,340,152359,5,4,1:0:0:0:
119,310,152487,2,0,P|108:272|96:228,1,70,4|4,1:0|0:3,0:0:0:0:
392,158,152743,5,4,1:0:0:0:
470,189,152871,2,0,P|488:130|497:95,1,70,4|4,1:0|0:3,0:0:0:0:
246,50,153128,5,4,1:0:0:0:
168,77,153256,2,0,P|93:70|70:69,1,70,4|4,0:3|1:0,0:0:0:0:
270,323,153512,5,4,1:0:0:0:
328,267,153641,2,0,P|380:257|424:250,1,70,4|4,1:0|0:3,0:0:0:0:
19,182,153897,5,4,1:0:0:0:
90,223,154025,2,0,P|114:262|129:300,1,70,4|0,1:0|0:0,0:0:0:0:
134,362,154282,1,4,0:3:0:0:
214,207,154410,6,0,P|226:234|237:259,3,35,4|0|0|0,1:0|1:0|1:0|1:0,0:0:0:0:
225,126,154666,1,0,1:0:0:0:
281,67,154795,1,4,0:3:0:0:
377,50,154923,5,0,1:0:0:0:
375,42,154987,1,0,1:0:0:0:
373,33,155051,1,0,1:0:0:0:
458,66,155179,2,0,P|468:107|477:142,1,70,4|4,0:3|0:3,0:0:0:0:
402,201,155436,6,0,P|390:233|379:289,2,46.6666666666667,0|0|0,1:0|1:0|1:0,0:0:0:0:
308,265,155692,2,0,P|317:303|321:316,2,46.6666666666667,0|0|0,1:0|1:0|1:0,0:0:0:0:
233,364,155948,5,0,1:0:0:0:
160,330,156077,2,0,P|106:314|9:307,1,140,4|0,0:3|1:0,0:0:0:0:
51,219,156461,6,0,P|35:214|18:211,7,35,4|0|0|0|0|0|0|0,0:3|0:3|0:3|0:3|0:3|0:3|0:3|0:3,0:0:0:0:
113,161,156974,2,0,P|117:123|123:104,3,35,4|0|0|0,0:3|0:0|0:0|0:0,0:0:0:0:
195,185,157230,2,0,P|206:200|217:235,3,35,0|0|0|0,0:0|0:0|0:0|0:0,0:0:0:0:
246,117,157487,6,0,P|240:90|227:60,1,35,0|0,1:0|1:0,0:0:0:0:
329,105,157615,2,0,P|342:78|354:54,1,35,0|0,1:0|1:0,0:0:0:0:
404,143,157743,2,0,P|434:141|458:142,1,35,0|0,1:0|1:0,0:0:0:0:
422,224,157871,2,0,P|446:239|465:261,1,35,0|0,1:0|1:0,0:0:0:0:
391,302,158000,2,0,P|405:327|415:362,1,35,0|0,1:0|1:0,0:0:0:0:
304,292,158128,6,0,P|248:294|148:300,1,140,4|0,0:3|1:0,0:0:0:0:
12,275,158512,5,4,1:0:0:0:
71,330,158641,2,0,P|65:351|60:380,2,35,0|0|4,1:0|1:3|0:3,0:0:0:0:
91,170,158897,5,0,1:0:0:0:
53,101,159025,2,0,P|43:75|36:47,2,35,0|0|4,1:0|1:0|0:3,0:0:0:0:
244,121,159282,5,0,1:0:0:0:
311,75,159410,2,0,P|334:65|355:60,2,35,0|0|4,1:0|1:0|0:3,0:0:0:0:
308,250,159666,5,0,1:0:0:0:
375,296,159795,1,4,0:3:0:0:
377,309,159859,1,4,0:3:0:0:
377,322,159923,1,4,0:3:0:0:
456,278,160051,5,0,1:0:0:0:
502,215,160179,2,0,P|500:134|495:59,1,140,4|0,0:3|0:0,0:0:0:0:
394,168,160564,5,4,1:0:0:0:
311,157,160692,2,0,P|253:149|214:144,1,70,4|0,0:3|0:0,0:0:0:0:
48,222,160948,2,0,P|54:171|64:120,1,70,4|0,0:3|1:0,0:0:0:0:
206,245,161205,2,0,P|198:297|193:340,1,70,4|0,0:3|0:0,0:0:0:0:
150,117,161461,2,0,P|162:56|238:64,1,140,4|0,0:3|0:3,0:0:0:0:
443,49,161846,1,4,0:3:0:0:
368,15,161974,2,0,P|357:60|349:97,1,70,0|0,1:0|0:0,0:0:0:0:
461,209,162230,2,0,P|452:235|444:282,1,70,0|0,1:0|0:0,0:0:0:0:
440,360,162487,1,0,1:0:0:0:
325,323,162615,6,0,B|247:295|272:346|157:300,1,140,4|4,1:0|0:3,0:0:0:0:
28,235,163000,1,0,0:0:0:0:
106,219,163128,2,0,P|107:277|111:391,1,140,0|0,1:0|0:0,0:0:0:0:
53,157,163512,1,4,0:3:0:0:
185,199,163641,6,0,B|197:138|197:138|206:118|206:118|216:37,1,140,4|4,0:3|0:3,0:0:0:0:
297,80,164025,2,0,P|292:36|292:2,1,70,4|0,0:3|0:0,0:0:0:0:
484,119,164282,2,0,P|417:115|353:145,1,140,0|0,1:0|0:0,0:0:0:0:
318,268,164666,6,0,P|323:320|327:353,1,70,4|0,1:0|0:0,0:0:0:0:
402,358,164923,1,4,0:3:0:0:
476,332,165051,1,4,0:3:0:0:
307,264,165179,2,0,B|231:261|231:261|219:252|219:252|143:251,1,140,0|0,1:0|0:0,0:0:0:0:
111,196,165564,2,0,P|53:195|20:195,1,70,4|0,0:3|0:0,0:0:0:0:
174,38,165948,5,0,1:0:0:0:
185,89,166034,1,0,1:0:0:0:
232,111,166119,1,0,1:0:0:0:
280,97,166205,2,0,P|301:84|364:65,1,70,0|4,1:0|0:3,0:0:0:0:
357,68,166718,6,0,P|351:120|349:153,1,70,4|0,1:0|0:0,0:0:0:0:
464,262,166974,2,0,P|458:304|454:344,1,70,4|4,0:3|0:3,0:0:0:0:
152,244,167230,2,0,P|225:245|322:250,1,140,0|0,1:0|1:0,0:0:0:0:
373,249,167615,1,4,0:3:0:0:
273,330,167743,5,4,0:3:0:0:
250,165,167871,2,0,B|239:118|239:118|241:105|241:105|214:3,1,140,0|0,1:0|1:0,0:0:0:0:
150,103,168256,1,4,0:3:0:0:
326,121,168384,2,0,L|420:107,1,70,0|0,1:0|0:0,0:0:0:0:
477,96,168641,1,0,1:0:0:0:
505,214,168769,5,4,1:0:0:0:
426,232,168897,2,0,P|387:245|355:261,1,70,4|0,0:3|0:0,0:0:0:0:
163,225,169154,2,0,P|107:240|74:249,1,70,4|0,0:3|0:0,0:0:0:0:
257,299,169410,1,4,0:3:0:0:
265,218,169538,1,0,1:0:0:0:
244,138,169666,2,0,P|229:76|209:-6,1,140,4|0,0:3|1:0,0:0:0:0:
60,92,170051,1,4,0:3:0:0:
146,96,170179,2,0,P|132:44|126:8,1,70,0|4,1:0|0:3,0:0:0:0:
435,95,170436,1,0,1:0:0:0:
352,102,170564,2,0,P|365:49|375:8,1,70,4|0,0:3|0:0,0:0:0:0:
491,273,170820,6,0,B|434:269|434:269|420:274|420:274|331:266,1,140,4|0,1:0|1:0,0:0:0:0:
154,335,171205,2,0,L|60:328,1,70,4|0,0:3|0:0,0:0:0:0:
423,359,171461,2,0,L|341:351,1,70,4|0,0:3|0:0,0:0:0:0:
168,249,171718,2,0,L|85:247,1,70,4|0,0:3|0:0,0:0:0:0:
427,186,171974,2,0,L|336:182,1,70,4|0,0:3|0:0,0:0:0:0:
224,174,172230,1,4,0:3:0:0:
262,246,172359,2,0,P|265:152|269:81,1,140,0|0,1:0|0:0,0:0:0:0:
46,31,172871,6,0,P|67:99|134:91,1,140,4|4,1:0|0:3,0:0:0:0:
164,28,173256,1,4,0:3:0:0:
114,202,173384,6,0,L|86:347,1,140,0|0,1:0|0:0,0:0:0:0:
6,347,173769,1,0,0:0:0:0:
217,284,173897,6,0,P|215:340|290:362,1,140,4|4,1:0|0:3,0:0:0:0:
354,323,174282,1,4,0:3:0:0:
297,177,174410,5,0,1:0:0:0:
370,143,174538,2,0,P|376:86|388:-6,1,140,4|0,0:3|0:0,0:0:0:0:
500,170,174923,5,4,1:0:0:0:
141,127,178512,5,0,1:0:0:0:
208,170,178641,2,0,P|210:223|215:323,1,140,4|0,0:3|0:0,0:0:0:0:
389,360,179025,6,0,P|335:357|317:284,1,140,4|4,1:0|0:3,0:0:0:0:
393,261,179410,1,4,0:3:0:0:
507,163,179538,5,0,1:0:0:0:
431,126,179666,2,0,P|430:77|431:47,1,70,4|0,0:3|0:0,0:0:0:0:
343,59,179923,2,0,P|343:124|341:150,1,70,4|0,0:3|0:0,0:0:0:0:
220,81,180307,5,0,1:0:0:0:
186,113,180393,1,0,1:0:0:0:
143,123,180478,1,0,1:0:0:0:
97,111,180564,2,0,P|76:90|27:75,1,70,0|4,1:0|0:3,0:0:0:0:
27,80,181077,6,0,P|28:120|26:174,1,70,4|4,1:0|0:3,0:0:0:0:
234,323,181333,2,0,P|234:275|235:234,1,70,4|4,0:3|0:3,0:0:0:0:
30,327,181589,2,0,P|57:266|150:271,1,140,0|4,1:0|0:3,0:0:0:0:
185,180,181974,6,0,P|189:126|194:89,1,70,4|0,0:3|1:0,0:0:0:0:
363,70,182230,2,0,P|316:144|261:124,1,140,4|0,0:3|0:0,0:0:0:0:
255,58,182615,1,0,1:0:0:0:
448,116,182743,2,0,P|440:175|427:270,1,140,4|0,0:3|0:0,0:0:0:0:
337,341,183128,5,4,1:0:0:0:
200,280,183256,2,0,P|236:311|260:357,1,70,4|0,0:3|0:0,0:0:0:0:
46,330,183512,2,0,P|94:313|93:214,1,140,4|4,0:3|0:3,0:0:0:0:
45,176,183897,1,0,1:0:0:0:
160,11,184025,2,0,P|145:60|125:154,1,140,4|4,0:3|0:3,0:0:0:0:
335,179,184410,1,0,1:0:0:0:
254,206,184538,2,0,P|241:152|230:120,1,70,4|0,0:3|1:0,0:0:0:0:
396,35,184795,2,0,P|407:92|492:118,1,140,4|4,0:3|0:3,0:0:0:0:
508,217,185179,5,4,1:0:0:0:
467,234,185265,1,0,1:0:0:0:
435,267,185350,1,0,1:0:0:0:
420,304,185436,2,0,P|406:342|406:392,1,70,0|4,1:0|0:3,0:0:0:0:
307,300,185692,5,0,1:0:0:0:
271,327,185778,1,0,1:0:0:0:
227,338,185863,1,0,1:0:0:0:
187,332,185949,2,0,P|147:325|103:300,1,70,0|4,1:0|0:3,0:0:0:0:
67,235,186205,6,0,L|59:190,3,35,0|0|0|0,1:0|1:0|1:0|1:0,0:0:0:0:
142,193,186461,2,0,P|138:144|134:94,1,70,0|4,1:0|0:3,0:0:0:0:
223,17,186718,2,0,P|223:103|229:181,1,140,0|0,1:0|0:0,0:0:0:0:
382,163,187230,6,0,P|376:224|447:249,1,140,4|4,1:0|0:3,0:0:0:0:
503,198,187615,1,4,0:3:0:0:
312,299,187743,6,0,P|257:282|173:270,1,140,0|4,1:0|0:3,0:0:0:0:
97,287,188128,1,4,0:3:0:0:
143,155,188256,6,0,P|130:106|49:99,1,140,4|4,1:0|0:3,0:0:0:0:
4,163,188641,1,4,0:3:0:0:
211,24,188769,5,0,1:0:0:0:
258,89,188897,2,0,P|311:84|405:84,1,140,4|4,0:3|0:3,0:0:0:0:
274,209,189282,6,0,P|258:279|244:364,1,140,4|0,1:0|0:0,0:0:0:0:
410,232,189795,1,0,1:0:0:0:
375,303,189923,2,0,P|360:343|351:372,1,70,0|0,0:0|0:0,0:0:0:0:
506,290,190179,2,0,P|499:216|489:124,1,140,4|4,0:3|0:3,0:0:0:0:
295,118,190692,2,0,P|308:82|324:50,1,70,4|0,0:3|1:0,0:0:0:0:
202,122,190948,2,0,P|220:77|232:50,1,70,4|0,0:3|0:0,0:0:0:0:
21,157,191333,6,0,P|81:173|167:228,1,140,4|0,0:3|0:0,0:0:0:0:
317,284,191846,1,0,1:0:0:0:
240,310,191974,2,0,P|199:321|158:331,1,70,4|0,0:3|0:0,0:0:0:0:
339,193,192230,2,0,P|375:201|496:234,1,140,4|4,0:3|0:3,0:0:0:0:
254,96,192743,2,0,P|257:52|267:15,1,70,4|0,0:3|1:0,0:0:0:0:
161,101,193000,2,0,P|141:49|122:28,1,70,4|4,0:3|0:3,0:0:0:0:
496,8,193384,6,0,P|471:60|440:150,1,140,4|0,0:3|0:0,0:0:0:0:
364,133,193769,1,0,0:0:0:0:
494,249,193897,2,0,P|433:262|341:301,1,140,0|0,1:0|0:0,0:0:0:0:
215,258,194282,2,0,P|261:276|297:306,1,70,4|0,0:3|0:3,0:0:0:0:
26,217,194666,1,4,0:3:0:0:
12,139,194795,2,0,P|12:94|8:60,1,70,0|4,1:0|0:3,0:0:0:0:
100,99,195051,2,0,P|96:53|98:22,1,70,0|0,1:0|0:0,0:0:0:0:
284,49,195436,6,0,P|289:126|347:131,1,140,4|4,0:3|0:3,0:0:0:0:
416,104,195820,2,0,P|414:82|424:30,1,70,4|0,0:3|0:0,0:0:0:0:
407,185,196077,2,0,P|413:229|413:283,1,70,4|0,0:3|0:0,0:0:0:0:
489,347,196333,2,0,P|448:339|326:333,1,140,4|0,0:3|0:0,0:0:0:0:
170,291,196718,1,4,0:3:0:0:
237,245,196846,2,0,P|246:192|252:158,1,70,0|4,1:0|0:3,0:0:0:0:
186,125,197102,2,0,P|194:70|202:32,1,70,0|4,1:0|0:3,0:0:0:0:
71,360,197487,6,0,P|122:367|228:385,1,140,4|4,1:0|0:3,0:0:0:0:
290,368,197871,1,4,0:3:0:0:
366,238,198000,2,0,P|335:292|325:329,1,70,0|0,1:0|0:0,0:0:0:0:
382,365,198256,1,0,1:0:0:0:
255,260,198384,2,0,P|248:199|233:99,1,140,4|0,0:3|0:0,0:0:0:0:
22,120,198769,1,4,0:3:0:0:
98,97,198897,2,0,P|105:54|110:25,1,70,4|0,0:3|1:0,0:0:0:0:
143,166,199154,2,0,P|132:206|126:236,1,70,4|0,0:3|1:0,0:0:0:0:
310,14,199410,1,4,0:3:0:0:
356,79,199538,6,0,P|402:68|500:56,1,140,4|0,0:3|1:0,0:0:0:0:
288,151,199923,2,0,P|323:174|363:189,1,70,4|0,0:3|0:0,0:0:0:0:
356,289,200179,1,4,1:3:0:0:
280,266,200307,1,4,0:3:0:0:
199,281,200436,2,0,P|145:303|51:356,1,140,4|0,0:3|0:0,0:0:0:0:
129,203,200820,1,4,0:3:0:0:
50,190,200948,2,0,P|40:147|29:110,1,70,4|0,0:3|1:0,0:0:0:0:
105,82,201205,2,0,P|92:41|79:0,1,70,4|4,0:3|0:3,0:0:0:0:
326,25,201589,6,0,B|331:72|331:72|338:79|338:79|348:171,1,140,4|4,1:0|0:3,0:0:0:0:
270,185,201974,1,4,0:3:0:0:
450,213,202102,2,0,B|473:253|473:253|483:350,1,140,0|0,1:0|0:0,0:0:0:0:
497,145,202487,1,0,1:0:0:0:
373,287,202615,6,0,P|333:287|292:292,1,70,4|4,0:3|0:3,0:0:0:0:
132,230,202871,2,0,P|83:227|49:227,1,70,4|4,0:3|0:3,0:0:0:0:
182,352,203128,1,0,1:0:0:0:
211,277,203256,1,4,0:3:0:0:
217,197,203384,1,0,1:0:0:0:
210,118,203512,1,4,0:3:0:0:
345,68,203641,5,4,1:0:0:0:
345,68,205692,1,4,1:0:0:0:
420,136,206718,1,4,0:3:0:0:
420,136,206974,1,0,1:0:0:0:
420,136,207230,1,4,0:3:0:0:
420,136,207487,1,4,0:3:0:0:
343,186,207743,6,0,P|317:194|258:198,1,70,4|4,0:3|0:3,0:0:0:0:
192,208,208000,2,4,P|155:208|106:194,1,70,4|4,0:3|0:3,0:3:0:0:
237,335,208256,5,4,0:3:0:0:
306,294,208384,1,0,0:0:0:0:
385,281,208512,1,4,0:3:0:0:
461,308,208641,1,0,0:0:0:0:
460,212,208769,6,0,P|470:223|497:239,1,35,0|0,1:0|1:0,0:0:0:0:
411,146,208897,2,0,P|439:136|461:123,1,35,0|0,1:0|1:0,0:0:0:0:
334,113,209025,2,0,P|353:95|367:70,1,35,0|0,1:0|1:0,0:0:0:0:
252,123,209154,2,0,P|256:98|256:80,1,35,0|0,1:0|1:0,0:0:0:0:
179,164,209282,6,0,P|172:216|170:256,1,70,4|4,0:3|0:3,0:0:0:0:
22,140,209538,2,0,P|20:81|18:32,1,105,4|0,0:3|0:0,0:0:0:0:
30,25,209795,5,4,1:1:0:0:
107,57,209923,2,0,P|108:102|106:140,1,70,0|0,0:0|0:0,0:0:0:0:
71,354,210179,2,0,P|76:264|78:185,1,140,4|0,0:3|1:0,0:0:0:0:
152,372,210564,1,0,1:0:0:0:
266,318,210692,6,0,P|257:260|161:257,1,140,0|4,1:0|0:3,0:0:0:0:
337,360,211077,1,0,1:0:0:0:
352,281,211205,2,0,P|358:211|366:141,1,140,4|0,0:3|1:0,0:0:0:0:
405,35,211590,1,4,0:3:0:0:
444,110,211718,1,0,1:0:0:0:
316,42,211846,5,4,0:1:0:0:
395,26,211974,2,0,P|430:17|488:11,1,70,0|0,1:0|0:0,0:0:0:0:
243,76,212230,2,0,P|184:50|97:37,1,140,4|0,0:3|1:0,0:0:0:0:
40,80,212616,1,0,1:0:0:0:
156,166,212743,2,0,B|82:135|104:192|-1:155,1,140,4|4,1:0|0:3,0:0:0:0:
174,244,213128,1,0,1:0:0:0:
252,267,213257,1,4,0:1:0:0:
335,264,213385,2,0,P|325:327|325:353,1,70,0|4,1:0|0:3,0:0:0:0:
435,305,213641,5,0,1:0:0:0:
408,230,213769,1,4,0:3:0:0:
435,312,213898,5,4,1:1:0:0:
485,213,214025,2,0,P|499:170|509:133,1,70,0|0,1:0|0:0,0:0:0:0:
340,19,214282,2,0,P|404:42|427:127,1,140,4|4,0:3|0:3,0:0:0:0:
280,192,214667,1,0,1:0:0:0:
208,148,214795,2,0,P|269:144|354:136,1,140,0|12,1:0|0:0,0:0:0:0:
161,79,215179,1,0,1:0:0:0:
139,197,215307,2,0,P|120:227|9:213,1,140,4|0,0:3|1:0,0:0:0:0:
210,236,215692,1,4,0:3:0:0:
189,315,215821,1,0,1:0:0:0:
300,351,215949,6,0,P|296:319|287:268,2,46.6666666666667,0|4|4,1:0|0:3|0:3,0:0:0:0:
371,265,216205,2,0,P|370:238|379:179,2,46.6666666666667,0|4|4,1:0|0:3|0:3,0:0:0:0:
332,142,216461,1,0,1:0:0:0:
342,114,216547,1,4,0:3:0:0:
365,96,216632,1,4,0:3:0:0:
396,92,216718,1,0,1:0:0:0:
425,107,216803,1,4,0:3:0:0:
442,136,216889,1,4,0:3:0:0:
437,170,216974,5,0,1:0:0:0:
434,131,217060,1,0,1:0:0:0:
446,93,217145,1,0,1:0:0:0:
469,60,217230,1,0,1:0:0:0:
314,15,217487,5,0,1:0:0:0:
251,62,217615,1,0,1:0:0:0:
172,63,217743,2,0,P|153:56|122:52,2,35,8|8|4,0:3|0:3|0:3,0:0:0:0:
198,168,218000,5,4,0:1:0:0:
250,228,218128,2,0,L|240:308,1,70,0|0,1:0|0:0,0:0:0:0:
170,351,218385,2,0,P|137:299|53:323,1,140,4|0,0:3|1:0,0:0:0:0:
42,384,218769,1,0,1:0:0:0:
179,360,218898,2,0,P|241:350|324:344,1,140,0|4,1:0|0:3,0:0:0:0:
374,218,219282,1,0,1:0:0:0:
500,272,219410,2,0,P|464:314|379:291,1,140,4|0,0:3|1:0,0:0:0:0:
458,83,219795,1,4,0:3:0:0:
442,159,219923,1,0,1:0:0:0:
397,18,220051,5,4,0:1:0:0:
317,10,220180,2,0,P|287:19|241:48,1,70,0|0,1:0|0:0,0:0:0:0:
67,84,220436,2,0,P|104:103|207:101,1,140,4|0,0:3|1:0,0:0:0:0:
283,113,220821,1,0,1:0:0:0:
112,242,220948,2,0,B|176:173|180:239|248:162,1,140,4|4,1:0|0:3,0:0:0:0:
333,289,221333,1,0,1:0:0:0:
324,211,221462,1,4,0:1:0:0:
214,291,221590,6,0,P|205:333|199:378,1,70,0|4,1:0|0:3,0:0:0:0:
284,350,221846,2,0,P|279:380|277:397,2,35,0|0|4,1:0|1:0|0:3,0:0:0:0:
393,357,222102,5,4,0:3:0:0:
457,309,222231,2,0,P|463:252|465:213,1,70,0|4,1:0|0:3,0:0:0:0:
387,81,222487,5,4,0:3:0:0:
312,112,222616,2,0,P|305:58|301:22,1,70,0|4,1:0|0:3,0:0:0:0:
34,178,222872,5,0,1:0:0:0:
115,182,223000,2,0,P|108:126|107:98,1,70,4|4,0:3|0:3,0:0:0:0:
214,266,223257,5,0,1:0:0:0:
267,330,223385,2,0,P|268:348|268:365,2,35,4|4|0,0:3|0:3|1:0,0:0:0:0:
314,195,223641,5,4,0:3:0:0:
317,210,223705,1,4,0:3:0:0:
319,224,223769,1,4,0:3:0:0:
395,250,223898,1,4,0:3:0:0:
468,222,224026,1,4,0:3:0:0:
480,143,224154,6,0,L|473:61,1,70,4|0,1:0|1:0,0:0:0:0:
157,73,224538,1,0,1:0:0:0:
392,74,224795,1,0,1:0:0:0:
157,73,225051,1,0,1:0:0:0:
392,74,225308,1,0,1:0:0:0:
157,73,225564,1,4,1:0:0:0:
164,153,225692,1,4,0:3:0:0:
168,233,225820,2,0,P|171:286|173:377,1,140,0|0,1:0|0:0,0:0:0:0:
285,351,226205,5,4,1:1:0:0:
313,276,226333,2,0,P|356:251|400:249,1,70,0|0,1:0|0:0,0:0:0:0:
286,90,226589,2,0,P|312:144|402:159,1,140,4|0,0:3|1:0,0:0:0:0:
458,128,226974,1,0,1:0:0:0:
292,83,227102,6,0,P|219:77|135:71,1,140,0|4,1:0|0:3,0:0:0:0:
70,102,227487,1,0,1:0:0:0:
111,237,227615,2,0,P|127:168|195:168,1,140,4|0,0:3|1:0,0:0:0:0:
253,209,228000,1,4,0:3:0:0:
261,289,228128,1,0,1:0:0:0:
363,343,228256,5,4,0:1:0:0:
427,294,228384,2,0,P|462:285|520:279,1,70,0|0,1:0|0:0,0:0:0:0:
373,119,228641,2,0,P|365:195|352:279,1,140,4|0,0:3|1:0,0:0:0:0:
441,67,229026,1,0,1:0:0:0:
361,39,229153,2,0,B|287:8|309:65|204:28,1,140,4|4,1:0|0:3,0:0:0:0:
143,39,229538,1,0,1:0:0:0:
67,71,229667,1,4,0:1:0:0:
35,146,229795,2,0,P|25:209|25:235,1,70,0|4,1:0|0:3,0:0:0:0:
82,334,230051,5,0,1:0:0:0:
105,240,230179,1,4,0:3:0:0:
0,331,230308,5,4,0:1:0:0:
87,330,230436,2,0,P|124:334|167:346,1,70,0|0,1:0|0:0,0:0:0:0:
330,276,230692,2,0,P|266:299|243:384,1,140,4|0,0:3|1:0,0:0:0:0:
359,140,231077,1,0,1:0:0:0:
291,194,231205,2,0,B|375:171|349:214|434:186,1,140,0|4,1:0|0:3,0:0:0:0:
391,56,231589,1,0,1:0:0:0:
284,110,231717,2,0,P|265:140|154:126,1,140,4|0,0:3|1:0,0:0:0:0:
100,101,232102,1,4,0:3:0:0:
88,24,232231,1,0,1:0:0:0:
7,154,232359,6,0,P|3:122|-6:71,2,46.6666666666667,0|4|4,1:0|0:3|0:3,0:0:0:0:
78,241,232615,2,0,P|77:214|86:155,2,46.6666666666667,0|4|4,1:0|0:3|0:3,0:0:0:0:
141,298,232871,1,0,1:0:0:0:
171,286,232957,1,4,0:3:0:0:
198,292,233042,1,4,0:3:0:0:
222,310,233128,1,0,1:0:0:0:
254,320,233213,1,4,0:3:0:0:
284,311,233299,1,4,0:3:0:0:
297,284,233384,5,0,1:0:0:0:
291,314,233470,1,0,1:0:0:0:
324,341,233555,1,0,1:0:0:0:
365,329,233641,1,0,1:0:0:0:
468,239,233897,5,0,1:0:0:0:
469,229,233961,1,0,1:0:0:0:
471,216,234025,1,0,1:0:0:0:
407,165,234154,2,0,P|401:115|399:86,1,70,8|4,0:3|0:3,0:0:0:0:
349,27,234410,5,4,0:1:0:0:
288,80,234538,2,0,P|247:88|202:71,1,70,0|0,1:0|0:0,0:0:0:0:
135,175,234795,2,0,P|140:127|48:109,1,140,4|0,0:3|1:0,0:0:0:0:
21,162,235179,1,0,1:0:0:0:
131,194,235308,2,0,P|193:184|276:178,1,140,0|4,1:0|0:3,0:0:0:0:
399,304,235692,1,0,1:0:0:0:
332,261,235820,2,0,P|261:290|274:364,1,140,4|0,0:3|1:0,0:0:0:0:
398,311,236205,1,4,0:3:0:0:
476,274,236333,1,4,0:3:0:0:
481,146,236461,5,4,0:1:0:0:
410,112,236590,2,0,P|380:121|334:150,1,70,0|0,1:0|0:0,0:0:0:0:
215,16,236846,2,0,P|243:71|267:148,1,140,4|0,0:3|1:0,0:0:0:0:
232,218,237231,1,0,1:0:0:0:
89,214,237359,2,0,P|106:161|187:156,1,140,4|4,1:0|0:3,0:0:0:0:
236,223,237743,1,0,1:0:0:0:
212,299,237872,1,4,0:1:0:0:
136,335,238000,6,0,P|98:340|55:346,1,70,0|4,1:0|0:3,0:0:0:0:
282,377,238256,1,0,1:0:0:0:
282,368,238320,1,0,1:0:0:0:
285,359,238384,1,0,1:0:0:0:
324,282,238512,5,4,0:3:0:0:
402,254,238641,2,0,P|446:259|486:271,1,70,0|4,1:0|0:3,0:0:0:0:
316,97,238897,5,4,0:3:0:0:
239,73,239026,2,0,P|229:27|225:1,1,70,0|4,1:0|0:3,0:0:0:0:
131,201,239282,5,0,1:0:0:0:
73,258,239410,2,0,P|22:254|-10:253,1,70,4|4,0:3|0:3,0:0:0:0:
247,179,239666,5,4,1:3:0:0:
324,190,239795,1,4,0:3:0:0:
399,159,239923,1,0,1:0:0:0:
444,94,240051,2,0,P|453:42|459:19,1,70,4|4,0:3|0:3,0:0:0:0:
462,262,240307,2,0,P|476:207|485:172,1,70,4|4,0:3|0:3,0:0:0:0:
371,341,240564,5,4,1:0:0:0:
297,307,240692,1,0,1:0:0:0:
215,312,240820,1,4,0:3:0:0:
142,354,240948,1,0,1:0:0:0:
44,137,241205,1,0,1:0:0:0:
142,354,241461,1,0,1:0:0:0:
44,137,241718,1,0,1:0:0:0:
142,354,241974,1,4,1:0:0:0:
138,273,242102,1,4,0:3:0:0:
144,192,242230,2,0,P|147:129|153:35,1,140,0|4,1:0|0:3,0:0:0:0:
248,28,242615,5,4,1:0:0:0:
304,86,242743,1,0,1:0:0:0:
381,108,242871,1,4,0:3:0:0:
462,91,243000,1,0,1:3:0:0:
508,327,243256,1,0,1:3:0:0:
462,91,243512,1,0,1:0:0:0:
508,327,243769,1,0,1:3:0:0:
462,91,244025,1,4,1:3:0:0:
428,167,244154,1,0,1:0:0:0:
407,245,244282,2,0,P|398:288|381:389,1,140,4|0,0:3|1:0,0:0:0:0:
267,292,244666,5,4,0:3:0:0:
204,239,244795,1,0,1:0:0:0:
128,219,244923,1,4,0:3:0:0:
48,233,245051,1,0,1:3:0:0:
338,147,245307,1,0,1:3:0:0:
48,233,245564,1,0,1:0:0:0:
338,147,245820,1,0,1:3:0:0:
48,233,246077,1,0,1:3:0:0:
84,165,246205,1,0,1:0:0:0:
96,85,246333,2,0,P|92:33|77:-2,2,70,4|0|0,0:3|1:0|1:0,0:0:0:0:
186,25,246718,5,0,1:0:0:0:
259,60,246846,1,0,1:0:0:0:
339,58,246974,1,0,1:0:0:0:
412,23,247102,1,0,1:0:0:0:
427,106,247230,5,0,1:0:0:0:
432,114,247295,1,0,1:0:0:0:
437,121,247359,2,0,P|430:163|425:223,1,70,0|4,1:0|1:3,0:0:0:0:
414,269,247615,1,0,1:0:0:0:
316,304,247743,5,0,1:0:0:0:
317,295,247807,1,0,1:0:0:0:
319,285,247871,2,0,P|328:240|339:205,1,70,0|4,1:0|1:3,0:0:0:0:
234,318,248128,1,0,1:0:0:0:
230,308,248192,1,0,1:0:0:0:
227,297,248256,2,0,P|211:254|196:239,3,35,4|4|4|4,0:3|0:3|0:3|0:3,0:0:0:0:
157,197,248512,6,0,P|131:199|97:213,1,35,0|0,1:0|1:0,0:0:0:0:
99,109,248641,2,0,P|78:119|51:145,1,35,4|4,0:3|0:3,0:0:0:0:
13,40,248769,1,4,1:0:0:0:
256,192,248897,12,0,252871,0:0:0:0:
