osu file format v14

[General]
AudioFilename: audio.mp3
AudioLeadIn: 0
PreviewTime: 127166
Countdown: 0
SampleSet: Drum
StackLeniency: 0.7
Mode: 0
LetterboxInBreaks: 0
WidescreenStoryboard: 1

[Editor]
Bookmarks: 100026,119000,252846
DistanceSpacing: 1
BeatDivisor: 4
GridSize: 32
TimelineZoom: 1.9

[Metadata]
Title:Ontology
TitleUnicode:Ontology
Artist:Shade
ArtistUnicode:Shade
Creator:LMT
Version:Hard
Source:鬼畜王ランス
Tags:kichikuou rance arrange collection alicesoft eroge zelq instrumental
BeatmapID:2203283
BeatmapSetID:1050313

[Difficulty]
HPDrainRate:5
CircleSize:3.5
OverallDifficulty:6
ApproachRate:8
SliderMultiplier:1.2
SliderTickRate:1

[Events]
//Background and Video events
0,0,"ontology_bg.jpg",0,0
//Break Periods
2,65108,67748
2,69211,72363
2,100188,118788
2,175123,177762
//Storyboard Layer 0 (Background)
//Storyboard Layer 1 (Fail)
//Storyboard Layer 2 (Pass)
//Storyboard Layer 3 (Foreground)
//Storyboard Layer 4 (Overlay)
//Storyboard Sound Samples

[TimingPoints]
30037,256.410256410256,4,3,1,35,1,0
30037,-133.333333333333,4,3,1,35,0,0
46960,-100,4,3,1,45,0,0
47472,-100,4,3,1,55,0,0
47857,-100,4,3,1,70,0,0
48498,-100,4,3,1,70,0,0
62985,-100,4,3,1,70,0,0
64908,-100,4,3,1,60,0,0
79395,-100,4,3,1,70,0,0
81319,-100,4,3,1,70,0,0
85421,-100,4,3,1,70,0,0
89524,-100,4,3,1,70,0,0
93113,-100,4,3,1,70,0,0
95678,259.74025974026,4,3,1,70,1,0
96716,272.727272727273,4,3,1,70,1,0
97806,288.115246098439,4,3,1,70,1,0
99534,303.030303030303,4,3,1,70,1,0
118513,256.410256410256,4,3,1,70,1,0
119025,-100,4,3,1,30,0,0
119282,-100,4,3,1,35,0,0
119538,-133.333333333333,4,3,1,40,0,0
127230,-100,4,3,1,70,0,0
135948,-100,4,3,1,70,0,0
140051,-100,4,3,1,70,0,0
144282,-100,4,3,1,70,0,0
147615,-100,4,3,1,70,0,0
158512,-100,4,3,1,70,0,0
160179,-100,4,3,1,70,0,0
172871,-100,4,3,1,70,0,0
173384,-100,4,3,1,70,0,0
173897,-100,4,3,1,70,0,0
174410,-100,4,3,1,70,0,0
174923,-100,4,3,1,70,0,0
178641,-100,4,3,1,70,0,0
179025,-100,4,3,1,70,0,0
187230,-100,4,3,1,70,0,0
189282,-100,4,3,1,70,0,0
197487,-100,4,3,1,70,0,0
209538,-100,4,3,1,70,0,0
209795,-100,4,3,1,70,0,0
224154,-100,4,3,1,70,0,0
226205,-100,4,3,1,70,0,0
240564,-100,4,3,1,70,0,0
242743,-100,4,3,1,70,0,0
244795,-100,4,3,1,70,0,0

[Colours]
Combo1 : 202,202,149
Combo2 : 145,200,200
Combo3 : 180,180,180
Combo4 : 128,128,255

[HitObjects]
83,143,30036,6,0,L|95:222,1,60,2|2,0:2|0:2,0:0:0:0:
173,259,30421,2,0,L|187:355,1,90.0000034332277,2|2,0:2|0:2,0:0:0:0:
225,364,30806,1,2,0:2:0:0:
336,262,31062,5,2,0:2:0:0:
321,244,31190,2,0,L|331:142,1,90.0000034332277,2|2,0:2|0:2,0:0:0:0:
411,92,31703,2,0,L|416:30,2,45.0000017166138,2|2|0,0:2|0:2|0:0,0:0:0:0:
460,149,32088,5,2,0:2:0:0:
465,165,32216,1,2,0:2:0:0:
407,239,32472,1,2,0:2:0:0:
420,259,32601,6,0,P|397:294|342:293,1,90.0000034332277,2|0,0:2|0:0,0:0:0:0:
238,351,33113,2,0,P|236:321|101:284,1,180.000006866455,4|0,0:2|0:0,0:0:0:0:
44,116,34139,5,2,0:2:0:0:
58,128,34267,2,0,L|152:118,1,90.0000034332277,2|2,0:2|0:2,0:0:0:0:
240,160,34780,2,0,L|293:152,2,45.0000017166138,2|2|0,0:2|0:2|0:0,0:0:0:0:
230,245,35165,6,0,L|290:236,1,45.0000017166138,2|2,0:2|0:2,0:0:0:0:
348,302,35549,2,0,L|451:283,1,90.0000034332277,2|2,0:2|0:2,0:0:0:0:
470,255,35934,1,2,0:2:0:0:
472,235,36062,1,0,0:0:0:0:
473,215,36190,6,0,L|480:162,1,45.0000017166138,2|2,0:2|0:2,0:0:0:0:
404,74,36575,1,2,0:2:0:0:
406,53,36703,6,0,P|370:34|303:38,1,90.0000034332277,2|0,0:2|0:0,0:0:0:0:
218,33,37216,2,0,L|205:233,1,180.000006866455,4|0,0:2|0:0,0:0:0:0:
48,289,38242,5,2,0:2:0:0:
43,275,38370,2,0,L|45:176,1,90.0000034332277,2|2,0:2|0:2,0:0:0:0:
148,282,38883,2,0,L|154:331,2,45.0000017166138,2|2|0,0:2|0:2|0:0,0:0:0:0:
224,265,39267,6,0,L|226:207,1,45.0000017166138,2|2,0:2|0:2,0:0:0:0:
325,180,39652,2,0,L|337:286,1,90.0000034332277,2|2,0:2|0:2,0:0:0:0:
400,313,40036,1,2,0:2:0:0:
409,319,40165,1,0,0:0:0:0:
421,325,40293,6,0,L|433:376,1,45.0000017166138,2|2,0:2|0:2,0:0:0:0:
489,252,40678,1,2,0:2:0:0:
485,236,40806,6,0,P|451:216|421:162,1,90.0000034332277,2|0,0:2|0:0,0:0:0:0:
440,69,41319,2,0,P|393:55|273:101,1,180.000006866455,4|0,0:2|0:0,0:0:0:0:
91,171,42344,5,2,0:2:0:0:
86,186,42472,1,2,0:2:0:0:
178,218,42729,2,0,L|189:309,1,90.0000034332277,2|2,0:2|0:2,0:0:0:0:
228,329,43113,2,0,L|236:385,1,45.0000017166138,2|0,0:2|0:0,0:0:0:0:
315,378,43370,5,2,0:2:0:0:
318,364,43498,1,2,0:2:0:0:
404,299,43754,2,0,L|416:191,1,90.0000034332277,2|2,0:2|0:2,0:0:0:0:
393,167,44139,2,0,L|395:107,1,45.0000017166138,2|0,0:2|0:0,0:0:0:0:
342,63,44395,5,4,0:3:0:0:
223,307,44908,1,0,0:0:0:0:
22,113,45421,1,4,0:2:0:0:
256,192,45678,12,0,47472,0:0:0:0:
337,109,47985,5,0,1:0:0:0:
348,125,48113,2,0,L|336:261,1,120,4|0,0:3|0:0,0:0:0:0:
253,247,48498,5,4,0:1:0:0:
261,323,48626,2,0,L|250:394,1,60,0|0,1:0|0:0,0:0:0:0:
174,336,48883,2,0,B|180:284|180:284|169:257|169:257|176:198,1,120,4|0,0:3|1:0,0:0:0:0:
123,155,49267,1,0,1:0:0:0:
116,142,49395,2,0,B|188:110|177:149|244:119,1,120,0|4,1:0|0:3,0:0:0:0:
282,60,49780,1,0,1:0:0:0:
291,72,49908,1,4,0:3:0:0:
414,161,50165,2,0,L|431:95,2,60,0|4|0,1:0|0:3|1:0,0:0:0:0:
344,213,50549,5,4,0:1:0:0:
366,286,50678,2,0,L|349:351,1,60,0|0,1:0|0:0,0:0:0:0:
208,271,50934,2,0,P|254:287|262:362,1,120,4|0,0:3|1:0,0:0:0:0:
268,201,51319,1,0,1:0:0:0:
266,184,51447,6,0,L|273:48,1,120,4|4,1:0|0:3,0:0:0:0:
83,123,51831,2,0,L|79:63,1,60,0|4,1:0|0:1,0:0:0:0:
175,96,52088,2,0,L|183:30,1,60,0|4,1:0|0:3,0:0:0:0:
29,214,52344,2,0,L|2:143,1,60,0|4,1:0|0:3,0:0:0:0:
135,198,52601,5,4,0:1:0:0:
127,274,52729,2,0,L|112:338,1,60,0|0,1:0|0:0,0:0:0:0:
199,315,52985,2,0,P|246:297|305:345,1,120,4|0,0:3|1:0,0:0:0:0:
376,299,53370,1,0,1:0:0:0:
381,310,53498,6,0,L|400:181,1,120,0|4,1:0|0:3,0:0:0:0:
465,150,53883,1,0,1:0:0:0:
469,134,54011,1,4,0:3:0:0:
341,75,54267,2,0,L|338:3,2,60,0|4|0,1:0|0:3|1:0,0:0:0:0:
276,120,54652,6,0,L|261:205,1,60,0|4,1:0|0:3,0:0:0:0:
189,198,54908,2,0,L|205:279,1,60,0|4,1:0|0:3,0:0:0:0:
107,304,55165,2,0,L|144:358,1,60,0|4,1:0|0:3,0:0:0:0:
10,209,55421,2,0,L|18:287,1,60,0|4,1:0|0:3,0:0:0:0:
115,84,55678,2,0,L|103:155,1,60,0|4,1:0|0:3,0:0:0:0:
109,159,55934,1,0,1:0:0:0:
216,42,56190,5,0,1:0:0:0:
261,69,56319,1,0,1:0:0:0:
306,79,56447,1,8,0:3:0:0:
343,68,56575,1,4,0:3:0:0:
384,49,56703,6,0,L|374:121,1,60,4|0,0:1|1:0,0:0:0:0:
420,200,57088,2,0,L|401:319,1,120,4|0,0:3|1:0,0:0:0:0:
322,334,57472,1,0,1:0:0:0:
324,349,57601,2,0,P|292:313|198:298,1,120,0|4,1:0|0:3,0:0:0:0:
180,224,57985,1,0,1:0:0:0:
183,215,58113,2,0,B|256:187|229:231|324:202,1,120,4|0,0:3|1:0,0:0:0:0:
342,140,58498,1,4,0:3:0:0:
266,21,58754,5,4,0:1:0:0:
197,57,58883,2,0,L|120:49,1,60,0|0,1:0|0:0,0:0:0:0:
59,46,59139,2,0,P|104:66|110:149,1,120,4|0,0:3|1:0,0:0:0:0:
43,181,59524,1,0,1:0:0:0:
44,170,59652,2,0,B|75:202|75:202|70:302,1,120,4|4,1:0|0:3,0:0:0:0:
242,357,60036,2,0,L|260:283,1,60,0|4,1:0|0:1,0:0:0:0:
165,279,60293,2,0,L|154:199,1,60,0|4,1:0|0:3,0:0:0:0:
345,314,60549,2,0,L|362:245,1,60,0|0,1:0|1:0,0:0:0:0:
320,183,60806,5,4,0:3:0:0:
313,167,60934,1,0,1:0:0:0:
393,96,61190,1,4,0:3:0:0:
397,79,61319,1,0,1:0:0:0:
273,39,61575,1,0,1:0:0:0:
265,21,61703,1,4,0:3:0:0:
165,109,61960,1,0,1:0:0:0:
161,94,62088,2,0,L|142:36,1,60,4|0,0:3|1:0,0:0:0:0:
108,182,62344,2,0,L|65:123,1,60,4|4,0:3|0:3,0:0:0:0:
124,274,62601,2,0,L|42:253,1,60,4|4,0:3|0:3,0:0:0:0:
161,362,62857,5,4,1:0:0:0:
175,348,62985,1,0,1:0:0:0:
283,278,63242,1,0,1:0:0:0:
301,138,63498,1,0,1:0:0:0:
429,98,63754,1,0,1:0:0:0:
419,235,64011,1,0,1:0:0:0:
301,152,64267,1,4,1:0:0:0:
301,138,64395,1,4,0:3:0:0:
300,124,64524,2,0,B|303:51|303:51|256:7,1,120,0|4,1:0|0:3,0:0:0:0:
189,17,64908,1,4,1:0:0:0:
185,112,68498,6,0,L|191:182,1,60,0|0,1:0|1:0,0:0:0:0:
267,193,68754,2,0,L|256:269,1,60,8|8,0:0|0:0,0:0:0:0:
318,303,69011,1,4,1:0:0:0:
171,10,73113,5,4,1:0:0:0:
129,128,73370,1,0,1:0:0:0:
194,169,73498,2,0,L|168:313,1,120,4|4,0:3|0:3,0:0:0:0:
230,340,73883,1,0,1:0:0:0:
337,256,74139,1,4,0:3:0:0:
339,242,74267,2,0,P|374:209|468:218,1,120,2|4,0:2|0:3,0:0:0:0:
476,131,74652,2,0,L|488:68,1,60,4|0,0:3|1:0,0:0:0:0:
397,119,74908,2,0,L|411:46,1,60,4|0,0:3|1:3,0:0:0:0:
324,39,75165,6,0,P|289:91|212:84,1,120,4|0,0:3|1:0,0:0:0:0:
164,126,75549,2,0,L|155:186,1,60,4|0,0:3|0:0,0:0:0:0:
80,216,75806,1,4,0:3:0:0:
75,238,75934,1,0,1:0:0:0:
200,319,76190,1,4,0:3:0:0:
213,308,76319,2,0,P|257:284|332:296,1,120,2|4,0:2|0:3,0:0:0:0:
396,251,76703,2,0,L|389:215,2,30,0|0|0,1:0|1:0|1:0,0:0:0:0:
462,300,76960,2,0,L|448:379,1,60,4|0,0:3|1:0,0:0:0:0:
510,238,77216,5,4,1:0:0:0:
507,222,77344,1,4,0:3:0:0:
433,111,77601,1,0,1:0:0:0:
436,94,77729,1,4,0:3:0:0:
296,109,77985,1,0,1:0:0:0:
289,94,78113,1,4,0:3:0:0:
201,194,78370,1,0,1:0:0:0:
187,212,78498,1,4,0:3:0:0:
187,315,78754,6,0,L|193:359,2,30,0|0|0,1:0|1:0|1:0,0:0:0:0:
105,299,79011,2,0,L|118:371,1,60,4|4,0:3|0:3,0:0:0:0:
24,287,79267,5,4,1:0:0:0:
27,268,79395,1,0,1:0:0:0:
115,180,79652,1,0,1:0:0:0:
33,86,79908,1,0,1:0:0:0:
157,39,80165,1,0,1:0:0:0:
241,135,80421,1,0,1:0:0:0:
115,180,80678,1,4,1:0:0:0:
121,161,80806,1,4,0:3:0:0:
128,144,80934,2,0,L|142:267,1,120,0|0,1:0|0:0,0:0:0:0:
214,293,81319,6,0,P|287:273|342:259,1,120,4|0,1:0|0:0,0:0:0:0:
402,232,81703,2,0,P|445:215|413:99,1,180,4|0,0:3|1:0,0:0:0:0:
274,41,82344,1,0,1:3:0:0:
278,62,82472,1,4,0:3:0:0:
179,152,82729,1,4,0:3:0:0:
53,101,82985,2,0,L|39:30,1,60,0|4,1:0|0:3,0:0:0:0:
26,175,83242,1,0,1:0:0:0:
36,188,83370,6,0,L|59:334,1,120,4|0,1:1|1:0,0:0:0:0:
134,305,83754,1,4,0:3:0:0:
138,320,83883,1,4,0:3:0:0:
254,202,84139,1,0,1:0:0:0:
258,221,84267,1,0,0:0:0:0:
261,238,84395,1,4,0:3:0:0:
392,261,84652,6,0,L|409:329,1,60,0|4,1:0|0:3,0:0:0:0:
468,194,84908,2,0,L|491:270,1,60,0|4,1:0|0:3,0:0:0:0:
486,110,85165,1,0,1:0:0:0:
486,94,85293,1,4,0:3:0:0:
484,76,85421,6,0,P|436:41|363:39,1,120,4|0,1:0|0:0,0:0:0:0:
318,90,85806,1,4,0:3:0:0:
157,166,86062,2,0,L|148:211,2,30,4|4|0,0:3|0:3|1:0,0:0:0:0:
103,110,86319,2,0,L|230:126,1,120,4|4,1:0|0:3,0:0:0:0:
269,190,86703,1,0,1:0:0:0:
265,205,86831,2,0,P|284:239|373:240,1,120,4|4,0:3|0:3,0:0:0:0:
433,225,87216,2,0,L|443:157,1,60,0|4,1:0|0:3,0:0:0:0:
491,288,87472,5,0,1:0:0:0:
478,295,87601,2,0,P|443:318|416:341,1,60,4|0,0:3|0:0,0:0:0:0:
347,330,87857,2,0,P|322:360|295:395,1,60,4|0,0:3|1:0,0:0:0:0:
225,367,88113,2,0,P|190:339|162:320,1,60,4|0,0:3|1:0,0:0:0:0:
97,359,88370,2,0,P|84:280|51:225,1,120,4|0,0:3|1:0,0:0:0:0:
108,177,88754,1,4,0:3:0:0:
108,165,88883,2,0,P|74:154|40:71,1,120,0|4,1:0|0:3,0:0:0:0:
78,16,89267,1,0,1:0:0:0:
205,29,89524,5,0,1:0:0:0:
214,105,89652,1,0,1:0:0:0:
386,170,90036,5,0,1:0:0:0:
311,183,90165,1,0,1:0:0:0:
205,29,90549,5,0,1:0:0:0:
214,105,90677,1,0,1:0:0:0:
386,170,91061,5,0,1:0:0:0:
311,183,91190,1,0,1:0:0:0:
201,263,91575,5,0,1:0:0:0:
206,275,91703,1,4,0:3:0:0:
292,368,91960,1,4,0:3:0:0:
109,313,92216,1,4,0:3:0:0:
290,238,92472,1,4,0:3:0:0:
119,184,92729,1,4,0:3:0:0:
272,135,92985,1,4,0:3:0:0:
290,128,93113,1,0,1:0:0:0:
307,121,93242,2,0,B|340:101|340:101|446:88,1,120,4|0,0:3|1:0,0:0:0:0:
481,145,93626,5,4,1:0:0:0:
471,194,93754,1,0,1:0:0:0:
360,245,94011,1,2,1:3:0:0:
347,293,94139,1,0,1:0:0:0:
231,240,94395,1,0,1:0:0:0:
204,278,94524,1,0,1:0:0:0:
126,174,94780,1,2,1:3:0:0:
89,159,94908,1,0,1:0:0:0:
154,53,95165,1,4,1:3:0:0:
119,32,95293,1,0,1:0:0:0:
83,24,95421,1,4,0:3:0:0:
263,30,95678,6,0,L|279:164,1,120,0|0,1:0|1:0,0:0:0:0:
347,181,96067,1,4,0:3:0:0:
353,194,96197,1,0,1:0:0:0:
469,121,96457,1,0,1:0:0:0:
440,232,96716,6,0,B|415:263|415:263|403:365,1,120,0|0,1:0|1:0,0:0:0:0:
324,347,97125,1,4,0:3:0:0:
321,363,97261,2,0,L|256:367,1,60,0|4,1:3|0:3,0:0:0:0:
141,355,97670,1,4,0:3:0:0:
120,302,97806,1,4,0:3:0:0:
100,184,99534,5,0,1:0:0:0:
188,164,99685,1,0,1:0:0:0:
277,182,99837,1,0,1:0:0:0:
329,255,99988,1,0,1:0:0:0:
121,68,119538,6,0,L|126:115,1,45.0000017166138,2|2,0:2|0:2,0:0:0:0:
209,174,119923,2,0,L|196:277,1,90.0000034332277,2|2,0:2|0:2,0:0:0:0:
232,289,120307,2,0,L|225:339,1,45.0000017166138,0|2,0:0|0:2,0:0:0:0:
300,360,120564,1,2,0:2:0:0:
308,348,120692,2,0,P|342:324|401:313,1,90.0000034332277,2|2,0:2|0:2,0:0:0:0:
441,214,121205,2,0,P|462:220|492:241,2,45.0000017166138,2|2|0,0:2|0:2|0:0,0:0:0:0:
382,152,121589,5,2,0:2:0:0:
375,142,121718,2,0,P|356:109|336:41,1,90.0000034332277,2|2,0:2|0:2,0:0:0:0:
230,73,122230,2,0,P|235:47|238:18,2,45.0000017166138,2|2|0,0:2|0:2|0:0,0:0:0:0:
157,101,122615,1,2,0:2:0:0:
160,117,122743,2,0,P|172:177|178:219,1,90.0000034332277,2|2,0:2|0:2,0:0:0:0:
152,232,123128,1,0,0:0:0:0:
329,352,123641,5,2,0:2:0:0:
361,259,123897,1,2,0:2:0:0:
390,161,124154,2,0,P|406:101|418:60,1,90.0000034332277,2|0,0:2|0:0,0:0:0:0:
266,154,124666,5,2,0:2:0:0:
189,92,124923,1,2,0:2:0:0:
90,86,125179,2,0,P|54:99|6:128,1,90.0000034332277,2|0,0:2|0:0,0:0:0:0:
29,228,125692,5,2,0:2:0:0:
202,353,126205,1,2,0:2:0:0:
386,258,126718,2,0,P|402:187|407:154,1,90.0000034332277,2|0,0:2|1:0,0:0:0:0:
358,73,127230,5,4,1:0:0:0:
339,85,127359,2,0,B|290:82|290:82|270:74|270:74|199:72,1,120,4|0,0:3|0:0,0:0:0:0:
140,97,127743,6,0,P|131:161|66:164,1,120,4|0,1:0|0:0,0:0:0:0:
87,253,128128,2,0,B|56:243|56:243|2:246,1,60,0|0,1:0|0:0,0:0:0:0:
17,326,128384,2,0,B|48:336|48:336|102:333,1,60,0|4,1:0|0:3,0:0:0:0:
150,305,128641,1,0,1:0:0:0:
164,298,128769,2,0,B|189:284|189:284|291:281,1,120,4|2,1:0|0:2,0:0:0:0:
438,222,129282,1,0,1:2:0:0:
430,239,129410,2,0,P|416:281|393:367,1,120,0|0,1:0|1:0,0:0:0:0:
344,214,129795,5,4,1:0:0:0:
303,193,129923,1,2,0:2:0:0:
286,154,130051,1,0,1:0:0:0:
280,104,130179,1,4,0:3:0:0:
295,64,130307,2,0,L|310:6,3,40,2|2|2|2,1:2|0:2|0:2|1:2,0:0:0:0:
210,31,130692,1,0,1:0:0:0:
222,21,130820,2,0,P|206:80|187:158,1,120,4|0,1:0|0:0,0:0:0:0:
13,219,131333,2,0,B|71:222|71:222|87:236|87:236|148:241,1,120,0|4,1:0|0:3,0:0:0:0:
202,337,131846,5,4,1:0:0:0:
209,355,131974,1,0,1:0:0:0:
299,295,132230,1,0,1:0:0:0:
409,307,132487,1,0,1:0:0:0:
407,325,132615,1,4,0:3:0:0:
461,196,132871,5,4,1:0:0:0:
471,177,133000,1,0,1:0:0:0:
358,179,133256,1,0,1:0:0:0:
351,161,133384,1,4,0:3:0:0:
342,143,133512,1,0,1:0:0:0:
332,126,133641,1,4,0:3:0:0:
215,185,133897,5,0,1:0:0:0:
206,204,134025,2,0,P|190:232|171:268,1,60,0|4,1:0|0:3,0:0:0:0:
142,127,134282,2,0,P|126:159|108:193,1,60,4|0,0:3|1:0,0:0:0:0:
81,56,134538,1,0,1:0:0:0:
72,68,134666,1,4,0:3:0:0:
219,18,134923,5,0,1:0:0:0:
222,40,135051,1,0,1:0:0:0:
356,48,135307,1,0,1:0:0:0:
351,68,135436,2,0,P|338:117|332:144,1,60,0|4,1:0|0:3,0:0:0:0:
395,185,135692,2,0,P|381:230|368:259,1,60,4|4,0:3|0:3,0:0:0:0:
400,315,135948,6,0,P|363:291|271:287,1,120,4|0,1:0|1:0,0:0:0:0:
212,299,136333,2,0,P|194:350|129:345,1,120,4|4,0:3|0:3,0:0:0:0:
88,286,136718,1,0,1:0:0:0:
180,190,136974,1,0,1:0:0:0:
186,173,137102,1,4,0:3:0:0:
62,65,137359,2,0,P|66:106|75:194,1,120,4|0,0:3|1:0,0:0:0:0:
140,71,137743,2,0,P|146:27|151:-1,1,60,4|0,0:3|1:0,0:0:0:0:
226,13,138000,6,0,P|270:87|313:77,1,120,4|0,1:0|1:0,0:0:0:0:
361,55,138384,1,4,0:3:0:0:
369,46,138512,2,0,P|359:80|340:170,1,120,4|0,0:3|1:0,0:0:0:0:
378,235,138897,1,0,0:0:0:0:
390,232,139025,6,0,P|380:266|372:304,1,60,4|4,0:3|0:3,0:0:0:0:
265,284,139282,2,0,P|295:316|308:349,1,60,0|4,1:0|0:3,0:0:0:0:
186,298,139538,1,0,1:0:0:0:
145,314,139666,1,4,0:3:0:0:
98,305,139795,2,0,P|76:283|54:250,1,60,0|4,1:0|0:3,0:0:0:0:
45,179,140051,5,4,1:1:0:0:
42,103,140179,2,0,P|46:33|46:17,1,60,0|0,0:0|1:0,0:0:0:0:
123,52,140436,2,0,P|138:93|214:97,1,120,4|4,0:3|0:3,0:0:0:0:
271,53,140820,1,0,1:0:0:0:
265,41,140948,2,0,P|251:80|226:155,1,120,4|4,1:0|0:3,0:0:0:0:
289,205,141333,1,0,1:0:0:0:
298,197,141461,2,0,B|369:186|352:230|442:202,1,120,4|0,0:3|1:0,0:0:0:0:
477,156,141846,2,0,P|474:117|481:78,1,60,4|0,0:3|1:0,0:0:0:0:
504,231,142102,5,4,1:0:0:0:
487,307,142230,2,0,P|472:347|464:381,1,60,4|0,0:3|0:0,0:0:0:0:
357,297,142487,2,0,P|386:321|391:350,1,60,4|0,0:3|1:0,0:0:0:0:
290,337,142743,1,4,0:3:0:0:
272,320,142871,1,0,1:0:0:0:
244,317,143000,2,0,P|212:323|129:278,1,120,4|0,0:3|1:0,0:0:0:0:
116,211,143384,1,0,1:0:0:0:
120,194,143512,1,4,0:3:0:0:
229,128,143769,2,0,P|190:114|147:104,2,60,0|4|0,1:0|0:3|1:0,0:0:0:0:
299,89,144154,5,4,1:0:0:0:
298,13,144282,1,0,1:0:0:0:
433,186,144666,5,2,1:3:0:0:
449,112,144795,1,0,1:0:0:0:
299,89,145179,5,0,1:0:0:0:
298,13,145307,1,0,1:0:0:0:
433,186,145691,5,2,1:3:0:0:
449,112,145820,1,0,1:0:0:0:
276,245,146205,5,0,1:0:0:0:
278,262,146333,1,4,0:3:0:0:
165,305,146589,1,4,0:3:0:0:
57,237,146846,1,4,0:3:0:0:
170,176,147102,1,4,0:3:0:0:
276,245,147359,1,4,0:3:0:0:
165,305,147615,1,4,0:3:0:0:
161,327,147743,1,0,1:0:0:0:
157,349,147871,2,0,L|148:219,1,120,4|0,0:3|1:0,0:0:0:0:
89,164,148256,5,4,1:0:0:0:
69,128,148384,1,0,1:0:0:0:
213,101,148641,1,2,1:3:0:0:
215,64,148769,1,0,1:0:0:0:
328,177,149025,1,0,1:0:0:0:
367,199,149154,1,0,1:0:0:0:
253,286,149410,1,2,1:3:0:0:
267,328,149538,1,0,1:0:0:0:
425,373,149795,1,0,1:0:0:0:
437,333,149923,1,0,1:0:0:0:
474,116,150307,5,4,1:0:0:0:
484,81,150436,1,0,1:0:0:0:
302,130,150692,1,2,1:3:0:0:
278,102,150820,1,0,1:0:0:0:
211,239,151077,1,0,1:0:0:0:
171,260,151205,1,0,1:0:0:0:
56,188,151461,1,2,1:3:0:0:
47,151,151589,1,0,1:0:0:0:
157,88,151846,1,0,1:0:0:0:
163,55,151974,1,0,1:0:0:0:
377,19,152359,5,4,1:0:0:0:
392,66,152487,1,4,1:0:0:0:
285,191,152743,1,4,0:3:0:0:
304,236,152871,1,4,1:0:0:0:
261,110,153128,1,4,1:0:0:0:
244,68,153256,1,4,0:3:0:0:
414,174,153512,1,4,1:0:0:0:
431,218,153640,1,4,1:0:0:0:
351,365,153897,1,4,1:0:0:0:
334,315,154025,1,4,1:0:0:0:
185,286,154410,6,0,P|173:329|168:348,1,60,4|0,1:0|1:0,0:0:0:0:
219,217,154666,1,0,1:0:0:0:
56,154,154923,2,0,P|28:163|-14:180,1,60,0|0,1:0|1:0,0:0:0:0:
130,150,155179,1,4,0:3:0:0:
226,32,155436,2,0,P|192:22|167:21,1,60,0|0,1:0|0:0,0:0:0:0:
240,106,155692,1,0,1:0:0:0:
402,109,155948,2,0,P|420:101|466:87,1,60,4|0,0:3|1:3,0:0:0:0:
340,164,156205,1,4,0:3:0:0:
348,279,156461,5,4,0:3:0:0:
309,284,156589,1,2,0:3:0:0:
276,303,156718,1,2,0:3:0:0:
231,313,156846,1,2,0:3:0:0:
179,300,156974,1,4,0:3:0:0:
146,265,157102,1,2,0:0:0:0:
139,223,157230,1,2,0:0:0:0:
160,179,157359,1,2,0:0:0:0:
199,158,157487,6,0,B|143:181|78:176|38:131|38:131|64:80|104:70|153:79,1,300,0|4,1:0|0:3,0:0:0:0:
220,79,158256,1,0,1:0:0:0:
379,38,158512,5,4,1:0:0:0:
393,90,158641,1,0,1:0:0:0:
424,219,158897,1,2,1:3:0:0:
436,266,159025,1,0,1:0:0:0:
270,303,159282,1,0,1:0:0:0:
258,351,159410,1,0,1:0:0:0:
145,231,159666,1,2,1:3:0:0:
121,278,159795,1,4,0:3:0:0:
86,107,160051,5,0,1:0:0:0:
73,76,160179,2,0,B|115:62|115:62|191:81,1,120,4|0,0:3|0:0,0:0:0:0:
252,130,160564,5,4,1:0:0:0:
258,149,160692,2,0,P|287:165|320:171,1,60,4|0,0:3|0:0,0:0:0:0:
383,142,160948,2,0,B|353:167|353:167|340:266,1,120,4|4,0:3|0:3,0:0:0:0:
401,305,161333,1,0,1:0:0:0:
410,294,161461,1,4,0:3:0:0:
219,348,161846,1,4,0:3:0:0:
215,329,161974,2,0,L|78:309,1,120,0|0,1:0|1:0,0:0:0:0:
51,246,162359,1,4,0:3:0:0:
136,135,162615,6,0,P|157:178|235:170,1,120,4|4,1:0|0:3,0:0:0:0:
285,132,163000,2,0,L|297:4,1,120,0|4,1:0|0:3,0:0:0:0:
420,83,163512,1,4,0:3:0:0:
423,100,163641,1,4,0:3:0:0:
368,214,163897,1,4,0:3:0:0:
373,230,164025,2,0,L|387:295,1,60,4|0,0:3|0:0,0:0:0:0:
294,241,164282,2,0,L|321:371,1,120,0|0,1:0|0:0,0:0:0:0:
233,357,164666,6,0,P|201:313|120:319,1,120,4|4,1:0|0:3,0:0:0:0:
82,261,165051,2,0,L|52:189,1,60,4|0,0:3|1:0,0:0:0:0:
193,92,165436,1,0,0:0:0:0:
205,124,165564,2,0,P|257:107|320:144,1,120,4|0,0:3|0:0,0:0:0:0:
340,206,165948,2,0,P|366:209|398:200,3,40,0|0|0|0,1:0|1:0|1:0|1:0,0:0:0:0:
284,264,166333,2,0,P|321:283|393:334,1,120,4|0,0:3|0:0,0:0:0:0:
464,303,166718,6,0,L|471:161,1,120,4|4,1:0|0:3,0:0:0:0:
405,113,167101,1,4,0:3:0:0:
412,129,167230,2,0,L|424:7,1,120,0|0,1:0|1:0,0:0:0:0:
223,99,167743,5,4,0:3:0:0:
240,81,167871,2,0,B|189:74|189:74|169:81|169:81|101:70,1,120,0|0,1:0|1:0,0:0:0:0:
6,153,168384,2,0,B|44:157|44:157|58:168|58:168|129:184,1,120,0|0,1:0|1:0,0:0:0:0:
176,240,168769,5,4,1:0:0:0:
183,265,168897,1,4,0:3:0:0:
292,341,169154,1,4,0:3:0:0:
387,249,169410,2,0,L|398:184,1,60,4|0,0:3|1:0,0:0:0:0:
477,181,169666,2,0,L|499:56,2,120,4|0|0,0:3|1:0|1:0,0:0:0:0:
512,309,170436,1,0,1:0:0:0:
504,341,170564,1,4,0:3:0:0:
351,359,170820,5,4,1:0:0:0:
294,233,171077,1,0,1:0:0:0:
304,195,171205,1,4,0:3:0:0:
212,111,171461,2,0,L|244:-5,2,120,4|4|4,0:3|0:3|0:3,0:0:0:0:
98,170,172230,1,4,0:3:0:0:
86,203,172359,1,0,1:0:0:0:
198,348,172871,6,0,P|220:315|299:318,1,120,4|4,1:0|0:3,0:0:0:0:
412,212,173384,1,0,1:0:0:0:
388,227,173512,2,0,L|370:102,1,120,4|0,0:3|0:0,0:0:0:0:
300,67,173897,2,0,P|272:123|210:106,1,120,4|4,1:0|0:3,0:0:0:0:
105,227,174410,1,0,1:0:0:0:
110,200,174538,2,0,L|138:325,1,120,4|0,0:3|0:0,0:0:0:0:
74,360,174923,1,4,1:0:0:0:
323,192,178512,5,0,1:0:0:0:
340,214,178641,2,0,L|326:344,1,120,4|0,0:3|0:0,0:0:0:0:
249,280,179025,6,0,P|201:313|120:319,1,120,4|4,1:0|0:3,0:0:0:0:
72,285,179410,2,0,L|39:355,1,60,4|0,0:3|1:0,0:0:0:0:
35,179,179666,2,0,L|7:236,1,60,4|0,0:3|0:0,0:0:0:0:
90,124,179923,2,0,P|137:118|217:111,1,120,4|0,0:3|0:0,0:0:0:0:
258,52,180307,2,0,P|284:55|316:46,3,40,0|0|0|0,1:0|1:0|1:0|1:0,0:0:0:0:
285,133,180692,2,0,P|287:187|295:262,1,120,4|0,0:3|0:0,0:0:0:0:
247,319,181077,6,0,P|304:303|364:293,1,120,4|4,1:0|0:3,0:0:0:0:
389,196,181461,1,4,0:3:0:0:
392,208,181589,2,0,P|440:239|487:206,1,120,0|4,1:0|0:3,0:0:0:0:
369,25,182102,5,0,1:0:0:0:
343,33,182230,2,0,B|333:78|333:78|322:91|322:91|309:156,1,120,4|0,0:3|1:0,0:0:0:0:
196,67,182743,2,0,B|206:104|206:104|215:188,1,120,4|0,0:3|0:0,0:0:0:0:
160,240,183128,5,4,1:0:0:0:
167,265,183256,1,4,0:3:0:0:
190,384,183513,1,4,0:3:0:0:
285,295,183769,2,0,L|301:237,1,60,4|0,0:3|1:0,0:0:0:0:
316,156,184025,2,0,P|333:195|412:206,2,120,4|4|4,0:3|0:3|0:3,0:0:0:0:
425,27,184795,1,4,0:3:0:0:
417,59,184923,1,0,1:0:0:0:
244,10,185179,6,0,P|230:40|221:66,3,40,4|0|0|0,1:0|1:0|1:0|1:0,0:0:0:0:
103,101,185692,2,0,P|123:122|139:161,3,40,0|0|0|0,1:0|1:0|1:0|1:0,0:0:0:0:
248,186,186205,1,0,1:0:0:0:
254,218,186333,1,0,1:0:0:0:
258,249,186461,2,0,P|260:280|264:321,1,60,0|4,1:0|0:3,0:0:0:0:
191,336,186718,2,0,P|159:283|86:293,1,120,0|0,1:0|0:0,0:0:0:0:
344,321,187230,6,0,P|375:354|453:341,1,120,4|4,1:0|0:3,0:0:0:0:
473,168,187743,1,0,1:0:0:0:
488,192,187871,2,0,L|369:209,1,120,4|4,0:3|0:3,0:0:0:0:
315,151,188256,2,0,P|343:95|405:112,1,120,4|4,1:0|0:3,0:0:0:0:
213,19,188769,1,0,1:0:0:0:
240,24,188897,2,0,L|115:52,1,120,4|4,0:3|0:3,0:0:0:0:
48,70,189282,6,0,P|71:164|78:201,1,120,4|0,1:0|0:0,0:0:0:0:
219,191,189795,1,0,1:0:0:0:
206,223,189923,1,0,0:0:0:0:
293,334,190179,2,0,P|334:297|406:281,1,120,4|4,0:3|0:3,0:0:0:0:
457,163,190692,2,0,L|473:85,1,60,4|0,0:3|1:0,0:0:0:0:
485,28,190948,1,4,0:3:0:0:
258,92,191333,6,0,P|242:131|61:117,1,240,4|0,0:3|1:0,0:0:0:0:
40,66,191974,1,4,0:3:0:0:
4,202,192230,2,0,P|40:225|112:283,1,120,4|4,0:3|0:3,0:0:0:0:
226,270,192743,2,0,P|214:309|206:335,1,60,4|0,0:3|1:0,0:0:0:0:
276,369,193000,1,4,0:3:0:0:
477,203,193384,6,0,P|360:166|375:63,1,240,4|0,0:3|1:0,0:0:0:0:
325,5,194025,1,4,0:3:0:0:
195,40,194282,2,0,P|209:99|237:223,1,180,4|4,0:3|0:3,0:0:0:0:
158,241,194795,2,0,P|167:279|173:319,1,60,0|4,1:0|0:3,0:0:0:0:
78,224,195051,1,0,1:0:0:0:
265,347,195436,6,0,P|301:335|385:325,1,120,4|4,0:3|0:3,0:0:0:0:
457,343,195820,1,4,0:3:0:0:
491,218,196077,1,4,0:3:0:0:
422,88,196333,2,0,P|408:128|280:139,1,180,4|4,0:3|0:3,0:0:0:0:
222,102,196846,2,0,P|222:42|225:24,1,60,0|4,1:0|0:3,0:0:0:0:
144,114,197102,1,0,1:0:0:0:
12,223,197487,6,0,P|62:233|145:264,1,120,4|4,1:0|0:3,0:0:0:0:
286,269,198000,2,0,P|292:330|359:344,1,120,0|0,1:0|1:0,0:0:0:0:
409,310,198384,2,0,P|415:235|425:126,1,180,4|4,0:3|0:3,0:0:0:0:
326,27,199025,1,0,1:0:0:0:
319,54,199154,1,4,0:3:0:0:
185,95,199410,1,4,0:3:0:0:
189,123,199538,6,0,P|147:163|82:143,1,120,4|0,0:3|1:0,0:0:0:0:
20,182,199923,1,4,0:3:0:0:
119,263,200179,1,4,0:3:0:0:
249,239,200436,1,4,0:3:0:0:
371,297,200692,1,0,0:0:0:0:
395,264,200820,1,4,0:3:0:0:
352,133,201077,1,0,1:0:0:0:
386,110,201205,1,4,0:3:0:0:
181,23,201589,6,0,P|190:95|212:277,1,240,4|0,1:0|1:0,0:0:0:0:
140,293,202230,1,4,0:3:0:0:
255,367,202487,1,0,1:0:0:0:
276,349,202615,2,0,P|319:326|404:297,1,120,4|4,0:3|0:3,0:0:0:0:
469,171,203128,1,0,1:0:0:0:
442,179,203256,2,0,P|377:176|364:132,1,120,4|4,0:3|0:3,0:0:0:0:
353,51,203641,5,4,1:0:0:0:
353,51,205692,1,4,1:0:0:0:
353,51,206718,1,4,0:3:0:0:
353,51,207743,1,4,0:3:0:0:
295,176,208000,1,4,0:3:0:0:
170,127,208256,1,4,0:3:0:0:
223,9,208512,1,4,0:3:0:0:
34,38,208769,5,0,1:0:0:0:
52,64,208897,1,2,1:3:0:0:
59,102,209025,1,2,1:3:0:0:
45,138,209154,1,2,1:3:0:0:
26,177,209282,1,2,1:3:0:0:
32,230,209410,1,2,1:3:0:0:
66,259,209538,1,4,0:3:0:0:
215,209,209795,5,4,0:1:0:0:
192,283,209923,1,0,0:0:0:0:
310,325,210179,2,0,P|358:282|424:278,1,120,4|0,0:3|1:0,0:0:0:0:
455,185,210564,1,0,1:0:0:0:
462,206,210692,2,0,P|420:189|339:166,1,120,0|4,1:0|0:3,0:0:0:0:
300,88,211077,1,0,1:0:0:0:
291,102,211205,2,0,P|261:134|168:115,1,120,4|0,0:3|1:0,0:0:0:0:
114,140,211589,2,0,P|103:106|71:82,1,60,4|0,0:3|1:0,0:0:0:0:
160,209,211846,5,4,0:1:0:0:
230,246,211974,1,0,1:0:0:0:
138,345,212230,2,0,P|89:310|35:284,1,120,4|0,0:3|1:0,0:0:0:0:
219,351,212615,1,0,1:0:0:0:
227,335,212743,2,0,P|258:286|300:235,1,120,4|4,1:0|0:3,0:0:0:0:
377,228,213128,2,0,P|395:261|399:287,1,60,0|4,1:0|0:1,0:0:0:0:
406,152,213384,2,0,P|440:161|476:162,1,60,0|4,1:0|0:3,0:0:0:0:
355,88,213641,1,0,1:0:0:0:
322,54,213769,1,4,0:3:0:0:
272,33,213897,6,0,L|195:41,1,60,4|0,1:0|1:0,0:0:0:0:
176,147,214282,2,0,P|113:143|42:128,1,120,4|4,0:3|0:3,0:0:0:0:
12,200,214666,1,0,1:0:0:0:
25,208,214795,2,0,P|64:217|83:350,1,180,0|0,1:0|1:0,0:0:0:0:
172,361,215307,1,4,0:3:0:0:
307,285,215564,2,0,P|311:237|317:206,2,60,0|0|0,1:0|0:0|1:0,0:0:0:0:
390,298,215948,6,0,P|402:335|405:363,1,60,0|4,1:0|0:3,0:0:0:0:
442,201,216205,2,0,P|454:229|473:260,1,60,0|4,1:0|0:3,0:0:0:0:
378,52,216461,2,0,P|398:79|429:100,1,60,0|4,1:0|0:3,0:0:0:0:
265,15,216718,2,0,P|257:61|241:94,1,60,0|4,1:0|0:3,0:0:0:0:
192,214,216974,2,0,P|161:180|145:155,1,60,0|4,1:0|0:3,0:0:0:0:
142,141,217230,1,0,1:0:0:0:
27,268,217487,5,0,1:0:0:0:
64,277,217615,1,0,1:0:0:0:
94,302,217743,1,8,0:3:0:0:
111,331,217871,1,4,0:3:0:0:
118,367,218000,6,0,P|148:355|179:352,1,60,4|0,0:1|1:0,0:0:0:0:
288,276,218384,2,0,P|287:326|355:353,1,120,4|0,0:3|1:0,0:0:0:0:
407,304,218769,1,0,1:0:0:0:
402,287,218897,2,0,P|402:211|404:105,1,180,0|0,1:0|1:0,0:0:0:0:
456,56,219410,1,4,0:3:0:0:
294,47,219666,2,0,P|265:26|226:9,2,60,0|4|0,1:0|0:3|1:0,0:0:0:0:
264,122,220051,5,4,0:1:0:0:
190,99,220179,2,0,P|146:100|102:92,1,60,0|0,1:0|0:0,0:0:0:0:
126,173,220436,2,0,P|126:214|128:307,1,120,4|0,0:3|1:0,0:0:0:0:
210,296,220820,1,0,1:0:0:0:
212,313,220948,2,0,P|255:307|339:340,1,120,4|4,1:0|0:3,0:0:0:0:
388,274,221333,2,0,P|414:303|439:323,1,60,0|4,1:0|0:1,0:0:0:0:
377,195,221589,1,0,1:0:0:0:
397,171,221718,1,4,0:3:0:0:
415,137,221846,2,0,P|423:113|430:56,1,60,0|0,1:0|1:0,0:0:0:0:
366,32,222102,5,4,0:3:0:0:
352,56,222230,1,0,1:0:0:0:
194,64,222487,1,4,0:3:0:0:
180,90,222615,1,0,1:0:0:0:
286,211,222871,1,0,1:0:0:0:
274,242,223000,1,4,0:3:0:0:
133,312,223256,1,0,1:0:0:0:
119,338,223384,1,4,0:3:0:0:
41,190,223641,5,4,0:3:0:0:
72,171,223769,1,4,0:3:0:0:
109,164,223897,1,4,0:3:0:0:
147,174,224025,1,4,0:3:0:0:
176,192,224154,5,4,1:0:0:0:
165,217,224282,1,0,1:0:0:0:
253,315,224538,1,2,1:3:0:0:
300,166,224795,1,0,1:0:0:0:
364,318,225051,1,2,1:3:0:0:
403,162,225307,1,0,1:0:0:0:
461,352,225564,1,4,1:0:0:0:
471,323,225692,1,4,0:3:0:0:
480,295,225820,2,0,L|514:170,1,120,0|0,1:0|0:0,0:0:0:0:
445,138,226205,5,4,1:1:0:0:
496,80,226333,2,0,P|485:44|476:16,1,60,0|0,1:0|0:0,0:0:0:0:
400,11,226589,2,0,P|381:70|306:84,1,120,4|0,0:3|1:0,0:0:0:0:
262,133,226974,1,0,1:0:0:0:
254,116,227102,2,0,P|214:81|94:119,1,180,0|0,1:0|1:0,0:0:0:0:
49,167,227615,1,4,0:3:0:0:
166,281,227871,2,0,L|155:349,2,60,0|4|0,1:0|0:3|1:0,0:0:0:0:
239,245,228256,5,4,0:1:0:0:
313,264,228384,1,0,1:0:0:0:
343,131,228641,2,0,P|364:102|453:65,1,120,4|0,0:3|1:0,0:0:0:0:
349,9,229025,1,0,1:0:0:0:
338,18,229154,2,0,P|279:40|202:29,1,120,4|4,1:0|0:3,0:0:0:0:
147,95,229538,2,0,P|177:101|204:115,1,60,0|4,1:0|0:1,0:0:0:0:
258,183,229795,1,0,1:0:0:0:
226,189,229923,1,4,0:3:0:0:
201,202,230051,2,0,P|172:210|131:227,1,60,0|4,1:0|0:3,0:0:0:0:
89,279,230307,5,4,0:1:0:0:
98,298,230436,2,0,P|131:331|156:340,1,60,0|0,1:0|0:0,0:0:0:0:
220,352,230692,2,0,P|256:308|328:316,1,120,4|0,0:3|1:0,0:0:0:0:
392,291,231077,1,0,1:0:0:0:
396,308,231205,2,0,P|403:247|423:110,1,180,0|0,1:0|1:0,0:0:0:0:
486,85,231718,1,4,0:3:0:0:
304,135,231974,2,0,P|309:170|310:202,2,60,0|4|0,1:0|0:3|1:0,0:0:0:0:
230,99,232359,6,0,P|215:126|205:158,1,60,0|4,1:0|0:3,0:0:0:0:
95,157,232615,2,0,P|119:181|140:216,1,60,0|4,1:0|0:3,0:0:0:0:
138,285,232871,2,0,P|180:282|216:300,1,60,0|4,1:0|0:3,0:0:0:0:
333,299,233128,2,0,P|305:320|283:357,1,60,0|4,1:0|0:3,0:0:0:0:
411,176,233384,2,0,P|411:216|418:250,1,60,0|4,1:0|0:3,0:0:0:0:
430,264,233641,1,0,1:0:0:0:
504,49,233897,5,0,1:0:0:0:
472,30,234025,1,0,1:0:0:0:
428,27,234154,1,8,0:3:0:0:
389,42,234282,1,4,0:3:0:0:
350,72,234410,6,0,L|334:147,1,60,0|0,1:0|1:0,0:0:0:0:
209,172,234795,2,0,P|168:149|81:137,1,120,4|0,0:3|1:0,0:0:0:0:
35,185,235179,1,0,1:0:0:0:
41,202,235307,2,0,P|55:251|78:389,1,180,0|0,1:0|1:0,0:0:0:0:
153,374,235820,1,4,0:3:0:0:
268,271,236077,2,0,P|276:232|284:211,2,60,0|4|4,1:0|0:3|0:3,0:0:0:0:
183,239,236461,5,4,0:1:0:0:
193,222,236589,2,0,P|187:179|183:148,1,60,0|0,1:0|0:0,0:0:0:0:
150,92,236846,1,4,0:3:0:0:
319,9,237102,1,0,1:0:0:0:
332,43,237230,1,0,1:0:0:0:
326,84,237359,2,0,P|380:55|441:43,1,120,4|4,1:0|0:3,0:0:0:0:
380,169,237743,2,0,P|409:195|445:206,1,60,0|4,1:0|0:1,0:0:0:0:
447,126,238000,2,0,P|481:121|514:138,1,60,0|4,1:0|0:3,0:0:0:0:
383,269,238256,2,0,P|415:281|448:283,1,60,0|0,1:0|1:0,0:0:0:0:
507,335,238512,5,4,0:3:0:0:
511,358,238641,1,0,1:0:0:0:
345,353,238897,1,4,0:3:0:0:
327,377,239025,1,0,1:0:0:0:
200,285,239282,1,0,1:0:0:0:
168,277,239410,1,4,0:3:0:0:
151,121,239666,1,4,1:3:0:0:
128,93,239795,1,4,0:3:0:0:
273,16,240051,5,4,0:3:0:0:
299,47,240179,1,4,0:3:0:0:
346,62,240307,1,4,0:3:0:0:
392,56,240436,1,4,0:3:0:0:
425,27,240564,6,0,P|423:68|425:108,1,60,4|0,1:0|1:0,0:0:0:0:
475,149,240820,1,4,0:3:0:0:
484,170,240948,1,0,1:0:0:0:
357,254,241205,1,0,1:0:0:0:
505,274,241461,1,0,1:0:0:0:
295,176,241718,1,0,1:0:0:0:
257,369,241974,1,4,1:0:0:0:
242,341,242102,1,4,0:3:0:0:
228,316,242230,2,0,P|199:289|108:268,1,120,0|4,1:0|0:3,0:0:0:0:
59,213,242615,5,4,1:0:0:0:
84,184,242743,1,0,1:0:0:0:
96,145,242871,1,4,0:3:0:0:
89,108,243000,1,0,1:3:0:0:
252,180,243256,1,0,1:3:0:0:
223,27,243512,1,0,1:0:0:0:
391,141,243769,1,0,1:3:0:0:
456,2,244025,1,4,1:3:0:0:
472,41,244154,1,0,1:0:0:0:
486,73,244282,2,0,L|476:212,1,120,4|0,0:3|1:0,0:0:0:0:
401,230,244666,5,4,0:3:0:0:
451,265,244795,1,0,1:0:0:0:
462,317,244923,1,4,0:3:0:0:
445,366,245051,1,0,1:3:0:0:
252,283,245307,1,0,1:3:0:0:
296,129,245564,1,0,1:0:0:0:
141,95,245820,1,0,1:3:0:0:
101,260,246077,1,0,1:3:0:0:
95,289,246205,1,0,1:0:0:0:
87,319,246333,2,0,L|54:179,1,120,4|0,0:3|1:0,0:0:0:0:
140,179,246718,5,0,1:0:0:0:
193,180,246846,1,2,1:3:0:0:
241,201,246974,1,2,1:3:0:0:
273,242,247102,1,2,1:3:0:0:
306,290,247230,1,0,1:0:0:0:
358,319,247359,1,2,1:3:0:0:
415,325,247487,1,2,1:3:0:0:
467,294,247615,1,2,1:3:0:0:
483,237,247743,6,0,L|504:101,1,120,0|0,1:0|1:0,0:0:0:0:
396,97,248128,2,0,L|395:14,1,60,0|4,1:0|0:3,0:0:0:0:
274,0,248384,1,4,0:3:0:0:
286,18,248512,2,0,L|291:89,1,60,4|4,0:3|0:3,0:0:0:0:
201,152,248769,5,4,1:0:0:0:
256,192,248897,12,0,252871,0:0:0:0:
