osu file format v14

[General]
AudioFilename: Mars(R7)-Shade.mp3
AudioLeadIn: 0
PreviewTime: 34786
Countdown: 1
SampleSet: Soft
StackLeniency: 0.2
Mode: 0
LetterboxInBreaks: 0
WidescreenStoryboard: 1

[Editor]
Bookmarks: 30056
DistanceSpacing: 1.4
BeatDivisor: 8
GridSize: 4
TimelineZoom: 1

[Metadata]
Title:Mars (R7) / R8
TitleUnicode:Mars (R7)/R8
Artist:Shade
ArtistUnicode:Shade
Creator:Kinomi
Version:yf's Very Hard
Source:ランス・クエスト
Tags:alicesoft alice sound album アリスサウンドアルバム Vol Volume 22 マグナム Rance Quest MAGNUM instrumental video game yf_bmp
BeatmapID:4538073
BeatmapSetID:416719

[Difficulty]
HPDrainRate:6
CircleSize:1
OverallDifficulty:7
ApproachRate:7
SliderMultiplier:2.3
SliderTickRate:1

[Events]
//Background and Video events
0,0,"BG.jpg",0,0
//Break Periods
//Storyboard Layer 0 (Background)
//Storyboard Layer 1 (Fail)
//Storyboard Layer 2 (Pass)
//Storyboard Layer 3 (Foreground)
//Storyboard Layer 4 (Overlay)
//Storyboard Sound Samples

[TimingPoints]
327,1081.08108108108,4,2,1,30,1,0
15191,-66.6666666666667,4,2,1,30,0,0
16813,-66.6666666666667,4,2,1,5,0,0
17083,-66.6666666666667,4,2,1,30,0,0
17489,-66.6666666666667,4,2,1,5,0,0
17624,-66.6666666666667,4,2,1,30,0,0
28570,-66.6666666666667,4,2,1,5,0,0
28705,-66.6666666666667,4,2,1,30,0,0
33840,-66.6666666666667,4,2,1,5,0,0
34921,-66.6666666666667,4,2,1,30,0,0
36272,-50,4,2,1,30,0,0
36678,-50,4,2,1,5,0,0
36813,-66.6666666666667,4,2,1,30,0,0
44921,-50,4,2,1,30,0,0
45326,-50,4,2,1,5,0,0
45462,-66.6666666666667,4,2,1,30,0,0
50597,-66.6666666666667,4,2,1,5,0,0
50867,-50,4,2,1,30,0,0
52218,-66.6666666666667,4,2,1,30,0,0
53570,-50,4,2,1,30,0,0
53975,-50,4,2,1,5,0,0
54110,-66.6666666666667,4,2,1,30,0,0
61137,-66.6666666666667,4,2,1,15,0,0
61408,-66.6666666666667,4,2,1,30,0,0
62489,-66.6666666666667,4,2,1,15,0,0
62759,-66.6666666666667,4,2,1,30,0,0
63840,-80,4,2,1,30,0,0

[Colours]
Combo1 : 255,128,0
Combo2 : 0,128,192
Combo3 : 192,192,192

[HitObjects]
132,124,327,5,2,2:0:0:0:
304,100,597,1,0,2:0:0:0:
276,224,867,1,0,2:0:0:0:
168,292,1137,1,0,2:0:0:0:
16,252,1408,1,2,2:0:0:0:
0,0,1678,5,2,2:0:0:0:
168,16,1948,1,0,2:0:0:0:
304,100,2218,2,0,P|342:141|360:196,1,115,2|0,2:0|2:0,2:0:0:0:
352,312,3029,1,0,2:0:0:0:
60,360,3299,6,0,L|-16:372,2,57.5,2|0|0,2:0|2:0|2:0,2:0:0:0:
3,368,4651,5,2,2:0:0:0:
164,316,4921,1,0,2:0:0:0:
164,124,5191,1,2,2:0:0:0:
360,228,5462,1,0,2:0:0:0:
512,0,5732,6,0,P|417:64|320:104,1,172.5,2|2,2:0|2:0,2:0:0:0:
256,64,7083,2,0,L|196:52,2,57.5,0|0|2,2:0|2:0|2:0,2:0:0:0:
380,124,8705,6,0,L|372:80,2,28.75,2|0|2,2:0|2:0|2:0,2:0:0:0:
208,100,9245,1,0,2:0:0:0:
236,224,9516,1,0,2:0:0:0:
344,292,9786,1,2,2:0:0:0:
496,252,10056,1,0,2:0:0:0:
512,0,10326,5,2,2:0:0:0:
388,16,10597,1,0,2:0:0:0:
192,96,10867,2,0,P|117:97|56:84,1,115,2|0,2:0|2:0,2:0:0:0:
0,0,11678,1,0,2:0:0:0:
28,200,11948,6,0,L|104:212,2,57.5,2|0|0,2:0|2:0|2:0,2:0:0:0:
509,368,13029,1,0,2:0:0:0:
509,368,13164,1,0,2:0:0:0:
509,368,13299,5,2,2:0:0:0:
348,316,13570,1,0,2:0:0:0:
348,124,13840,1,0,2:0:0:0:
0,0,14381,5,2,2:0:0:0:
193,62,14651,1,0,2:0:0:0:
193,292,14921,1,0,2:0:0:0:
60,172,15191,6,0,P|145:179|231:171,1,172.5,2|2,2:0|2:0,2:0:0:0:
380,8,16002,1,0,2:0:0:0:
404,152,16272,1,0,2:0:0:0:
424,268,16543,2,0,L|440:368,1,86.25,2|0,2:0|2:0,2:0:0:0:
104,372,17083,6,0,P|48:305|-8:272,1,129.375,2|0,2:0|2:0,2:0:0:0:
16,264,17624,5,2,2:0:0:0:
176,276,17894,1,0,2:0:0:0:
312,364,18164,1,0,2:0:0:0:
108,180,18435,2,0,P|87:99|108:4,1,172.5,2|0,2:0|2:0,2:0:0:0:
324,0,19245,1,0,2:0:0:0:
324,0,19786,5,2,2:0:0:0:
196,116,20056,1,0,2:0:0:0:
24,100,20326,1,2,2:0:0:0:
308,112,20597,2,0,P|379:154|432:236,1,172.5,2|0,2:0|2:0,2:0:0:0:
444,344,21408,1,0,2:0:0:0:
272,368,21678,1,2,2:0:0:0:
272,368,21813,1,0,2:0:0:0:
272,368,21948,5,2,2:0:0:0:
256,212,22218,1,0,2:0:0:0:
344,56,22489,1,2,2:0:0:0:
180,300,22759,2,0,P|99:321|4:300,1,172.5,2|2,2:0|2:0,2:0:0:0:
24,100,23570,1,0,2:0:0:0:
160,104,23840,5,2,2:0:0:0:
160,104,24381,1,0,2:0:0:0:
24,100,24651,1,2,2:0:0:0:
272,184,24921,2,0,P|352:152|452:12,1,258.75,2|0,2:0|2:0,2:0:0:0:
496,120,26272,5,2,2:0:0:0:
336,108,26543,1,0,2:0:0:0:
200,20,26813,1,0,2:0:0:0:
404,204,27083,2,0,P|425:285|404:380,1,172.5,2|0,2:0|2:0,2:0:0:0:
188,376,27894,1,0,2:0:0:0:
400,356,28164,6,0,P|412:288|400:220,1,129.375,2|0,2:0|2:0,2:0:0:0:
356,184,28705,1,2,2:0:0:0:
496,168,28975,1,0,2:0:0:0:
276,292,29245,2,0,P|205:250|152:168,1,172.5,2|0,2:0|2:0,2:0:0:0:
88,52,30056,1,2,2:0:0:0:
304,0,30326,1,0,2:0:0:0:
304,0,30462,1,0,2:0:0:0:
304,0,30597,5,2,2:0:0:0:
304,0,30867,1,0,2:0:0:0:
304,0,31137,1,2,2:0:0:0:
304,0,31408,2,0,P|325:81|304:176,1,172.5,2|2,2:0|2:0,2:0:0:0:
304,0,32218,1,2,2:0:0:0:
220,272,32489,5,0,2:0:0:0:
380,84,33029,5,2,2:0:0:0:
220,272,33299,1,2,2:0:0:0:
28,112,33570,2,0,P|4:61|3:-6,1,86.25,2|0,2:0|2:0,2:0:0:0:
480,20,34921,6,0,P|464:63|457:103,1,86.25,2|0,2:0|2:0,2:0:0:0:
472,300,35462,1,0,2:0:0:0:
148,372,35732,1,0,2:0:0:0:
204,332,35867,1,2,2:0:0:0:
204,260,36002,1,2,2:0:0:0:
336,76,36272,6,0,P|298:143|186:130,1,172.5,2|0,2:0|2:0,2:0:0:0:
144,168,36813,6,0,P|137:94|104:-8,1,172.5,2|2,2:0|2:0,2:0:0:0:
0,156,37624,1,0,2:0:0:0:
284,132,37894,2,0,P|304:176|320:244,2,86.25,2|0|0,2:0|2:0|2:0,2:0:0:0:
0,312,38705,6,0,L|88:288,1,86.25,0|0,2:0|2:0,2:0:0:0:
144,296,39110,1,0,2:0:0:0:
184,340,39245,1,2,2:0:0:0:
83,289,39516,5,0,2:0:0:0:
152,240,39651,1,2,2:0:0:0:
240,248,39786,1,2,2:0:0:0:
83,289,40056,5,0,2:0:0:0:
56,184,40191,1,2,2:0:0:0:
152,132,40326,1,2,2:0:0:0:
296,344,40597,1,2,2:0:0:0:
496,188,40867,1,0,2:0:0:0:
212,12,41137,6,0,P|108:24|36:64,1,172.5,2|0,2:0|2:0,2:0:0:0:
120,360,41948,1,0,2:0:0:0:
426,288,42218,1,2,2:0:0:0:
268,304,42489,2,0,P|253:258|251:204,1,86.25,2|0,2:0|2:0,2:0:0:0:
268,304,43570,6,0,P|225:288|185:281,1,86.25,2|0,2:0|2:0,2:0:0:0:
0,320,44110,1,0,2:0:0:0:
140,20,44381,1,0,2:0:0:0:
180,76,44516,1,2,2:0:0:0:
252,76,44651,1,2,2:0:0:0:
452,172,44921,6,0,P|385:210|398:322,1,172.5,2|0,2:0|2:0,2:0:0:0:
440,332,45462,6,0,P|366:339|264:372,2,172.5,2|2|2,2:0|2:0|2:0,2:0:0:0:
239,15,47083,2,0,P|157:42|72:52,1,172.5,2|0,2:0|2:0,2:0:0:0:
4,260,47894,5,2,2:0:0:0:
212,328,48164,1,0,2:0:0:0:
248,216,48435,1,0,2:0:0:0:
284,104,48975,5,2,3:2:0:0:
248,216,49245,1,2,0:2:0:0:
212,328,49516,1,0,2:0:0:0:
432,336,49786,6,0,P|506:232|508:105,1,258.75,2|0,2:0|2:0,2:0:0:0:
312,168,50867,6,0,P|249:170|92:110,1,230,2|2,2:0|2:0,2:0:0:0:
32,364,52218,6,0,P|48:321|55:281,1,86.25,2|0,2:0|2:0,2:0:0:0:
40,84,52759,1,0,2:0:0:0:
348,0,53029,1,0,2:0:0:0:
292,40,53164,1,2,2:0:0:0:
292,112,53299,1,2,2:0:0:0:
174,295,53570,6,0,P|212:228|324:241,1,172.5,0|0,2:0|2:0,2:0:0:0:
364,200,54110,6,0,P|371:274|404:376,1,172.5,2|2,2:0|2:0,2:0:0:0:
512,228,54921,1,0,2:0:0:0:
228,252,55191,2,0,P|208:208|192:140,2,86.25,2|0|0,2:0|2:0|2:0,2:0:0:0:
512,72,56002,6,0,L|424:96,1,86.25,2|0,2:0|2:0,2:0:0:0:
368,88,56408,1,0,2:0:0:0:
328,44,56543,1,2,2:0:0:0:
368,88,56813,5,0,2:0:0:0:
299,137,56948,1,2,2:0:0:0:
211,129,57083,1,2,2:0:0:0:
299,137,57354,5,0,2:0:0:0:
326,242,57489,1,2,2:0:0:0:
230,294,57624,1,2,2:0:0:0:
0,200,57894,1,0,2:0:0:0:
172,0,58164,1,2,2:0:0:0:
428,188,58435,6,0,P|443:291|423:371,1,172.5,2|2,2:0|2:0,2:0:0:0:
115,366,59245,1,2,2:0:0:0:
106,52,59516,2,0,P|171:107|252:135,1,172.5,2|2,2:0|2:0,2:0:0:0:
244,16,60867,6,0,P|287:32|327:39,1,86.25,2|0,2:0|2:0,2:0:0:0:
512,32,61408,1,2,2:0:0:0:
420,248,61678,2,0,P|289:296|167:318,1,258.75,2|0,2:0|2:0,2:0:0:0:
132,188,62759,6,0,P|258:163|379:118,1,258.75,2|2,2:0|2:0,2:0:0:0:
324,0,63840,2,0,P|220:38|112:59,1,215.625,2|0,2:0|2:0,2:0:0:0:
8,188,64921,6,0,B|136:131|278:202|164:316|306:387|434:330,1,503.125,2|0,2:0|2:0,2:0:0:0:
512,180,67083,1,2,2:0:0:0:
256,192,67218,12,2,69516,2:0:0:0:
