osu file format v14

[General]
AudioFilename: Mars(R7)-Shade.mp3
AudioLeadIn: 0
PreviewTime: 34786
Countdown: 1
SampleSet: Soft
StackLeniency: 0.7
Mode: 0
LetterboxInBreaks: 0
WidescreenStoryboard: 1

[Editor]
Bookmarks: 30056
DistanceSpacing: 1.2
BeatDivisor: 8
GridSize: 8
TimelineZoom: 1

[Metadata]
Title:Mars (R7) / R8
TitleUnicode:Mars (R7)/R8
Artist:Shade
ArtistUnicode:Shade
Creator:Kinomi
Version:Not Hard
Source:ランス・クエスト
Tags:alicesoft alice sound album アリスサウンドアルバム Vol Volume 22 マグナム Rance Quest MAGNUM instrumental video game yf_bmp
BeatmapID:4529098
BeatmapSetID:416719

[Difficulty]
HPDrainRate:4
CircleSize:4
OverallDifficulty:4
ApproachRate:4
SliderMultiplier:1.6
SliderTickRate:1

[Events]
//Background and Video events
0,0,"BG.jpg",0,0
//Break Periods
//Storyboard Layer 0 (Background)
//Storyboard Layer 1 (Fail)
//Storyboard Layer 2 (Pass)
//Storyboard Layer 3 (Foreground)
//Storyboard Layer 4 (Overlay)
//Storyboard Sound Samples

[TimingPoints]
327,1081.08108108108,4,2,1,30,1,0
34921,-100,4,2,1,30,0,0
69516,-100,4,2,1,30,0,0

[Colours]
Combo1 : 255,128,0
Combo2 : 0,128,192
Combo3 : 192,192,192

[HitObjects]
163,308,327,6,0,L|119:314,2,40,2|0|0,0:0|0:0|0:0,0:0:0:0:
208,294,1137,1,0,0:0:0:0:
245,263,1408,1,2,0:0:0:0:
176,141,2218,2,0,L|246:74,1,80,2|0,0:0|0:0,0:0:0:0:
279,71,3029,1,0,0:0:0:0:
279,71,3299,2,0,L|335:65,1,40,2|0,0:0|0:0,0:0:0:0:
297,260,4651,1,2,0:0:0:0:
297,260,4921,6,0,P|258:293|214:300,1,80
184,284,5732,1,2,0:0:0:0:
128,150,6543,1,2,0:0:0:0:
56,216,7083,2,0,L|30:265,2,40,0|0|2,0:0|0:0|0:0,0:0:0:0:
182,72,8705,5,2,0:0:0:0:
182,72,8975,2,0,P|238:44|307:37,1,120,2|0,0:0|0:0,0:0:0:0:
342,37,10056,1,2,0:0:0:0:
336,136,10597,1,0,0:0:0:0:
336,136,10867,2,0,L|368:225,1,80,2|0,0:0|0:0,0:0:0:0:
379,256,11678,1,0,0:0:0:0:
376,303,11948,1,2,0:0:0:0:
237,177,13029,5,0,0:0:0:0:
237,177,13299,1,2,0:0:0:0:
226,273,13840,1,0,0:0:0:0:
135,301,14381,2,0,P|93:259|76:195,1,120,2|2,0:0|0:0,0:0:0:0:
155,81,16002,1,0,0:0:0:0:
201,69,16272,1,0,0:0:0:0:
243,92,16543,2,0,P|265:130|302:153,1,80,2|2,0:0|0:0,0:0:0:0:
373,204,17624,5,2,0:0:0:0:
300,331,18435,1,2,0:0:0:0:
245,258,18975,1,0,0:0:0:0:
245,258,19245,1,2,0:0:0:0:
158,216,19786,1,2,0:0:0:0:
158,312,20326,1,2,0:0:0:0:
158,312,20597,1,0,0:0:0:0:
248,342,21137,2,0,L|301:335,1,40,0|2,0:0|0:0,0:0:0:0:
335,321,21678,1,0,0:0:0:0:
335,321,21948,6,0,P|382:272|390:245,1,80,2|0,0:0|0:0,0:0:0:0:
405,217,22759,1,2,0:0:0:0:
349,138,23299,2,0,L|369:91,2,40,2|0|2,0:0|0:0|0:0,0:0:0:0:
257,104,24381,2,0,L|255:58,2,40,0|2|2,0:0|0:0|0:0,0:0:0:0:
338,222,25732,1,0,0:0:0:0:
243,236,26272,6,0,P|185:240|125:222,1,120,2|2,0:0|0:0,0:0:0:0:
66,96,27894,1,0,0:0:0:0:
66,96,28164,2,0,L|149:59,1,80,2|2,0:0|0:0,0:0:0:0:
186,58,28975,1,0,0:0:0:0:
232,70,29245,1,2,0:0:0:0:
347,229,30326,5,0,0:0:0:0:
347,229,30597,2,0,L|314:251,1,40,2|0,0:0|0:0,0:0:0:0:
273,277,31137,2,0,L|234:265,1,40,2|2,0:0|0:0,0:0:0:0:
164,199,31948,2,0,L|203:166,1,40,2|2,0:0|0:0,0:0:0:0:
233,144,32489,1,0,0:0:0:0:
322,177,33029,2,0,L|344:127,2,40,2|2|2,0:0|0:0|0:0,0:0:0:0:
106,284,34921,5,2,0:0:0:0:
243,327,35732,1,0,0:0:0:0:
243,327,36002,2,0,L|284:305,1,40,2|2,0:0|0:0,0:0:0:0:
364,266,36813,2,0,L|381:179,1,80,2|2,0:0|0:0,0:0:0:0:
392,141,37624,1,0,0:0:0:0:
392,141,37894,2,0,P|340:122|312:90,1,80,2|0,0:0|0:0,0:0:0:0:
292,68,38705,1,2,0:0:0:0:
201,34,39245,6,0,L|198:79,1,40,2|0,0:0|0:0,0:0:0:0:
207,121,39786,2,0,L|184:171,1,40,2|0,0:0|0:0,0:0:0:0:
172,201,40326,1,2,0:0:0:0:
178,248,40597,1,0,0:0:0:0:
206,286,40867,2,0,L|263:289,1,40,0|2,0:0|0:0,0:0:0:0:
344,303,41678,1,0,0:0:0:0:
344,303,41948,2,0,L|374:269,1,40,0|2,0:0|0:0,0:0:0:0:
400,235,42489,2,0,L|413:189,1,40,2|0,0:0|0:0,0:0:0:0:
267,206,43570,5,2,0:0:0:0:
132,249,44381,1,0,0:0:0:0:
132,249,44651,2,0,L|96:224,1,40,2|2,0:0|0:0,0:0:0:0:
21,169,45462,1,2,0:0:0:0:
70,84,46002,1,2,0:0:0:0:
127,158,46543,2,0,L|214:155,1,80,2|2,0:0|0:0,0:0:0:0:
327,76,47894,6,0,L|356:26,2,40,2|0|2,0:0|0:0|0:0,0:0:0:0:
234,88,48975,1,2,0:0:0:0:
234,88,49245,2,0,L|202:126,1,40,2|2,0:0|0:0,0:0:0:0:
174,152,49786,1,2,0:0:0:0:
156,345,50867,2,0,L|241:326,1,80,2|2,0:0|0:0,0:0:0:0:
372,289,52218,5,2,0:0:0:0:
438,161,53029,1,0,0:0:0:0:
390,162,53299,1,2,0:0:0:0:
345,181,53570,1,0,0:0:0:0:
270,241,54110,2,0,P|237:260|186:266,1,80,2|2,0:0|0:0,0:0:0:0:
153,289,54921,1,0,0:0:0:0:
108,271,55191,2,0,P|87:242|77:183,1,80,2|0,0:0|0:0,0:0:0:0:
61,153,56002,1,2,0:0:0:0:
64,56,56543,6,0,L|115:74,1,40,2|0,0:0|0:0,0:0:0:0:
145,87,57083,2,0,L|190:73,1,40,2|0,0:0|0:0,0:0:0:0:
227,57,57624,1,2,0:0:0:0:
274,48,57894,1,0,0:0:0:0:
323,58,58164,2,0,L|365:85,1,40,0|2,0:0|0:0,0:0:0:0:
362,179,58975,1,0,0:0:0:0:
362,179,59245,2,0,L|310:186,1,40,2|2,0:0|0:0,0:0:0:0:
233,148,60056,1,2,0:0:0:0:
165,273,60867,6,0,P|205:315|239:325,1,80,2|2,0:0|0:0,0:0:0:0:
271,333,61678,1,2,0:0:0:0:
461,311,62759,2,0,L|438:178,1,120,2|2,0:0|0:0,0:0:0:0:
432,145,63840,1,2,0:0:0:0:
316,59,64651,1,2,0:0:0:0:
270,43,64921,1,2,0:0:0:0:
270,43,66813,5,2,0:0:0:0:
270,43,67083,1,2,0:0:0:0:
200,108,67624,1,2,0:0:0:0:
200,108,67894,2,0,L|188:164,1,40,0|2,0:0|0:0,0:0:0:0:
196,195,68435,2,0,L|220:240,1,40,0|2,0:0|0:0,0:0:0:0:
254,257,68975,1,2,0:0:0:0:
349,263,69516,5,2,0:0:0:0:
