osu file format v14

[General]
AudioFilename: Mars(R7)-Shade.mp3
AudioLeadIn: 0
PreviewTime: 34786
Countdown: 1
SampleSet: Soft
StackLeniency: 0.7
Mode: 0
LetterboxInBreaks: 0
WidescreenStoryboard: 1

[Editor]
Bookmarks: 30056
DistanceSpacing: 2
BeatDivisor: 8
GridSize: 8
TimelineZoom: 1

[Metadata]
Title:Mars (R7) / R8
TitleUnicode:Mars (R7)/R8
Artist:Shade
ArtistUnicode:Shade
Creator:Kinomi
Version:Hard
Source:ランス・クエスト
Tags:alicesoft alice sound album アリスサウンドアルバム Vol Volume 22 マグナム Rance Quest MAGNUM instrumental video game yf_bmp
BeatmapID:4529097
BeatmapSetID:416719

[Difficulty]
HPDrainRate:5
CircleSize:5
OverallDifficulty:5
ApproachRate:6
SliderMultiplier:1.6
SliderTickRate:1

[Events]
//Background and Video events
0,0,"BG.jpg",0,0
//Break Periods
//Storyboard Layer 0 (Background)
//Storyboard Layer 1 (Fail)
//Storyboard Layer 2 (Pass)
//Storyboard Layer 3 (Foreground)
//Storyboard Layer 4 (Overlay)
//Storyboard Sound Samples

[TimingPoints]
327,1081.08108108108,4,2,1,30,1,0
34921,-90.9090909090909,4,2,1,30,0,0
69516,-100,4,2,1,30,0,0

[Colours]
Combo1 : 255,128,0
Combo2 : 0,128,192
Combo3 : 192,192,192

[HitObjects]
62,277,327,6,0,L|114:298,1,40,2|0,0:0|0:0,0:0:0:0:
158,238,867,2,0,L|210:259,1,40
242,188,1408,2,0,L|294:209,1,40,2|2,0:0|0:0,0:0:0:0:
347,173,1948,1,0,0:0:0:0:
347,173,2218,6,0,P|330:128|327:89,1,80,2|0,0:0|0:0,0:0:0:0:
269,40,3029,1,0,0:0:0:0:
246,116,3299,1,2,0:0:0:0:
218,191,3570,1,0,0:0:0:0:
184,263,3840,1,0,0:0:0:0:
417,320,4651,6,0,L|362:303,1,40,2|0,0:0|0:0,0:0:0:0:
335,241,5191,2,0,L|285:256,1,40,2|0,0:0|0:0,0:0:0:0:
248,316,5732,2,0,P|186:305|135:273,1,120,2|2,0:0|0:0,0:0:0:0:
61,135,7083,5,0,0:0:0:0:
135,164,7354,1,0,0:0:0:0:
214,162,7624,1,2,0:0:0:0:
289,135,7894,1,0,0:0:0:0:
58,68,8705,6,0,L|49:35,2,20,2|0|2,0:0|0:0|0:0,0:0:0:0:
119,119,9245,1,0,0:0:0:0:
189,162,9516,2,0,L|241:171,1,40
208,91,10056,2,0,L|248:98,1,40,0|2,0:0|0:0,0:0:0:0:
306,43,10597,1,0,0:0:0:0:
373,87,10867,2,0,L|373:168,1,80,2|0,0:0|0:0,0:0:0:0:
318,225,11678,1,0,0:0:0:0:
384,269,11948,2,0,L|384:350,1,80,2|0,0:0|0:0,0:0:0:0:
224,340,13029,5,0,0:0:0:0:
223,330,13164,1,0,0:0:0:0:
222,320,13299,1,2,0:0:0:0:
274,259,13570,1,0,0:0:0:0:
215,204,13840,1,0,0:0:0:0:
215,204,14381,2,0,L|160:200,1,40,2|0,0:0|0:0,0:0:0:0:
148,125,14921,1,0,0:0:0:0:
205,69,15191,2,0,L|302:76,1,80,2|0,0:0|0:0,0:0:0:0:
331,140,16002,2,0,L|376:111,2,40,0|0|2,0:0|0:0|0:0,0:0:0:0:
331,140,16813,1,0,0:0:0:0:
351,217,17083,1,2,0:0:0:0:
351,217,17624,6,0,L|393:203,1,40,2|0,0:0|0:0,0:0:0:0:
442,145,18164,1,0,0:0:0:0:
383,78,18435,2,0,L|301:62,1,80,2|0,0:0|0:0,0:0:0:0:
232,96,19245,1,0,0:0:0:0:
232,96,19786,2,0,L|180:88,1,40,2|0,0:0|0:0,0:0:0:0:
146,152,20326,1,2,0:0:0:0:
95,214,20597,2,0,L|28:155,1,80,2|0,0:0|0:0,0:0:0:0:
39,81,21408,1,0,0:0:0:0:
110,44,21678,1,2,0:0:0:0:
110,44,21813,1,0,0:0:0:0:
110,44,21948,6,0,L|154:66,1,40,2|0,0:0|0:0,0:0:0:0:
224,47,22489,1,2,0:0:0:0:
297,77,22759,2,0,L|280:174,1,80,2|2,0:0|0:0,0:0:0:0:
265,233,23570,1,0,0:0:0:0:
301,304,23840,2,0,L|387:291,1,80,2|0,0:0|0:0,0:0:0:0:
413,219,24651,1,2,0:0:0:0:
382,145,24921,2,0,L|302:133,1,80,2|0,0:0|0:0,0:0:0:0:
250,72,25732,1,0,0:0:0:0:
250,72,26272,6,0,P|200:96|165:98,1,80,2|0,0:0|0:0,0:0:0:0:
99,122,27083,2,0,L|106:211,1,80,2|0,0:0|0:0,0:0:0:0:
47,257,27894,1,0,0:0:0:0:
118,293,28164,2,0,P|166:302|212:298,1,80,2|2,0:0|0:0,0:0:0:0:
266,340,28975,1,0,0:0:0:0:
345,350,29245,2,0,P|397:340|424:327,1,80,2|0,0:0|0:0,0:0:0:0:
454,255,30056,1,0,0:0:0:0:
408,188,30326,1,0,0:0:0:0:
408,188,30462,1,0,0:0:0:0:
408,188,30597,6,0,L|357:202,1,40,2|0,0:0|0:0,0:0:0:0:
289,190,31137,2,0,L|295:137,1,40,2|2,0:0|0:0,0:0:0:0:
244,86,31678,1,0,0:0:0:0:
183,138,31948,2,0,L|174:191,2,40,2|2|0,0:0|0:0|0:0,0:0:0:0:
309,40,33029,5,2,0:0:0:0:
333,116,33299,1,2,0:0:0:0:
327,196,33570,1,2,0:0:0:0:
215,324,34921,6,0,P|181:320|122:284,1,88.000002685547,2|0,0:0|0:0,0:0:0:0:
73,230,35732,1,0,0:0:0:0:
73,230,35867,1,0,0:0:0:0:
73,230,36002,2,0,L|129:207,1,44.0000013427735,2|2,0:0|0:0,0:0:0:0:
282,164,36813,1,2,0:0:0:0:
423,269,37354,2,0,L|453:231,2,44.0000013427735,2|0|2,0:0|0:0|0:0,0:0:0:0:
263,344,38435,2,0,L|212:320,1,44.0000013427735
154,270,38975,5,0,0:0:0:0:
154,270,39110,1,0,0:0:0:0:
154,270,39245,1,2,0:0:0:0:
100,200,39516,2,0,L|59:203,2,22.0000006713867,0|0|2,0:0|0:0|0:0,0:0:0:0:
142,123,40056,1,0,0:0:0:0:
142,123,40191,1,0,0:0:0:0:
142,123,40326,1,2,0:0:0:0:
219,80,40597,1,2,0:0:0:0:
306,76,40867,2,0,L|363:87,1,44.0000013427735,0|2,0:0|0:0,0:0:0:0:
425,242,41678,6,0,L|474:227,2,44.0000013427735,0|0|2,0:0|0:0|0:0,0:0:0:0:
337,230,42489,1,2,0:0:0:0:
291,154,42759,1,0,0:0:0:0:
291,154,43570,6,0,L|297:66,1,88.000002685547,2|0,0:0|0:0,0:0:0:0:
214,34,44381,1,0,0:0:0:0:
214,34,44516,1,0,0:0:0:0:
214,34,44651,2,0,L|172:59,1,44.0000013427735,2|2,0:0|0:0,0:0:0:0:
55,184,45462,2,0,P|24:149|18:106,2,88.000002685547,2|2|2,0:0|0:0|0:0,0:0:0:0:
187,299,47083,1,2,0:0:0:0:
187,299,47354,1,0,0:0:0:0:
361,321,47894,6,0,L|381:265,1,44.0000013427735,2|0,0:0|0:0,0:0:0:0:
392,192,48435,1,0,0:0:0:0:
392,192,48975,2,0,L|330:188,1,44.0000013427735,2|2,0:0|0:0,0:0:0:0:
260,202,49516,2,0,L|213:190,1,44.0000013427735,0|2,0:0|0:0,0:0:0:0:
96,94,50867,1,2,0:0:0:0:
96,94,51408,1,2,0:0:0:0:
356,52,52218,6,0,P|372:81|383:140,1,88.000002685547,2|0,0:0|0:0,0:0:0:0:
377,222,53029,1,0,0:0:0:0:
377,222,53164,1,0,0:0:0:0:
377,222,53299,2,0,L|333:245,1,44.0000013427735,2|0,0:0|0:0,0:0:0:0:
176,172,54110,2,0,L|265:126,1,88.000002685547,2|2,0:0|0:0,0:0:0:0:
232,46,54921,1,0,0:0:0:0:
144,54,55191,2,0,P|108:62|70:108,1,88.000002685547,2|0,0:0|0:0,0:0:0:0:
42,180,56002,1,0,0:0:0:0:
88,254,56272,5,0,0:0:0:0:
88,254,56408,1,0,0:0:0:0:
88,254,56543,1,2,0:0:0:0:
159,305,56813,2,0,L|136:337,2,22.0000006713867,0|0|2,0:0|0:0|0:0,0:0:0:0:
246,311,57354,1,0,0:0:0:0:
246,311,57489,1,0,0:0:0:0:
246,311,57624,1,2,0:0:0:0:
332,293,57894,1,0,0:0:0:0:
413,260,58164,2,0,L|417:211,1,44.0000013427735,2|2,0:0|0:0,0:0:0:0:
347,54,58975,5,2,0:0:0:0:
347,54,59245,2,0,L|315:93,1,44.0000013427735,2|2,0:0|0:0,0:0:0:0:
231,75,59786,2,0,L|224:127,1,44.0000013427735,0|2,0:0|0:0,0:0:0:0:
76,336,60867,5,2,0:0:0:0:
123,166,61408,2,0,L|145:108,1,44.0000013427735,2|2,0:0|0:0,0:0:0:0:
400,93,62759,1,2,0:0:0:0:
400,93,63570,2,0,L|414:152,1,44.0000013427735,2|2,0:0|0:0,0:0:0:0:
234,332,64651,1,2,0:0:0:0:
234,332,64921,5,2,0:0:0:0:
221,152,66813,1,2,0:0:0:0:
221,152,67083,1,2,0:0:0:0:
248,326,67624,1,2,0:0:0:0:
248,326,67894,2,0,L|292:305,1,44.0000013427735,2|2,0:0|0:0,0:0:0:0:
337,234,68435,2,0,L|282:212,1,44.0000013427735,2|2,0:0|0:0,0:0:0:0:
237,151,68975,1,2,0:0:0:0:
237,151,69516,5,2,0:0:0:0:
