osu file format v14

[General]
AudioFilename: audio.mp3
AudioLeadIn: 0
PreviewTime: -1
Countdown: 1
SampleSet: Normal
StackLeniency: 0.7
Mode: 3
LetterboxInBreaks: 0
SpecialStyle: 0
WidescreenStoryboard: 0

[Editor]
DistanceSpacing: 2
BeatDivisor: 4
GridSize: 16
TimelineZoom: 1

[Metadata]
Title:Ah Thousand Jugs
TitleUnicode:Ah Thousand Jugs
Artist:Sexyy Red
ArtistUnicode:Sexyy Red
Creator:Umo-
Version:Boom
Source:
Tags:
BeatmapID:1846978
BeatmapSetID:883560

[Difficulty]
HPDrainRate:8
CircleSize:4
OverallDifficulty:8
ApproachRate:5
SliderMultiplier:1.4
SliderTickRate:1

[Events]
//Background and Video events
0,0,"hood.jpg",0,0
//Break Periods
//Storyboard Layer 0 (Background)
//Storyboard Layer 1 (Fail)
//Storyboard Layer 2 (Pass)
//Storyboard Layer 3 (Foreground)
//Storyboard Sound Samples

[TimingPoints]
194,631.578947368421,4,1,0,30,1,0
10467,632.278947368421,4,1,0,30,1,0
61049,-100,4,1,0,30,0,1
66107,-100,4,1,0,30,0,0
86340,-100,4,1,0,30,0,1
87288,-100,4,1,0,30,0,0
88869,-100,4,1,0,30,0,1
89818,-100,4,1,0,30,0,0
91398,-100,4,1,0,30,0,1
92347,-100,4,1,0,30,0,0

[HitObjects]
448,192,194,5,0,0:0:0:0:
320,192,351,1,0,0:0:0:0:
64,192,351,1,0,0:0:0:0:
192,192,509,1,0,0:0:0:0:
448,192,667,1,0,0:0:0:0:
64,192,825,1,0,0:0:0:0:
192,192,825,1,0,0:0:0:0:
320,192,983,1,0,0:0:0:0:
448,192,1141,1,0,0:0:0:0:
64,192,1299,1,0,0:0:0:0:
192,192,2246,1,0,0:0:0:0:
448,192,2562,1,0,0:0:0:0:
320,192,2720,1,0,0:0:0:0:
64,192,2878,1,0,0:0:0:0:
192,192,2878,1,0,0:0:0:0:
448,192,3036,1,0,0:0:0:0:
320,192,3194,1,0,0:0:0:0:
64,192,3351,1,0,0:0:0:0:
192,192,3509,1,0,0:0:0:0:
64,192,3667,1,0,0:0:0:0:
320,192,3825,1,0,0:0:0:0:
448,192,3825,1,0,0:0:0:0:
192,192,3983,1,0,0:0:0:0:
64,192,4141,1,0,0:0:0:0:
192,192,4299,1,0,0:0:0:0:
64,192,4457,1,0,0:0:0:0:
192,192,4615,1,0,0:0:0:0:
448,192,4772,1,0,0:0:0:0:
320,192,4772,1,0,0:0:0:0:
192,192,4930,1,0,0:0:0:0:
64,192,5088,1,0,0:0:0:0:
448,192,5246,1,0,0:0:0:0:
64,192,5404,1,0,0:0:0:0:
192,192,5404,1,0,0:0:0:0:
320,192,5562,1,0,0:0:0:0:
448,192,5720,1,0,0:0:0:0:
192,192,5878,1,0,0:0:0:0:
64,192,5878,1,0,0:0:0:0:
320,192,6036,1,0,0:0:0:0:
448,192,6194,1,0,0:0:0:0:
64,192,6351,1,0,0:0:0:0:
320,192,7299,1,0,0:0:0:0:
448,192,7615,1,0,0:0:0:0:
320,192,7772,1,0,0:0:0:0:
64,192,7930,1,0,0:0:0:0:
192,192,7930,1,0,0:0:0:0:
448,192,8088,1,0,0:0:0:0:
192,192,8246,1,0,0:0:0:0:
320,192,8404,1,0,0:0:0:0:
448,192,8404,1,0,0:0:0:0:
64,192,8562,1,0,0:0:0:0:
192,192,8720,1,0,0:0:0:0:
64,192,8878,1,0,0:0:0:0:
320,192,9509,1,0,0:0:0:0:
64,192,10467,1,0,0:0:0:0:
448,192,10467,1,0,0:0:0:0:
448,192,10783,1,0,0:0:0:0:
320,192,10941,1,0,0:0:0:0:
64,192,10941,1,0,0:0:0:0:
192,192,11099,1,0,0:0:0:0:
64,192,11099,1,0,0:0:0:0:
448,192,11099,1,0,0:0:0:0:
320,192,11415,1,0,0:0:0:0:
448,192,11731,1,0,0:0:0:0:
320,192,11731,1,0,0:0:0:0:
64,192,11731,1,0,0:0:0:0:
192,192,12047,1,0,0:0:0:0:
320,192,12205,1,0,0:0:0:0:
448,192,12205,1,0,0:0:0:0:
192,192,12363,1,0,0:0:0:0:
448,192,12363,1,0,0:0:0:0:
64,192,12363,1,0,0:0:0:0:
64,192,12679,1,0,0:0:0:0:
192,192,12996,1,0,0:0:0:0:
448,192,12996,1,0,0:0:0:0:
320,192,13312,1,0,0:0:0:0:
192,192,13470,1,0,0:0:0:0:
448,192,13470,1,0,0:0:0:0:
448,192,13628,1,0,0:0:0:0:
320,192,13628,1,0,0:0:0:0:
64,192,13628,1,0,0:0:0:0:
64,192,13944,1,0,0:0:0:0:
192,192,14260,1,0,0:0:0:0:
448,192,14260,1,0,0:0:0:0:
320,192,14576,1,0,0:0:0:0:
192,192,14734,1,0,0:0:0:0:
64,192,14734,1,0,0:0:0:0:
320,192,14892,1,0,0:0:0:0:
64,192,14892,1,0,0:0:0:0:
448,192,14892,1,0,0:0:0:0:
320,192,15209,1,0,0:0:0:0:
192,192,15525,1,0,0:0:0:0:
64,192,15525,1,0,0:0:0:0:
192,192,15683,1,0,0:0:0:0:
192,192,15841,1,0,0:0:0:0:
192,192,15999,1,0,0:0:0:0:
320,192,16157,1,0,0:0:0:0:
448,192,16157,1,0,0:0:0:0:
64,192,16157,1,0,0:0:0:0:
320,192,16315,1,0,0:0:0:0:
320,192,16473,1,0,0:0:0:0:
192,192,16631,1,0,0:0:0:0:
320,192,16789,1,0,0:0:0:0:
448,192,16947,1,0,0:0:0:0:
192,192,17105,1,0,0:0:0:0:
320,192,17263,1,0,0:0:0:0:
448,192,17263,1,0,0:0:0:0:
192,192,17422,1,0,0:0:0:0:
64,192,17422,1,0,0:0:0:0:
448,192,17422,1,0,0:0:0:0:
64,192,17738,1,0,0:0:0:0:
448,192,18054,1,0,0:0:0:0:
320,192,18054,1,0,0:0:0:0:
448,192,18212,1,0,0:0:0:0:
448,192,18370,1,0,0:0:0:0:
448,192,18528,1,0,0:0:0:0:
64,192,18686,1,0,0:0:0:0:
192,192,18686,1,0,0:0:0:0:
320,192,18686,1,0,0:0:0:0:
192,192,18844,1,0,0:0:0:0:
192,192,19002,1,0,0:0:0:0:
448,192,19160,1,0,0:0:0:0:
320,192,19318,1,0,0:0:0:0:
192,192,19476,1,0,0:0:0:0:
320,192,19635,1,0,0:0:0:0:
192,192,19793,1,0,0:0:0:0:
64,192,19793,1,0,0:0:0:0:
320,192,19951,1,0,0:0:0:0:
448,192,19951,1,0,0:0:0:0:
64,192,19951,1,0,0:0:0:0:
192,192,20109,1,0,0:0:0:0:
448,192,20267,1,0,0:0:0:0:
320,192,20425,1,0,0:0:0:0:
192,192,20583,1,0,0:0:0:0:
64,192,20583,1,0,0:0:0:0:
320,192,20899,1,0,0:0:0:0:
448,192,21057,1,0,0:0:0:0:
192,192,21057,1,0,0:0:0:0:
64,192,21215,1,0,0:0:0:0:
320,192,21215,1,0,0:0:0:0:
448,192,21215,1,0,0:0:0:0:
320,192,21531,1,0,0:0:0:0:
64,192,21848,1,0,0:0:0:0:
448,192,21848,1,0,0:0:0:0:
192,192,22006,1,0,0:0:0:0:
448,192,22164,1,0,0:0:0:0:
320,192,22322,1,0,0:0:0:0:
192,192,22322,1,0,0:0:0:0:
192,192,22480,1,0,0:0:0:0:
64,192,22480,1,0,0:0:0:0:
448,192,22480,1,0,0:0:0:0:
448,192,22796,1,0,0:0:0:0:
64,192,23112,1,0,0:0:0:0:
320,192,23112,1,0,0:0:0:0:
192,192,23428,1,0,0:0:0:0:
320,192,23586,1,0,0:0:0:0:
64,192,23586,1,0,0:0:0:0:
64,192,23744,1,0,0:0:0:0:
192,192,23744,1,0,0:0:0:0:
448,192,23744,1,0,0:0:0:0:
192,192,24060,1,0,0:0:0:0:
320,192,24377,1,0,0:0:0:0:
448,192,24377,1,0,0:0:0:0:
64,192,24693,1,0,0:0:0:0:
192,192,24851,1,0,0:0:0:0:
448,192,24851,1,0,0:0:0:0:
320,192,25009,1,0,0:0:0:0:
64,192,25009,1,0,0:0:0:0:
192,192,25009,1,0,0:0:0:0:
448,192,25325,1,0,0:0:0:0:
320,192,25483,1,0,0:0:0:0:
192,192,25641,1,0,0:0:0:0:
64,192,25641,1,0,0:0:0:0:
64,192,25799,1,0,0:0:0:0:
192,192,25799,1,0,0:0:0:0:
448,192,25957,1,0,0:0:0:0:
320,192,25957,1,0,0:0:0:0:
448,192,26115,1,0,0:0:0:0:
320,192,26115,1,0,0:0:0:0:
64,192,26273,1,0,0:0:0:0:
192,192,26273,1,0,0:0:0:0:
448,192,26273,1,0,0:0:0:0:
192,192,26432,1,0,0:0:0:0:
64,192,26432,1,0,0:0:0:0:
320,192,26590,1,0,0:0:0:0:
448,192,26590,1,0,0:0:0:0:
192,192,26748,1,0,0:0:0:0:
320,192,26906,1,0,0:0:0:0:
192,192,27064,1,0,0:0:0:0:
448,192,27222,1,0,0:0:0:0:
320,192,27380,1,0,0:0:0:0:
192,192,27538,1,0,0:0:0:0:
64,192,27538,1,0,0:0:0:0:
448,192,27538,1,0,0:0:0:0:
320,192,27696,1,0,0:0:0:0:
64,192,27854,1,0,0:0:0:0:
192,192,28012,1,0,0:0:0:0:
320,192,28170,1,0,0:0:0:0:
448,192,28170,1,0,0:0:0:0:
320,192,28328,1,0,0:0:0:0:
448,192,28328,1,0,0:0:0:0:
320,192,28486,1,0,0:0:0:0:
448,192,28486,1,0,0:0:0:0:
320,192,28645,1,0,0:0:0:0:
64,192,28645,1,0,0:0:0:0:
448,192,28645,1,0,0:0:0:0:
192,192,28803,1,0,0:0:0:0:
64,192,28803,1,0,0:0:0:0:
320,192,28803,1,0,0:0:0:0:
192,192,28961,1,0,0:0:0:0:
64,192,28961,1,0,0:0:0:0:
192,192,29119,1,0,0:0:0:0:
64,192,29119,1,0,0:0:0:0:
448,192,29119,1,0,0:0:0:0:
320,192,29277,1,0,0:0:0:0:
448,192,29435,1,0,0:0:0:0:
320,192,29593,1,0,0:0:0:0:
448,192,29751,1,0,0:0:0:0:
192,192,29909,1,0,0:0:0:0:
64,192,30067,1,0,0:0:0:0:
448,192,30067,1,0,0:0:0:0:
320,192,30225,1,0,0:0:0:0:
64,192,30383,1,0,0:0:0:0:
448,192,30541,1,0,0:0:0:0:
192,192,30699,1,0,0:0:0:0:
64,192,30699,1,0,0:0:0:0:
320,192,30699,1,0,0:0:0:0:
192,192,30857,1,0,0:0:0:0:
320,192,30857,1,0,0:0:0:0:
192,192,31016,1,0,0:0:0:0:
320,192,31016,1,0,0:0:0:0:
320,192,31174,1,0,0:0:0:0:
192,192,31174,1,0,0:0:0:0:
448,192,31332,1,0,0:0:0:0:
320,192,31332,1,0,0:0:0:0:
64,192,31332,1,0,0:0:0:0:
64,192,31490,1,0,0:0:0:0:
448,192,31490,1,0,0:0:0:0:
448,192,31648,1,0,0:0:0:0:
64,192,31648,1,0,0:0:0:0:
192,192,31648,1,0,0:0:0:0:
320,192,31806,1,0,0:0:0:0:
448,192,31964,1,0,0:0:0:0:
192,192,32280,1,0,0:0:0:0:
320,192,32438,1,0,0:0:0:0:
448,192,32596,1,0,0:0:0:0:
192,192,32596,1,0,0:0:0:0:
64,192,32596,1,0,0:0:0:0:
320,192,32754,1,0,0:0:0:0:
64,192,32912,1,0,0:0:0:0:
192,192,33070,1,0,0:0:0:0:
320,192,33070,1,0,0:0:0:0:
448,192,33229,1,0,0:0:0:0:
192,192,33229,1,0,0:0:0:0:
64,192,33229,1,0,0:0:0:0:
192,192,33387,1,0,0:0:0:0:
448,192,33387,1,0,0:0:0:0:
320,192,33545,1,0,0:0:0:0:
64,192,33545,1,0,0:0:0:0:
320,192,33703,1,0,0:0:0:0:
64,192,33703,1,0,0:0:0:0:
64,192,33861,1,0,0:0:0:0:
320,192,33861,1,0,0:0:0:0:
192,192,33861,1,0,0:0:0:0:
320,192,34019,1,0,0:0:0:0:
64,192,34019,1,0,0:0:0:0:
448,192,34177,1,0,0:0:0:0:
192,192,34177,1,0,0:0:0:0:
320,192,34493,1,0,0:0:0:0:
192,192,34651,1,0,0:0:0:0:
320,192,34809,1,0,0:0:0:0:
448,192,34809,1,0,0:0:0:0:
64,192,34967,1,0,0:0:0:0:
192,192,35125,1,0,0:0:0:0:
320,192,35125,1,0,0:0:0:0:
448,192,35125,1,0,0:0:0:0:
448,192,35442,1,0,0:0:0:0:
320,192,35600,1,0,0:0:0:0:
192,192,35758,1,0,0:0:0:0:
64,192,35758,1,0,0:0:0:0:
448,192,35758,1,0,0:0:0:0:
448,192,35916,1,0,0:0:0:0:
64,192,35916,1,0,0:0:0:0:
448,192,36074,1,0,0:0:0:0:
64,192,36074,1,0,0:0:0:0:
64,192,36232,1,0,0:0:0:0:
448,192,36232,1,0,0:0:0:0:
320,192,36232,1,0,0:0:0:0:
192,192,36390,1,0,0:0:0:0:
320,192,36390,1,0,0:0:0:0:
64,192,36390,1,0,0:0:0:0:
192,192,36548,1,0,0:0:0:0:
320,192,36548,1,0,0:0:0:0:
320,192,36706,1,0,0:0:0:0:
192,192,36706,1,0,0:0:0:0:
448,192,36864,1,0,0:0:0:0:
192,192,37022,1,0,0:0:0:0:
320,192,37338,1,0,0:0:0:0:
64,192,37496,1,0,0:0:0:0:
192,192,37654,1,0,0:0:0:0:
320,192,37654,1,0,0:0:0:0:
448,192,37654,1,0,0:0:0:0:
448,192,37971,1,0,0:0:0:0:
320,192,38129,1,0,0:0:0:0:
192,192,38287,1,0,0:0:0:0:
64,192,38287,1,0,0:0:0:0:
320,192,39235,1,0,0:0:0:0:
192,192,39393,1,0,0:0:0:0:
448,192,39551,1,0,0:0:0:0:
64,192,39551,1,0,0:0:0:0:
320,192,39551,1,0,0:0:0:0:
64,192,40816,1,0,0:0:0:0:
448,192,40816,1,0,0:0:0:0:
192,192,40974,1,0,0:0:0:0:
448,192,41132,1,0,0:0:0:0:
320,192,41290,1,0,0:0:0:0:
192,192,41448,1,0,0:0:0:0:
64,192,41448,1,0,0:0:0:0:
448,192,41448,1,0,0:0:0:0:
320,192,41606,1,0,0:0:0:0:
64,192,41764,1,0,0:0:0:0:
192,192,41764,1,0,0:0:0:0:
320,192,42080,1,0,0:0:0:0:
448,192,42080,1,0,0:0:0:0:
192,192,42239,1,0,0:0:0:0:
64,192,42397,1,0,0:0:0:0:
192,192,42555,1,0,0:0:0:0:
320,192,42555,1,0,0:0:0:0:
448,192,42713,1,0,0:0:0:0:
192,192,42713,1,0,0:0:0:0:
64,192,42713,1,0,0:0:0:0:
448,192,43029,1,0,0:0:0:0:
320,192,43029,1,0,0:0:0:0:
64,192,43345,1,0,0:0:0:0:
320,192,43345,1,0,0:0:0:0:
192,192,43503,1,0,0:0:0:0:
448,192,43661,1,0,0:0:0:0:
320,192,43819,1,0,0:0:0:0:
448,192,43977,1,0,0:0:0:0:
192,192,43977,1,0,0:0:0:0:
64,192,43977,1,0,0:0:0:0:
320,192,44293,1,0,0:0:0:0:
64,192,44293,1,0,0:0:0:0:
448,192,44451,1,0,0:0:0:0:
192,192,44610,1,0,0:0:0:0:
64,192,44610,1,0,0:0:0:0:
448,192,44768,1,0,0:0:0:0:
320,192,44926,1,0,0:0:0:0:
192,192,45084,1,0,0:0:0:0:
448,192,45242,1,0,0:0:0:0:
320,192,45242,1,0,0:0:0:0:
64,192,45242,1,0,0:0:0:0:
320,192,45558,1,0,0:0:0:0:
448,192,45874,1,0,0:0:0:0:
64,192,45874,1,0,0:0:0:0:
320,192,46032,1,0,0:0:0:0:
192,192,46190,1,0,0:0:0:0:
448,192,46348,1,0,0:0:0:0:
320,192,46506,1,0,0:0:0:0:
192,192,46506,1,0,0:0:0:0:
64,192,46506,1,0,0:0:0:0:
320,192,46823,1,0,0:0:0:0:
448,192,47139,1,0,0:0:0:0:
64,192,47139,1,0,0:0:0:0:
192,192,47297,1,0,0:0:0:0:
448,192,47455,1,0,0:0:0:0:
320,192,47613,1,0,0:0:0:0:
192,192,47771,1,0,0:0:0:0:
448,192,47771,1,0,0:0:0:0:
64,192,47771,1,0,0:0:0:0:
320,192,48087,1,0,0:0:0:0:
448,192,48245,1,0,0:0:0:0:
64,192,48403,1,0,0:0:0:0:
320,192,48403,1,0,0:0:0:0:
192,192,48561,1,0,0:0:0:0:
448,192,48719,1,0,0:0:0:0:
64,192,48877,1,0,0:0:0:0:
192,192,49036,1,0,0:0:0:0:
320,192,49036,1,0,0:0:0:0:
448,192,49036,1,0,0:0:0:0:
320,192,49352,1,0,0:0:0:0:
64,192,49668,1,0,0:0:0:0:
448,192,49668,1,0,0:0:0:0:
320,192,49826,1,0,0:0:0:0:
192,192,49984,1,0,0:0:0:0:
320,192,50142,1,0,0:0:0:0:
448,192,50300,1,0,0:0:0:0:
64,192,50300,1,0,0:0:0:0:
192,192,50300,1,0,0:0:0:0:
448,192,50616,1,0,0:0:0:0:
64,192,50932,1,0,0:0:0:0:
320,192,50932,1,0,0:0:0:0:
192,192,51090,1,0,0:0:0:0:
320,192,51248,1,0,0:0:0:0:
64,192,51407,1,0,0:0:0:0:
192,192,51565,1,0,0:0:0:0:
320,192,51565,1,0,0:0:0:0:
448,192,51565,1,0,0:0:0:0:
448,192,51881,1,0,0:0:0:0:
320,192,52197,1,0,0:0:0:0:
192,192,52197,1,0,0:0:0:0:
64,192,52355,1,0,0:0:0:0:
448,192,52513,1,0,0:0:0:0:
192,192,52671,1,0,0:0:0:0:
320,192,52829,1,0,0:0:0:0:
448,192,52829,1,0,0:0:0:0:
64,192,52829,1,0,0:0:0:0:
320,192,53145,1,0,0:0:0:0:
448,192,53461,1,0,0:0:0:0:
192,192,53461,1,0,0:0:0:0:
320,192,53620,1,0,0:0:0:0:
448,192,53778,1,0,0:0:0:0:
320,192,53936,1,0,0:0:0:0:
64,192,54094,1,0,0:0:0:0:
192,192,54094,1,0,0:0:0:0:
448,192,54094,1,0,0:0:0:0:
64,192,54410,1,0,0:0:0:0:
448,192,54726,1,0,0:0:0:0:
320,192,54726,1,0,0:0:0:0:
192,192,54884,1,0,0:0:0:0:
448,192,55042,1,0,0:0:0:0:
320,192,55200,1,0,0:0:0:0:
192,192,55358,1,0,0:0:0:0:
64,192,55358,1,0,0:0:0:0:
448,192,55358,1,0,0:0:0:0:
64,192,55674,1,0,0:0:0:0:
448,192,55991,1,0,0:0:0:0:
192,192,55991,1,0,0:0:0:0:
64,192,56939,1,0,0:0:0:0:
448,192,56939,1,0,0:0:0:0:
320,192,56939,1,0,0:0:0:0:
64,192,57887,1,0,0:0:0:0:
192,192,57887,1,0,0:0:0:0:
320,192,57887,1,0,0:0:0:0:
448,192,57887,1,0,0:0:0:0:
320,192,58836,1,0,0:0:0:0:
192,192,58994,1,0,0:0:0:0:
320,192,59152,1,0,0:0:0:0:
448,192,59310,1,0,0:0:0:0:
320,192,59468,1,0,0:0:0:0:
192,192,59626,1,0,0:0:0:0:
320,192,59784,1,0,0:0:0:0:
448,192,59942,1,0,0:0:0:0:
320,192,60100,1,0,0:0:0:0:
448,192,60258,1,0,0:0:0:0:
192,192,60258,1,0,0:0:0:0:
64,192,60417,1,0,0:0:0:0:
320,192,60417,1,0,0:0:0:0:
448,192,60417,1,0,0:0:0:0:
192,192,60654,1,0,0:0:0:0:
64,192,60733,1,0,0:0:0:0:
448,192,60733,1,0,0:0:0:0:
320,192,60733,1,0,0:0:0:0:
64,192,60891,1,0,0:0:0:0:
448,192,60891,1,0,0:0:0:0:
192,192,60891,1,0,0:0:0:0:
64,192,61049,1,0,0:0:0:0:
320,192,61049,1,0,0:0:0:0:
448,192,61049,1,0,0:0:0:0:
448,192,61207,1,0,0:0:0:0:
320,192,61207,1,0,0:0:0:0:
64,192,61207,1,0,0:0:0:0:
64,192,61365,1,0,0:0:0:0:
320,192,61365,1,0,0:0:0:0:
448,192,61365,1,0,0:0:0:0:
64,192,61523,1,0,0:0:0:0:
320,192,61523,1,0,0:0:0:0:
448,192,61523,1,0,0:0:0:0:
448,192,61681,1,0,0:0:0:0:
320,192,61681,1,0,0:0:0:0:
64,192,61681,1,0,0:0:0:0:
64,192,61839,1,0,0:0:0:0:
320,192,61839,1,0,0:0:0:0:
448,192,61839,1,0,0:0:0:0:
320,192,61997,1,0,0:0:0:0:
448,192,61997,1,0,0:0:0:0:
64,192,61997,1,0,0:0:0:0:
192,192,62155,1,0,0:0:0:0:
320,192,62313,1,0,0:0:0:0:
192,192,62471,1,0,0:0:0:0:
320,192,62630,1,0,0:0:0:0:
192,192,62788,1,0,0:0:0:0:
320,192,62946,1,0,0:0:0:0:
448,192,62946,1,0,0:0:0:0:
64,192,62946,1,0,0:0:0:0:
192,192,63104,1,0,0:0:0:0:
448,192,63262,1,0,0:0:0:0:
192,192,63420,1,0,0:0:0:0:
320,192,63499,1,0,0:0:0:0:
448,192,63578,1,0,0:0:0:0:
192,192,63578,1,0,0:0:0:0:
64,192,63578,1,0,0:0:0:0:
192,192,63736,1,0,0:0:0:0:
64,192,63736,1,0,0:0:0:0:
448,192,63736,1,0,0:0:0:0:
192,192,63894,1,0,0:0:0:0:
64,192,63894,1,0,0:0:0:0:
448,192,63894,1,0,0:0:0:0:
448,192,64052,1,0,0:0:0:0:
192,192,64052,1,0,0:0:0:0:
64,192,64052,1,0,0:0:0:0:
192,192,64210,1,0,0:0:0:0:
64,192,64210,1,0,0:0:0:0:
448,192,64210,1,0,0:0:0:0:
448,192,64368,1,0,0:0:0:0:
192,192,64368,1,0,0:0:0:0:
64,192,64368,1,0,0:0:0:0:
448,192,64526,1,0,0:0:0:0:
192,192,64526,1,0,0:0:0:0:
64,192,64526,1,0,0:0:0:0:
320,192,64684,1,0,0:0:0:0:
192,192,64842,1,0,0:0:0:0:
320,192,65001,1,0,0:0:0:0:
448,192,65001,1,0,0:0:0:0:
192,192,65080,1,0,0:0:0:0:
64,192,65159,1,0,0:0:0:0:
448,192,65159,1,0,0:0:0:0:
320,192,65317,1,0,0:0:0:0:
192,192,65475,1,0,0:0:0:0:
64,192,65475,1,0,0:0:0:0:
448,192,65633,1,0,0:0:0:0:
320,192,65791,1,0,0:0:0:0:
64,192,65949,1,0,0:0:0:0:
192,192,66107,1,0,0:0:0:0:
448,192,66107,1,0,0:0:0:0:
320,192,66107,1,0,0:0:0:0:
192,192,66423,1,0,0:0:0:0:
320,192,66581,1,0,0:0:0:0:
448,192,66739,1,0,0:0:0:0:
64,192,66739,1,0,0:0:0:0:
320,192,67055,1,0,0:0:0:0:
192,192,67214,1,0,0:0:0:0:
64,192,67372,1,0,0:0:0:0:
448,192,67372,1,0,0:0:0:0:
320,192,67530,1,0,0:0:0:0:
448,192,67688,1,0,0:0:0:0:
192,192,67846,1,0,0:0:0:0:
320,192,68004,1,0,0:0:0:0:
448,192,68004,1,0,0:0:0:0:
64,192,68004,1,0,0:0:0:0:
64,192,68636,1,0,0:0:0:0:
192,192,68636,1,0,0:0:0:0:
448,192,68636,1,0,0:0:0:0:
320,192,68636,1,0,0:0:0:0:
320,192,68952,1,0,0:0:0:0:
192,192,69110,1,0,0:0:0:0:
448,192,69110,1,0,0:0:0:0:
320,192,69268,1,0,0:0:0:0:
448,192,69268,1,0,0:0:0:0:
64,192,69268,1,0,0:0:0:0:
64,192,69585,1,0,0:0:0:0:
192,192,69743,1,0,0:0:0:0:
448,192,69901,1,0,0:0:0:0:
320,192,69901,1,0,0:0:0:0:
64,192,69901,1,0,0:0:0:0:
320,192,70217,1,0,0:0:0:0:
192,192,70375,1,0,0:0:0:0:
448,192,70533,1,0,0:0:0:0:
320,192,70533,1,0,0:0:0:0:
64,192,70533,1,0,0:0:0:0:
448,192,70849,1,0,0:0:0:0:
320,192,71007,1,0,0:0:0:0:
448,192,71165,1,0,0:0:0:0:
192,192,71165,1,0,0:0:0:0:
64,192,71165,1,0,0:0:0:0:
320,192,71323,1,0,0:0:0:0:
64,192,71481,1,0,0:0:0:0:
192,192,71639,1,0,0:0:0:0:
64,192,71798,1,0,0:0:0:0:
320,192,71798,1,0,0:0:0:0:
448,192,71798,1,0,0:0:0:0:
192,192,71956,1,0,0:0:0:0:
448,192,72114,1,0,0:0:0:0:
320,192,72272,1,0,0:0:0:0:
448,192,72430,1,0,0:0:0:0:
320,192,72588,1,0,0:0:0:0:
64,192,72588,1,0,0:0:0:0:
192,192,72746,1,0,0:0:0:0:
320,192,72904,1,0,0:0:0:0:
448,192,72904,1,0,0:0:0:0:
192,192,73062,1,0,0:0:0:0:
64,192,73062,1,0,0:0:0:0:
448,192,73062,1,0,0:0:0:0:
320,192,73220,1,0,0:0:0:0:
64,192,73378,1,0,0:0:0:0:
192,192,73536,1,0,0:0:0:0:
320,192,73694,1,0,0:0:0:0:
448,192,73694,1,0,0:0:0:0:
64,192,73852,1,0,0:0:0:0:
320,192,74011,1,0,0:0:0:0:
192,192,74169,1,0,0:0:0:0:
448,192,74327,1,0,0:0:0:0:
320,192,74327,1,0,0:0:0:0:
64,192,74327,1,0,0:0:0:0:
192,192,74485,1,0,0:0:0:0:
448,192,74643,1,0,0:0:0:0:
320,192,74801,1,0,0:0:0:0:
448,192,74959,1,0,0:0:0:0:
320,192,75117,1,0,0:0:0:0:
448,192,75275,1,0,0:0:0:0:
320,192,75433,1,0,0:0:0:0:
192,192,75512,1,0,0:0:0:0:
64,192,75591,1,0,0:0:0:0:
448,192,75591,1,0,0:0:0:0:
320,192,75749,1,0,0:0:0:0:
192,192,75749,1,0,0:0:0:0:
448,192,75907,1,0,0:0:0:0:
320,192,75907,1,0,0:0:0:0:
64,192,76065,1,0,0:0:0:0:
448,192,76065,1,0,0:0:0:0:
192,192,76224,1,0,0:0:0:0:
320,192,76224,1,0,0:0:0:0:
64,192,76224,128,0,76856:0:0:0:0:
448,192,76540,1,0,0:0:0:0:
320,192,76698,1,0,0:0:0:0:
448,192,76856,1,0,0:0:0:0:
192,192,76856,1,0,0:0:0:0:
320,192,76856,1,0,0:0:0:0:
192,192,77172,1,0,0:0:0:0:
448,192,77488,128,0,78120:0:0:0:0:
64,192,77488,1,0,0:0:0:0:
320,192,77488,1,0,0:0:0:0:
64,192,77646,1,0,0:0:0:0:
64,192,77804,1,0,0:0:0:0:
64,192,77962,1,0,0:0:0:0:
192,192,78120,1,0,0:0:0:0:
320,192,78120,1,0,0:0:0:0:
64,192,78120,1,0,0:0:0:0:
192,192,78278,1,0,0:0:0:0:
192,192,78436,1,0,0:0:0:0:
448,192,78753,1,0,0:0:0:0:
64,192,78753,1,0,0:0:0:0:
448,192,79069,1,0,0:0:0:0:
192,192,79227,1,0,0:0:0:0:
448,192,79385,1,0,0:0:0:0:
320,192,79385,1,0,0:0:0:0:
64,192,79385,1,0,0:0:0:0:
64,192,79701,1,0,0:0:0:0:
192,192,79859,1,0,0:0:0:0:
64,192,80017,1,0,0:0:0:0:
320,192,80017,1,0,0:0:0:0:
448,192,80017,1,0,0:0:0:0:
320,192,80175,1,0,0:0:0:0:
448,192,80175,1,0,0:0:0:0:
320,192,80333,1,0,0:0:0:0:
448,192,80333,1,0,0:0:0:0:
448,192,80491,1,0,0:0:0:0:
320,192,80491,1,0,0:0:0:0:
192,192,80649,1,0,0:0:0:0:
448,192,80649,1,0,0:0:0:0:
64,192,80649,1,0,0:0:0:0:
320,192,80966,1,0,0:0:0:0:
448,192,81124,1,0,0:0:0:0:
192,192,81282,1,0,0:0:0:0:
64,192,81282,1,0,0:0:0:0:
320,192,81282,1,0,0:0:0:0:
192,192,81440,1,0,0:0:0:0:
64,192,81440,1,0,0:0:0:0:
64,192,81598,1,0,0:0:0:0:
192,192,81598,1,0,0:0:0:0:
192,192,81756,1,0,0:0:0:0:
64,192,81756,1,0,0:0:0:0:
320,192,81914,1,0,0:0:0:0:
448,192,81914,1,0,0:0:0:0:
64,192,81914,1,0,0:0:0:0:
192,192,82072,1,0,0:0:0:0:
448,192,82230,1,0,0:0:0:0:
320,192,82388,1,0,0:0:0:0:
448,192,82546,1,0,0:0:0:0:
192,192,82704,1,0,0:0:0:0:
320,192,82862,1,0,0:0:0:0:
192,192,83021,1,0,0:0:0:0:
320,192,83179,1,0,0:0:0:0:
448,192,83179,1,0,0:0:0:0:
64,192,83179,1,0,0:0:0:0:
192,192,83337,1,0,0:0:0:0:
448,192,83495,1,0,0:0:0:0:
320,192,83653,1,0,0:0:0:0:
64,192,83811,1,0,0:0:0:0:
448,192,83811,1,0,0:0:0:0:
320,192,84127,1,0,0:0:0:0:
192,192,84285,1,0,0:0:0:0:
448,192,84285,1,0,0:0:0:0:
320,192,84443,1,0,0:0:0:0:
64,192,84443,1,0,0:0:0:0:
192,192,84443,1,0,0:0:0:0:
448,192,84601,1,0,0:0:0:0:
192,192,84759,1,0,0:0:0:0:
448,192,84917,1,0,0:0:0:0:
320,192,85075,1,0,0:0:0:0:
64,192,85233,1,0,0:0:0:0:
448,192,85392,1,0,0:0:0:0:
192,192,85550,1,0,0:0:0:0:
320,192,85708,1,0,0:0:0:0:
448,192,85708,1,0,0:0:0:0:
64,192,85708,1,0,0:0:0:0:
192,192,85866,1,0,0:0:0:0:
320,192,85866,1,0,0:0:0:0:
448,192,85866,1,0,0:0:0:0:
192,192,86024,1,0,0:0:0:0:
64,192,86024,1,0,0:0:0:0:
320,192,86182,1,0,0:0:0:0:
448,192,86340,1,0,0:0:0:0:
320,192,86340,1,0,0:0:0:0:
192,192,86340,1,0,0:0:0:0:
64,192,86340,1,0,0:0:0:0:
64,192,86498,1,0,0:0:0:0:
192,192,86498,1,0,0:0:0:0:
320,192,86498,1,0,0:0:0:0:
448,192,86498,1,0,0:0:0:0:
448,192,86656,1,0,0:0:0:0:
320,192,86656,1,0,0:0:0:0:
192,192,86656,1,0,0:0:0:0:
64,192,86656,1,0,0:0:0:0:
64,192,86814,1,0,0:0:0:0:
192,192,86814,1,0,0:0:0:0:
320,192,86814,1,0,0:0:0:0:
448,192,86814,1,0,0:0:0:0:
448,192,86972,1,0,0:0:0:0:
320,192,86972,1,0,0:0:0:0:
192,192,86972,1,0,0:0:0:0:
64,192,86972,1,0,0:0:0:0:
64,192,87130,1,0,0:0:0:0:
192,192,87130,1,0,0:0:0:0:
320,192,87130,1,0,0:0:0:0:
448,192,87130,1,0,0:0:0:0:
448,192,87288,1,0,0:0:0:0:
320,192,87288,1,0,0:0:0:0:
192,192,87288,1,0,0:0:0:0:
64,192,87288,1,0,0:0:0:0:
320,192,87605,1,0,0:0:0:0:
192,192,87921,1,0,0:0:0:0:
448,192,87921,1,0,0:0:0:0:
64,192,88237,1,0,0:0:0:0:
320,192,88237,1,0,0:0:0:0:
448,192,88237,1,0,0:0:0:0:
192,192,88553,1,0,0:0:0:0:
320,192,88711,1,0,0:0:0:0:
192,192,88869,1,0,0:0:0:0:
64,192,88869,1,0,0:0:0:0:
320,192,88869,1,0,0:0:0:0:
448,192,88869,1,0,0:0:0:0:
64,192,89027,1,0,0:0:0:0:
192,192,89027,1,0,0:0:0:0:
320,192,89027,1,0,0:0:0:0:
448,192,89027,1,0,0:0:0:0:
448,192,89185,1,0,0:0:0:0:
320,192,89185,1,0,0:0:0:0:
64,192,89185,1,0,0:0:0:0:
192,192,89185,1,0,0:0:0:0:
64,192,89343,1,0,0:0:0:0:
192,192,89343,1,0,0:0:0:0:
320,192,89343,1,0,0:0:0:0:
448,192,89343,1,0,0:0:0:0:
448,192,89501,1,0,0:0:0:0:
320,192,89501,1,0,0:0:0:0:
192,192,89501,1,0,0:0:0:0:
64,192,89501,1,0,0:0:0:0:
64,192,89659,1,0,0:0:0:0:
192,192,89659,1,0,0:0:0:0:
320,192,89659,1,0,0:0:0:0:
448,192,89659,1,0,0:0:0:0:
448,192,89818,1,0,0:0:0:0:
320,192,89818,1,0,0:0:0:0:
192,192,89818,1,0,0:0:0:0:
64,192,89818,1,0,0:0:0:0:
320,192,89976,1,0,0:0:0:0:
192,192,90134,1,0,0:0:0:0:
448,192,90292,1,0,0:0:0:0:
320,192,90371,1,0,0:0:0:0:
192,192,90450,1,0,0:0:0:0:
64,192,90450,1,0,0:0:0:0:
64,192,90766,1,0,0:0:0:0:
192,192,90766,1,0,0:0:0:0:
320,192,90766,1,0,0:0:0:0:
448,192,91082,1,0,0:0:0:0:
320,192,91398,1,0,0:0:0:0:
448,192,91398,1,0,0:0:0:0:
192,192,91398,1,0,0:0:0:0:
64,192,91398,1,0,0:0:0:0:
448,192,91556,1,0,0:0:0:0:
64,192,91556,1,0,0:0:0:0:
192,192,91556,1,0,0:0:0:0:
320,192,91556,1,0,0:0:0:0:
64,192,91714,1,0,0:0:0:0:
192,192,91714,1,0,0:0:0:0:
320,192,91714,1,0,0:0:0:0:
448,192,91714,1,0,0:0:0:0:
448,192,91872,1,0,0:0:0:0:
320,192,91872,1,0,0:0:0:0:
192,192,91872,1,0,0:0:0:0:
64,192,91872,1,0,0:0:0:0:
64,192,92030,1,0,0:0:0:0:
192,192,92030,1,0,0:0:0:0:
320,192,92030,1,0,0:0:0:0:
448,192,92030,1,0,0:0:0:0:
448,192,92189,1,0,0:0:0:0:
320,192,92189,1,0,0:0:0:0:
192,192,92189,1,0,0:0:0:0:
64,192,92189,1,0,0:0:0:0:
64,192,92347,1,0,0:0:0:0:
192,192,92347,1,0,0:0:0:0:
320,192,92347,1,0,0:0:0:0:
448,192,92347,1,0,0:0:0:0:
64,192,92505,1,0,0:0:0:0:
320,192,92663,1,0,0:0:0:0:
192,192,92821,1,0,0:0:0:0:
448,192,92979,1,0,0:0:0:0:
320,192,93137,1,0,0:0:0:0:
448,192,93295,1,0,0:0:0:0:
192,192,93295,1,0,0:0:0:0:
64,192,93295,1,0,0:0:0:0:
64,192,93611,1,0,0:0:0:0:
192,192,93769,1,0,0:0:0:0:
320,192,93927,1,0,0:0:0:0:
448,192,93927,1,0,0:0:0:0:
64,192,94085,1,0,0:0:0:0:
192,192,94085,1,0,0:0:0:0:
64,192,94243,1,0,0:0:0:0:
192,192,94243,1,0,0:0:0:0:
192,192,94402,1,0,0:0:0:0:
64,192,94402,1,0,0:0:0:0:
64,192,94560,1,0,0:0:0:0:
192,192,94560,1,0,0:0:0:0:
448,192,94718,1,0,0:0:0:0:
320,192,94718,1,0,0:0:0:0:
64,192,95192,1,0,0:0:0:0:
192,192,95192,1,0,0:0:0:0:
320,192,95192,1,0,0:0:0:0:
448,192,95192,1,0,0:0:0:0:
320,192,95824,1,0,0:0:0:0:
192,192,95824,1,0,0:0:0:0:
448,192,96456,128,0,96773:0:0:0:0:
192,192,96456,128,0,96615:0:0:0:0:
320,192,96615,128,0,96773:0:0:0:0:
64,192,96773,128,0,96931:0:0:0:0:
192,192,96773,128,0,96931:0:0:0:0:
448,192,96931,128,0,97089:0:0:0:0:
320,192,97089,128,0,97247:0:0:0:0:
192,192,97089,128,0,97247:0:0:0:0:
64,192,97089,128,0,97405:0:0:0:0:
448,192,97247,128,0,97563:0:0:0:0:
320,192,97405,128,0,97563:0:0:0:0:
192,192,97405,128,0,97563:0:0:0:0:
64,192,97563,128,0,97721:0:0:0:0:
448,192,97721,128,0,98195:0:0:0:0:
320,192,97721,128,0,98037:0:0:0:0:
192,192,97721,128,0,97879:0:0:0:0:
64,192,97879,128,0,98195:0:0:0:0:
192,192,98037,128,0,98195:0:0:0:0:
320,192,98195,128,0,98353:0:0:0:0:
192,192,98353,128,0,98511:0:0:0:0:
64,192,98353,128,0,98827:0:0:0:0:
448,192,98353,128,0,98511:0:0:0:0:
320,192,98511,128,0,98827:0:0:0:0:
192,192,98669,128,0,98986:0:0:0:0:
448,192,98669,128,0,98827:0:0:0:0:
448,192,98986,128,0,99144:0:0:0:0:
320,192,98986,128,0,99302:0:0:0:0:
64,192,98986,128,0,99460:0:0:0:0:
192,192,99144,128,0,99460:0:0:0:0:
448,192,99302,128,0,99460:0:0:0:0:
320,192,99460,128,0,99618:0:0:0:0:
448,192,99618,128,0,99776:0:0:0:0:
192,192,99618,128,0,99934:0:0:0:0:
64,192,99618,128,0,99776:0:0:0:0:
320,192,99776,128,0,100092:0:0:0:0:
64,192,99934,128,0,100092:0:0:0:0:
448,192,99934,128,0,100092:0:0:0:0:
192,192,100092,128,0,100250:0:0:0:0:
64,192,100250,128,0,100566:0:0:0:0:
448,192,100250,128,0,100408:0:0:0:0:
320,192,100250,128,0,100724:0:0:0:0:
192,192,100408,128,0,100724:0:0:0:0:
448,192,100566,128,0,100724:0:0:0:0:
64,192,100724,128,0,100882:0:0:0:0:
448,192,100882,128,0,101040:0:0:0:0:
192,192,100882,128,0,101199:0:0:0:0:
320,192,100882,128,0,101040:0:0:0:0:
64,192,101040,128,0,101357:0:0:0:0:
448,192,101199,128,0,101357:0:0:0:0:
320,192,101199,128,0,101357:0:0:0:0:
192,192,101357,128,0,101515:0:0:0:0:
320,192,101515,128,0,101673:0:0:0:0:
448,192,101515,128,0,101831:0:0:0:0:
64,192,101515,128,0,101673:0:0:0:0:
192,192,101673,128,0,101989:0:0:0:0:
64,192,101831,128,0,101989:0:0:0:0:
320,192,101831,128,0,101989:0:0:0:0:
448,192,101989,128,0,102147:0:0:0:0:
320,192,102147,128,0,102305:0:0:0:0:
192,192,102147,128,0,102305:0:0:0:0:
64,192,102147,128,0,102621:0:0:0:0:
448,192,102305,128,0,102779:0:0:0:0:
192,192,102463,128,0,102937:0:0:0:0:
320,192,102463,128,0,102621:0:0:0:0:
320,192,102779,128,0,102937:0:0:0:0:
64,192,102779,128,0,103253:0:0:0:0:
448,192,102937,128,0,103095:0:0:0:0:
192,192,103095,128,0,103253:0:0:0:0:
320,192,103095,128,0,103253:0:0:0:0:
448,192,103253,128,0,103412:0:0:0:0:
64,192,103412,128,0,103570:0:0:0:0:
320,192,103412,128,0,103886:0:0:0:0:
192,192,103412,128,0,103570:0:0:0:0:
448,192,103570,128,0,103728:0:0:0:0:
192,192,103728,128,0,103886:0:0:0:0:
64,192,103728,128,0,103886:0:0:0:0:
448,192,103886,128,0,104044:0:0:0:0:
64,192,104044,128,0,104202:0:0:0:0:
192,192,104044,128,0,104360:0:0:0:0:
320,192,104044,128,0,104202:0:0:0:0:
448,192,104202,128,0,104518:0:0:0:0:
320,192,104360,128,0,104518:0:0:0:0:
64,192,104360,128,0,104518:0:0:0:0:
192,192,104518,128,0,104676:0:0:0:0:
448,192,104676,128,0,105150:0:0:0:0:
320,192,104676,128,0,104834:0:0:0:0:
64,192,104676,128,0,104834:0:0:0:0:
192,192,104834,128,0,104992:0:0:0:0:
64,192,104992,128,0,105308:0:0:0:0:
320,192,104992,128,0,105150:0:0:0:0:
192,192,105150,128,0,105466:0:0:0:0:
448,192,105308,128,0,105466:0:0:0:0:
320,192,105308,128,0,105624:0:0:0:0:
64,192,105466,128,0,105783:0:0:0:0:
448,192,105624,128,0,105783:0:0:0:0:
192,192,105624,128,0,105783:0:0:0:0:
320,192,105783,128,0,106257:0:0:0:0:
64,192,105941,128,0,106099:0:0:0:0:
448,192,105941,128,0,106415:0:0:0:0:
192,192,105941,128,0,106099:0:0:0:0:
192,192,106257,128,0,106415:0:0:0:0:
64,192,106257,128,0,106573:0:0:0:0:
320,192,106415,128,0,106731:0:0:0:0:
448,192,106573,128,0,106731:0:0:0:0:
192,192,106573,128,0,107047:0:0:0:0:
64,192,106731,128,0,106889:0:0:0:0:
320,192,106889,128,0,107047:0:0:0:0:
448,192,106889,128,0,107047:0:0:0:0:
64,192,107047,128,0,107996:0:0:0:0:
192,192,107205,128,0,107363:0:0:0:0:
320,192,107205,128,0,107521:0:0:0:0:
448,192,107205,128,0,107363:0:0:0:0:
192,192,107521,128,0,107679:0:0:0:0:
448,192,107521,128,0,107679:0:0:0:0:
320,192,107679,128,0,107837:0:0:0:0:
448,192,107837,128,0,107996:0:0:0:0:
192,192,107837,128,0,108154:0:0:0:0:
320,192,107996,128,0,108312:0:0:0:0:
448,192,108154,128,0,108312:0:0:0:0:
64,192,108154,128,0,108312:0:0:0:0:
192,192,108312,128,0,108944:0:0:0:0:
320,192,108470,128,0,108786:0:0:0:0:
448,192,108470,128,0,108628:0:0:0:0:
64,192,108470,128,0,108628:0:0:0:0:
448,192,108786,128,0,108944:0:0:0:0:
64,192,108786,128,0,109260:0:0:0:0:
320,192,108944,128,0,109102:0:0:0:0:
192,192,109102,128,0,109260:0:0:0:0:
448,192,109102,128,0,109418:0:0:0:0:
320,192,109260,128,0,109576:0:0:0:0:
192,192,109418,128,0,109576:0:0:0:0:
64,192,109418,128,0,109576:0:0:0:0:
448,192,109576,128,0,110050:0:0:0:0:
320,192,109734,128,0,109892:0:0:0:0:
192,192,109734,128,0,109892:0:0:0:0:
64,192,109734,128,0,109892:0:0:0:0:
64,192,110050,128,0,110367:0:0:0:0:
320,192,110050,128,0,110367:0:0:0:0:
