osu file format v14

[General]
AudioFilename: audio.mp3
AudioLeadIn: 0
PreviewTime: 30054
Countdown: 0
SampleSet: None
StackLeniency: 0.7
Mode: 0
LetterboxInBreaks: 0
WidescreenStoryboard: 1

[Editor]
DistanceSpacing: 1.1
BeatDivisor: 8
GridSize: 32
TimelineZoom: 1.3

[Metadata]
Title:Calloused Hands
TitleUnicode:Calloused Hands
Artist:SexuaLobster
ArtistUnicode:SexuaLobster
Creator:hohol454
Version:Hard
Source:
Tags:SEXUALOBSTERS'S AMAZING ALBUM OF SIN
BeatmapID:1230265
BeatmapSetID:581167

[Difficulty]
HPDrainRate:5
CircleSize:4
OverallDifficulty:7
ApproachRate:8
SliderMultiplier:3
SliderTickRate:1

[Events]
//Background and Video events
0,0,"calloused hands.png",0,0
Video,0,"Calloused Hands.mp4"
//Break Periods
//Storyboard Layer 0 (Background)
//Storyboard Layer 1 (Fail)
//Storyboard Layer 2 (Pass)
//Storyboard Layer 3 (Foreground)
//Storyboard Sound Samples

[TimingPoints]
675,827.586206896552,4,3,1,65,1,0
7295,-90.9090909090909,4,3,1,65,0,0
11019,-90.9090909090909,4,3,1,40,0,0
11226,-90.9090909090909,4,3,1,65,0,0
24261,-90.9090909090909,4,3,1,40,0,0
24468,-90.9090909090909,4,3,1,65,0,0
27157,-200,4,3,1,20,0,0
30468,-200,4,3,1,30,0,0
32123,-133.333333333333,4,3,1,35,0,0
32950,-133.333333333333,4,3,1,45,0,0
33778,-133.333333333333,4,3,1,55,0,0
37088,413.793103448276,4,3,1,65,1,0
37088,-166.666666666667,4,3,1,65,0,1
43708,827.586206896552,4,2,1,30,1,0
43708,-200,4,2,1,65,0,0
44018,-200,4,2,1,30,0,0
65225,-200,4,2,1,5,0,0

[Colours]
Combo1 : 255,128,0
Combo2 : 128,255,0
Combo3 : 20,26,252
Combo4 : 247,228,9

[HitObjects]
110,193,675,6,0,P|163:243|237:252,1,150,12|0,0:0|0:0,0:0:0:0:
228,101,1502,2,0,P|175:49|102:39,1,150,2|0,0:0|0:0,0:0:0:0:
77,224,2330,1,8,0:0:0:0:
134,164,2537,1,0,0:0:0:0:
214,143,2743,1,0,0:0:0:0:
296,154,2950,1,0,0:0:0:0:
353,215,3158,2,0,L|375:286,2,75,2|2|8,0:0|0:0|0:0,0:0:0:0:
377,136,3778,1,0,0:0:0:0:
454,106,3985,6,0,P|402:57|330:67,1,150,8|0,0:0|0:0,0:0:0:0:
265,219,4812,1,2,0:0:0:0:
190,255,5019,2,0,L|104:235,1,75,0|8,0:0|0:0,0:0:0:0:
69,170,5433,1,0,0:0:0:0:
64,87,5640,2,0,P|107:32|221:65,1,150,8|0,0:0|0:0,0:0:0:0:
152,196,6468,1,2,0:0:0:0:
234,188,6675,1,2,0:0:0:0:
236,270,6881,1,8,0:0:0:0:
317,259,7088,1,8,0:0:0:0:
314,349,7295,6,0,P|386:314|403:236,1,165.000005035401,12|0,0:0|0:0,0:0:0:0:
341,170,7916,1,0,0:0:0:0:
317,259,8123,2,0,P|256:203|270:114,1,165.000005035401,2|0,0:0|0:0,0:0:0:0:
441,154,8950,2,0,L|416:235,1,82.5000025177003,8|0,0:0|0:0,0:0:0:0:
341,180,9364,2,0,L|315:260,1,82.5000025177003
226,267,9778,1,2,0:0:0:0:
141,241,9985,1,2,0:0:0:0:
210,182,10192,1,8,0:0:0:0:
122,152,10399,1,0,0:0:0:0:
190,92,10606,5,8,0:0:0:0:
276,121,10812,2,0,P|323:100|351:66,1,82.5000025177003,2|0,0:0|0:0,0:0:0:0:
421,125,11226,2,0,P|427:209|390:294,1,165.000005035401,2|0,0:0|0:0,0:0:0:0:
312,310,11847,1,8,0:0:0:0:
221,304,12054,2,0,P|138:265|77:88,1,247.500007553101,2|0,0:0|0:0,0:0:0:0:
239,207,13088,1,2,0:0:0:0:
168,149,13295,1,2,0:0:0:0:
251,114,13502,1,8,0:0:0:0:
322,172,13709,1,8,0:0:0:0:
239,207,13916,6,0,P|289:257|388:234,1,165.000005035401,12|0,0:0|0:0,0:0:0:0:
493,118,14743,2,0,P|437:61|358:72,1,165.000005035401,2|0,0:0|0:0,0:0:0:0:
376,244,15571,1,8,0:0:0:0:
285,244,15778,1,0,0:0:0:0:
285,335,15985,1,0,0:0:0:0:
376,335,16192,1,0,0:0:0:0:
376,244,16399,2,0,L|376:159,1,82.5000025177003,2|0,0:0|0:0,0:0:0:0:
284,160,16812,2,0,L|201:160,1,82.5000025177003,2|8,0:0|0:0,0:0:0:0:
132,220,17226,6,0,P|111:144|158:78,1,165.000005035401,8|0,0:0|0:0,0:0:0:0:
201,160,17847,1,0,0:0:0:0:
267,219,18054,2,0,P|289:142|242:79,1,165.000005035401,2|8,0:0|0:0,0:0:0:0:
201,159,18675,1,0,0:0:0:0:
190,250,18881,2,0,P|251:303|338:265,1,165.000005035401,8|0,0:0|0:0,0:0:0:0:
287,103,19709,1,2,0:0:0:0:
345,35,19916,1,2,0:0:0:0:
375,121,20123,1,8,0:0:0:0:
434,53,20330,1,8,0:0:0:0:
463,139,20537,6,0,P|413:201|333:200,1,165.000005035401,12|0,0:0|0:0,0:0:0:0:
162,98,21364,2,0,P|122:166|158:236,1,165.000005035401,2|0,0:0|0:0,0:0:0:0:
225,298,21985,1,0,0:0:0:0:
308,263,22192,2,0,P|329:219|316:171,1,82.5000025177003,8|0,0:0|0:0,0:0:0:0:
236,207,22606,2,0,P|229:168|245:130,1,82.5000025177003,0|0,0:0|0:0,0:0:0:0:
330,95,23019,1,2,0:0:0:0:
255,43,23226,1,2,0:0:0:0:
173,82,23433,1,8,0:0:0:0:
147,169,23640,1,0,0:0:0:0:
152,259,23847,5,8,0:0:0:0:
214,325,24054,2,0,P|259:335|307:315,1,82.5000025177003,2|0,0:0|0:0,0:0:0:0:
363,267,24468,2,0,P|381:192|326:112,1,165.000005035401,2|0,0:0|0:0,0:0:0:0:
256,80,25088,1,8,0:0:0:0:
213,158,25295,2,0,P|116:220|16:130,1,247.500007553101,2|0,0:0|0:0,0:0:0:0:
151,24,26330,5,2,0:0:0:0:
240,8,26537,1,2,0:0:0:0:
329,18,26743,1,8,0:0:0:0:
404,69,26950,1,8,0:0:0:0:
440,143,27157,6,0,L|456:188,3,37.5,12|0|0|0,0:0|0:0|0:0|0:0,0:0:0:0:
377,189,27985,2,0,L|332:205,3,37.5,0|0|0|0,0:0|0:0|0:0|0:0,0:0:0:0:
331,127,28812,2,0,L|318:91,3,37.5,0|0|0|0,0:0|0:0|0:0|0:0,0:0:0:0:
254,131,29640,2,0,L|209:147,3,37.5,0|0|0|0,0:0|0:0|0:0|0:0,0:0:0:0:
151,109,30468,6,0,L|106:125,1,37.5,2|0,0:0|0:0,0:0:0:0:
140,192,30881,2,0,L|95:208,1,37.5,0|0,0:0|0:0,0:0:0:0:
104,285,31295,2,0,L|139:272,1,37.5,0|0,0:0|0:0,0:0:0:0:
163,344,31709,2,0,L|198:331,1,37.5,0|0,0:0|0:0,0:0:0:0:
301,325,32123,6,0,L|279:272,1,56.2500021457673,2|0,0:0|0:0,0:0:0:0:
382,226,32537,2,0,L|360:173,1,56.2500021457673,0|0,0:0|0:0,0:0:0:0:
329,65,32950,2,0,L|276:87,1,56.2500021457673,2|0,0:0|0:0,0:0:0:0:
263,198,33364,2,0,L|210:220,1,56.2500021457673,0|0,0:0|0:0,0:0:0:0:
73,166,33778,6,0,L|125:145,1,56.2500021457673,2|0,0:0|0:0,0:0:0:0:
67,52,34192,2,0,L|118:30,1,56.2500021457673,0|0,0:0|0:0,0:0:0:0:
195,114,34606,2,0,L|246:92,1,56.2500021457673,0|0,0:0|0:0,0:0:0:0:
329,168,35019,2,0,L|380:146,1,56.2500021457673,0|0,0:0|0:0,0:0:0:0:
471,213,35433,6,0,L|492:264,1,56.2500021457673,2|0,0:0|0:0,0:0:0:0:
379,266,35847,2,0,L|400:317,1,56.2500021457673,0|0,0:0|0:0,0:0:0:0:
287,319,36261,2,0,L|235:340,1,56.2500021457673,2|0,0:0|0:0,0:0:0:0:
146,269,36675,1,0,0:0:0:0:
143,148,36881,1,0,0:0:0:0:
278,188,37088,6,12,P|320:200|365:193,1,89.9999972534181,12|0,0:0|0:0,0:0:0:0:
409,64,37502,1,2,0:0:0:0:
275,43,37708,2,0,P|179:87|142:156,1,179.999994506836,0|0,0:0|0:0,0:0:0:0:
162,283,38330,1,2,0:0:0:0:
277,212,38537,1,0,0:0:0:0:
264,345,38743,6,0,P|353:316|378:276,1,89.9999972534181,8|0,0:0|0:0,0:0:0:0:
475,274,39157,2,0,P|405:210|358:208,1,89.9999972534181,2|0,0:0|0:0,0:0:0:0:
277,212,39571,2,0,P|233:202|197:175,1,89.9999972534181,8|0,0:0|0:0,0:0:0:0:
170,42,39985,1,2,0:0:0:0:
279,119,40192,1,2,0:0:0:0:
279,119,40295,1,2,0:0:0:0:
279,119,40398,6,8,B|321:196|233:206|304:307,1,179.999994506836,8|2,0:0|0:0,0:0:0:0:
425,324,41019,2,0,P|481:263|471:166,1,179.999994506836
362,94,41640,1,2,0:0:0:0:
380,226,41847,1,0,0:0:0:0:
291,330,42054,6,0,L|160:356,1,89.9999972534181,8|0,0:0|0:0,0:0:0:0:
73,307,42468,2,0,L|47:220,1,89.9999972534181,2|0,0:0|0:0,0:0:0:0:
99,95,42881,1,8,0:0:0:0:
99,95,42985,1,8,0:0:0:0:
99,95,43088,1,8,0:0:0:0:
233,104,43294,1,10,0:0:0:0:
304,216,43501,1,10,0:0:0:0:
304,216,43606,1,10,0:0:0:0:
304,216,43708,6,8,P|315:245|314:276,2,56.25,12|0|0,0:3|0:3|0:3,0:3:0:0:
243,257,44535,1,2,0:3:0:0:
193,275,44742,1,0,0:3:0:0:
142,262,44949,1,0,0:3:0:0:
105,224,45156,1,0,0:3:0:0:
86,174,45363,2,0,P|99:113|177:62,1,150,8|2,0:3|0:3,0:3:0:0:
218,75,46398,1,2,0:3:0:0:
241,122,46605,2,0,L|258:173,1,37.5,8|0,0:3|0:3,0:3:0:0:
264,208,47018,6,0,P|278:235|301:253,2,56.25,8|0|0,0:3|0:3|0:3,0:3:0:0:
345,189,47846,1,2,0:3:0:0:
345,189,48260,1,8,0:3:0:0:
345,189,48674,2,0,P|325:157|325:120,1,75,8|0,0:3|0:3,0:3:0:0:
406,52,49501,1,2,0:3:0:0:
433,96,49708,1,2,0:3:0:0:
435,148,49915,1,8,0:3:0:0:
407,192,50122,1,8,0:3:0:0:
402,244,50328,6,0,P|405:274|415:298,2,56.25,12|0|0,0:3|0:3|0:3,0:3:0:0:
355,219,51156,1,2,0:3:0:0:
302,223,51363,2,0,L|222:274,1,75,0|0,0:3|0:3,0:3:0:0:
195,292,51984,1,8,0:3:0:0:
195,292,52398,1,0,0:3:0:0:
142,299,52605,1,0,0:3:0:0:
94,276,52811,2,0,L|73:244,2,37.5,2|2|8,0:3|0:3|0:3,0:3:0:0:
74,172,53639,6,0,P|44:177|18:196,2,56.25,8|0|0,0:3|0:3|0:3,0:3:0:0:
139,140,54466,2,0,L|150:180,1,37.5,2|0,0:3|0:3,0:3:0:0:
212,218,54880,2,0,L|222:182,1,37.5,8|0,0:3|0:3,0:3:0:0:
285,140,55294,2,0,L|296:180,1,37.5,8|0,0:3|0:3,0:3:0:0:
359,211,55708,2,0,L|368:174,1,37.5,0|0,0:3|0:3,0:3:0:0:
361,122,56121,1,2,0:3:0:0:
329,79,56328,1,2,0:3:0:0:
278,62,56536,1,8,0:3:0:0:
227,75,56742,1,8,0:3:0:0:
185,107,56949,6,0,P|168:128|158:155,2,56.25,12|0|0,0:3|0:3|0:3,0:3:0:0:
229,165,57777,2,0,L|238:239,1,75,2|0,0:3|0:3,0:3:0:0:
343,240,58605,2,0,B|373:246|373:246|361:217|361:217|371:163,1,112.5,8|0,0:3|0:3,0:3:0:0:
297,173,59432,2,0,L|305:134,2,37.5,2|2|8,0:3|0:3|0:3,0:3:0:0:
336,270,60259,6,0,P|265:273|205:217,1,150,8|2,0:3|0:3,0:3:0:0:
208,223,61501,1,8,0:3:0:0:
181,121,61914,2,0,P|210:108|255:109,1,75,8|0,0:3|0:3,0:3:0:0:
337,171,62742,1,2,0:3:0:0:
354,220,62949,1,2,0:3:0:0:
360,272,63156,1,8,0:3:0:0:
294,381,63570,5,12,0:3:0:0:
256,192,63776,12,0,65225,0:3:0:0:
