osu file format v14

[General]
AudioFilename: audio.mp3
AudioLeadIn: 0
PreviewTime: 30054
Countdown: 0
SampleSet: Soft
StackLeniency: 0.7
Mode: 0
LetterboxInBreaks: 0
WidescreenStoryboard: 1

[Editor]
Bookmarks: 1502
DistanceSpacing: 1.2
BeatDivisor: 4
GridSize: 8
TimelineZoom: 1

[Metadata]
Title:Calloused Hands
TitleUnicode:Calloused Hands
Artist:SexuaLobster
ArtistUnicode:SexuaLobster
Creator:hohol454
Version:Advanced
Source:
Tags:SEXUALOBSTERS'S AMAZING ALBUM OF SIN
BeatmapID:1351790
BeatmapSetID:581167

[Difficulty]
HPDrainRate:4
CircleSize:4
OverallDifficulty:5.5
ApproachRate:6
SliderMultiplier:2.2
SliderTickRate:1

[Events]
//Background and Video events
0,0,"calloused hands.png",0,0
Video,0,"Calloused Hands.mp4"
//Break Periods
//Storyboard Layer 0 (Background)
//Storyboard Layer 1 (Fail)
//Storyboard Layer 2 (Pass)
//Storyboard Layer 3 (Foreground)
//Storyboard Sound Samples

[TimingPoints]
675,827.586206896552,4,3,1,65,1,0
29640,-133.333333333333,4,3,1,5,0,0
30468,-133.333333333333,4,3,1,30,0,0
32123,-117.647058823529,4,3,1,35,0,0
32950,-105.263157894737,4,3,1,45,0,0
33778,-95.2380952380952,4,3,1,55,0,0
37088,413.793103448276,4,3,1,65,1,0
37088,-166.666666666667,4,3,1,65,0,1
43708,827.586206896552,4,2,1,30,1,0
43708,-166.666666666667,4,2,1,65,0,0
44535,-166.666666666667,4,2,1,30,0,0
65225,-166.666666666667,4,2,1,5,0,0

[Colours]
Combo1 : 255,128,0
Combo2 : 128,255,0
Combo3 : 20,26,252
Combo4 : 247,228,9

[HitObjects]
116,88,675,6,0,P|178:78|259:129,1,110,12|0,0:0|0:0,0:0:0:0:
276,229,1502,2,0,P|221:241|167:224,1,110,2|0,0:0|0:0,0:0:0:0:
345,107,2330,2,0,L|409:147,1,55,8|0,0:0|0:0,0:0:0:0:
466,182,2743,2,0,L|405:226,1,55
351,266,3157,2,0,L|415:305,2,55,2|2|8,0:0|0:0|0:0,0:0:0:0:
281,240,3778,1,0,0:0:0:0:
216,275,3985,6,0,P|153:298|89:288,1,110,8|0,0:0|0:0,0:0:0:0:
137,150,4812,2,0,L|166:21,1,110,2|8,0:0|0:0,0:0:0:0:
230,17,5433,1,0,0:0:0:0:
296,48,5640,2,0,P|349:88|414:97,1,110,8|0,0:0|0:0,0:0:0:0:
370,246,6468,2,0,L|314:293,1,55,2|2,0:0|0:0,0:0:0:0:
255,265,6881,2,0,L|192:219,1,55,8|8,0:0|0:0,0:0:0:0:
140,209,7295,6,0,P|101:250|42:267,1,110,12|0,0:0|0:0,0:0:0:0:
18,122,8123,2,0,P|78:72|149:64,1,110,2|0,0:0|0:0,0:0:0:0:
254,139,8950,2,0,L|229:196,1,55,8|0,0:0|0:0,0:0:0:0:
145,207,9364,2,0,L|174:261,1,55,0|0,0:0|0:0,0:0:0:0:
260,276,9778,2,0,L|234:332,2,55,2|2|8,0:0|0:0|0:0,0:0:0:0:
318,230,10399,1,0,0:0:0:0:
386,256,10606,6,0,P|441:288|516:280,1,110,8|0,0:0|0:0,0:0:0:0:
485,142,11433,2,0,L|428:22,1,110,2|8,0:0|0:0,0:0:0:0:
366,24,12054,1,0,0:0:0:0:
305,65,12261,2,0,P|272:112|190:141,1,110,8|0,0:0|0:0,0:0:0:0:
124,18,13088,2,0,L|177:-2,2,55,2|2|8,0:0|0:0|0:0,0:0:0:0:
78,76,13709,1,8,0:0:0:0:
58,147,13916,6,0,P|66:209|122:273,1,110,12|0,0:0|0:0,0:0:0:0:
207,157,14743,2,0,P|236:205|243:261,1,110,2|0,0:0|0:0,0:0:0:0:
385,316,15571,2,0,L|429:356,2,55,8|0|0,0:0|0:0|0:0,0:0:0:0:
323,274,16192,1,0,0:0:0:0:
382,227,16399,2,0,L|424:185,1,55,2|0,0:0|0:0,0:0:0:0:
358,143,16812,2,0,L|314:104,1,55,2|8,0:0|0:0,0:0:0:0:
245,87,17226,6,0,P|186:95|142:127,1,110,8|0,0:0|0:0,0:0:0:0:
239,237,18054,2,0,L|297:357,1,110,2|8,0:0|0:0,0:0:0:0:
360,335,18675,1,0,0:0:0:0:
405,277,18882,2,0,P|438:230|521:201,1,110,8|0,0:0|0:0,0:0:0:0:
444,63,19709,2,0,L|391:87,1,55,2|2,0:0|0:0,0:0:0:0:
346,142,20123,2,0,L|284:126,1,55,8|8,0:0|0:0,0:0:0:0:
229,88,20537,6,0,P|202:37|150:5,1,110,12|0,0:0|0:0,0:0:0:0:
94,140,21364,2,0,P|137:204|202:231,1,110,2|0,0:0|0:0,0:0:0:0:
318,270,22192,2,0,L|370:295,2,55,8|0|0,0:0|0:0|0:0,0:0:0:0:
253,229,22813,1,0,0:0:0:0:
233,301,23020,2,0,L|209:355,1,55,2|2,0:0|0:0,0:0:0:0:
150,308,23433,2,0,L|97:282,1,55,8|0,0:0|0:0,0:0:0:0:
53,226,23847,6,0,P|38:177|49:101,1,110,8|0,0:0|0:0,0:0:0:0:
184,159,24674,2,0,L|299:224,1,110,2|8,0:0|0:0,0:0:0:0:
349,188,25295,1,0,0:0:0:0:
364,115,25502,2,0,P|391:65|448:28,1,110,8|0,0:0|0:0,0:0:0:0:
498,166,26330,2,0,L|459:229,1,55,2|2,0:0|0:0,0:0:0:0:
492,293,26743,2,0,L|418:304,1,55,8|8,0:0|0:0,0:0:0:0:
391,369,27157,5,12,0:0:0:0:
256,192,27364,12,0,29640,0:0:0:0:
478,60,30468,6,0,L|411:82,1,41.2500015735627,2|0,0:0|0:0,0:0:0:0:
449,128,30881,2,0,L|380:113,1,41.2500015735627,0|0,0:0|0:0,0:0:0:0:
392,173,31295,2,0,L|339:126,1,41.2500015735627,0|0,0:0|0:0,0:0:0:0:
319,183,31709,2,0,L|297:116,1,41.2500015735627,0|0,0:0|0:0,0:0:0:0:
279,67,32123,6,0,B|250:76|250:76|235:125,1,46.7500008916855,2|0,0:0|0:0,0:0:0:0:
233,171,32537,2,0,B|227:188|227:188|197:196,1,46.7500008916855,0|0,0:0|0:0,0:0:0:0:
187,269,32950,2,0,B|155:269|155:269|141:250,1,52.2499986047745,2|0,0:0|0:0,0:0:0:0:
119,172,33364,2,0,B|112:154|112:154|74:143,1,52.2499986047745,0|0,0:0|0:0,0:0:0:0:
53,231,33778,6,0,P|54:261|76:294,1,57.7499982376099,2|0,0:0|0:0,0:0:0:0:
143,252,34192,2,0,P|166:269|205:273,1,57.7499982376099
205,197,34606,2,0,P|234:189|263:162,1,57.7499982376099,0|0,0:0|0:0,0:0:0:0:
203,111,35019,2,0,P|217:84|215:45,1,57.7499982376099,0|0,0:0|0:0,0:0:0:0:
348,15,35433,6,0,L|264:39,1,57.7499982376099,2|0,0:0|0:0,0:0:0:0:
382,85,35847,2,0,L|293:78,1,57.7499982376099,0|0,0:0|0:0,0:0:0:0:
386,163,36261,2,0,L|305:126,1,57.7499982376099,2|0,0:0|0:0,0:0:0:0:
378,242,36675,1,0,0:0:0:0:
310,288,36881,1,0,0:0:0:0:
241,217,37088,6,0,P|174:212|119:250,1,131.99999597168,12|2,0:0|0:0,0:0:0:0:
201,314,37708,2,0,P|144:351|77:346,1,131.99999597168
21,257,38329,1,2,0:0:0:0:
122,246,38536,1,0,0:0:0:0:
164,157,38743,6,0,P|158:87|213:23,1,131.99999597168,8|2,0:0|0:0,0:0:0:0:
256,115,39364,1,0,0:0:0:0:
314,201,39571,2,0,P|378:211|442:174,1,131.99999597168,8|2,0:0|0:0,0:0:0:0:
463,77,40192,2,0,L|463:41,2,32.99999899292,2|2|8,0:0|0:0|0:0,0:0:0:0:
256,115,40812,5,2,0:0:0:0:
314,201,41019,2,0,P|247:220|181:189,1,131.99999597168
125,110,41640,1,2,0:0:0:0:
82,202,41847,1,0,0:0:0:0:
22,118,42053,5,8,0:0:0:0:
191,198,42467,1,2,0:0:0:0:
22,118,42881,2,0,L|0:87,2,32.99999899292,8|8|8,0:0|0:0|0:0,0:0:0:0:
82,202,43295,1,8,0:0:0:0:
125,110,43501,1,8,0:0:0:0:
226,101,43708,6,0,B|293:146|320:213,1,131.99999597168,12|2,0:3|0:3,0:3:0:0:
337,351,45363,2,0,P|426:370|478:352,1,131.99999597168,8|2,0:3|0:3,0:3:0:0:
464,360,46397,1,2,0:3:0:0:
464,360,46604,1,8,0:3:0:0:
491,285,47018,6,0,P|475:210|438:142,1,131.99999597168,8|2,0:3|0:3,0:3:0:0:
388,111,48259,1,8,0:3:0:0:
314,80,48673,2,0,P|235:73|180:114,1,131.99999597168,8|2,0:3|0:3,0:3:0:0:
172,133,49708,1,2,0:3:0:0:
154,168,49914,2,0,L|134:207,1,32.99999899292,8|8,0:3|0:3,0:3:0:0:
121,233,50328,5,12,0:3:0:0:
210,363,51156,1,2,0:3:0:0:
285,224,51983,1,8,0:3:0:0:
380,350,52811,2,0,L|393:391,2,32.99999899292,2|2|8,0:3|0:3|0:3,0:3:0:0:
326,291,53639,6,0,P|263:244|239:189,1,131.99999597168,8|2,0:3|0:3,0:3:0:0:
207,125,54880,1,8,0:3:0:0:
160,61,55294,2,0,P|83:34|35:74,1,131.99999597168,8|2,0:3|0:3,0:3:0:0:
25,92,56328,1,2,0:3:0:0:
29,131,56535,2,0,L|44:184,1,32.99999899292,8|8,0:3|0:3,0:3:0:0:
62,194,56949,6,0,B|123:262|203:251,1,131.99999597168,12|10,0:3|0:3,0:3:0:0:
192,94,58604,1,8,0:3:0:0:
338,34,59432,2,0,L|374:2,2,32.99999899292,2|2|8,0:3|0:3|0:3,0:3:0:0:
328,112,60259,5,8,0:3:0:0:
479,158,61087,2,0,P|452:217|431:236,1,65.9999979858399,2|8,0:3|0:3,0:3:0:0:
373,230,61914,2,0,P|348:289|348:315,1,65.9999979858399,8|0,0:3|0:3,0:3:0:0:
397,351,62742,2,0,L|399:398,2,32.99999899292,2|2|8,0:3|0:3|0:3,0:3:0:0:
438,283,63570,5,12,0:3:0:0:
256,192,63776,12,0,65225,0:3:0:0:
