osu file format v14

[General]
AudioFilename: audio.mp3
AudioLeadIn: 0
PreviewTime: 30054
Countdown: 0
SampleSet: Soft
StackLeniency: 0.7
Mode: 0
LetterboxInBreaks: 0
WidescreenStoryboard: 1

[Editor]
DistanceSpacing: 1
BeatDivisor: 4
GridSize: 4
TimelineZoom: 1

[Metadata]
Title:Calloused Hands
TitleUnicode:Calloused Hands
Artist:SexuaLobster
ArtistUnicode:SexuaLobster
Creator:hohol454
Version:Normal
Source:
Tags:SEXUALOBSTERS'S AMAZING ALBUM OF SIN
BeatmapID:1351791
BeatmapSetID:581167

[Difficulty]
HPDrainRate:2
CircleSize:3.5
OverallDifficulty:3
ApproachRate:4
SliderMultiplier:1.7
SliderTickRate:1

[Events]
//Background and Video events
0,0,"calloused hands.png",0,0
Video,0,"Calloused hands.mp4"
//Break Periods
2,27357,29148
//Storyboard Layer 0 (Background)
//Storyboard Layer 1 (Fail)
//Storyboard Layer 2 (Pass)
//Storyboard Layer 3 (Foreground)
//Storyboard Sound Samples

[TimingPoints]
675,827.586206896552,4,3,1,65,1,0
675,-90.9090909090909,4,3,1,65,0,0
30468,-90.9090909090909,4,3,1,30,0,0
32123,-90.9090909090909,4,3,1,35,0,0
32950,-90.9090909090909,4,3,1,45,0,0
33778,-90.9090909090909,4,3,1,55,0,0
37088,413.793103448276,4,3,1,65,1,0
37088,-166.666666666667,4,3,1,65,0,1
43708,827.586206896552,4,2,1,65,1,0
43708,-111.111111111111,4,2,1,65,0,0
43984,-111.111111111111,4,2,1,30,0,0
65225,-200,4,2,1,5,0,0

[Colours]
Combo1 : 255,128,0
Combo2 : 128,255,0
Combo3 : 20,26,252
Combo4 : 247,228,9

[HitObjects]
159,221,675,6,0,P|156:129|211:56,2,187.000005706787,12|2|8,0:0|0:0|0:0,0:0:0:0:
209,300,2743,1,0,0:0:0:0:
296,335,3157,2,0,P|342:335|382:312,1,93.5000028533936,2|8,0:0|0:0,0:0:0:0:
441,239,3985,5,8,0:0:0:0:
408,151,4399,1,0,0:0:0:0:
327,105,4812,2,0,P|295:139|283:184,1,93.5000028533936,2|8,0:0|0:0,0:0:0:0:
327,268,5640,2,0,P|229:261|193:183,1,187.000005706787,8|2,0:0|0:0,0:0:0:0:
202,96,6881,1,8,0:0:0:0:
224,5,7295,6,0,P|137:30|111:114,2,187.000005706787,12|2|8,0:0|0:0|0:0,0:0:0:0:
296,63,9364,1,0,0:0:0:0:
340,143,9778,2,0,P|326:187|292:218,1,93.5000028533936,2|8,0:0|0:0,0:0:0:0:
249,136,10606,6,0,P|199:211|241:297,1,187.000005706787,8|2,0:0|0:0,0:0:0:0:
328,292,11847,1,8,0:0:0:0:
400,351,12261,2,0,P|416:262|346:200,1,187.000005706787,8|2,0:0|0:0,0:0:0:0:
257,201,13502,1,0,0:0:0:0:
204,278,13916,6,0,P|159:284|116:266,1,93.5000028533936,12|0,0:0|0:0,0:0:0:0:
170,190,14743,2,0,P|128:172|83:178,1,93.5000028533936,2|0,0:0|0:0,0:0:0:0:
24,252,15571,2,0,P|34:322|156:365,1,187.000005706787,8|2,0:0|0:0,0:0:0:0:
201,307,16812,1,2,0:0:0:0:
138,238,17226,6,0,P|134:192|154:150,1,93.5000028533936,8|0,0:0|0:0,0:0:0:0:
226,209,18054,2,0,P|247:167|244:121,1,93.5000028533936,2|8,0:0|0:0,0:0:0:0:
215,32,18881,2,0,P|319:64|337:137,1,187.000005706787,8|2,0:0|0:0,0:0:0:0:
323,223,20123,1,8,0:0:0:0:
270,300,20537,6,0,P|213:308|168:285,1,93.5000028533936,12|0,0:0|0:0,0:0:0:0:
141,209,21364,2,0,P|187:199|230:214,1,93.5000028533936,2|0,0:0|0:0,0:0:0:0:
180,295,22192,2,0,P|134:303|92:288,2,93.5000028533936,8|0|2,0:0|0:0|0:0,0:0:0:0:
141,209,23433,1,8,0:0:0:0:
50,179,23847,6,0,P|114:116|212:144,2,187.000005706787,8|2|8,0:0|0:0|0:0,0:0:0:0:
169,324,26330,2,0,L|270:337,1,93.5000028533936,2|8,0:0|0:0,0:0:0:0:
353,318,27157,1,12,0:0:0:0:
445,251,30468,6,0,L|411:165,1,93.5000028533936
337,218,31295,2,0,L|302:131,1,93.5000028533936,0|0,0:0|0:0,0:0:0:0:
314,36,32123,2,0,P|231:69|216:160,2,187.000005706787,0|0|0,0:0|0:0|0:0,0:0:0:0:
368,116,34192,5,0,0:0:0:0:
342,205,34606,2,0,L|307:291,1,93.5000028533936,0|0,0:0|0:0,0:0:0:0:
233,349,35433,2,0,L|146:314,1,93.5000028533936,0|0,0:0|0:0,0:0:0:0:
130,221,36261,2,0,L|216:255,1,93.5000028533936,0|0,0:0|0:0,0:0:0:0:
310,216,37088,6,0,P|317:161|289:100,2,101.999996887207,12|2|8,0:0|0:0|0:0,0:0:0:0:
220,262,38328,1,2,0:0:0:0:
120,287,38743,2,0,P|122:232|160:177,1,101.999996887207,8|2,0:0|0:0,0:0:0:0:
244,169,39571,1,8,0:0:0:0:
336,123,39985,1,2,0:0:0:0:
360,23,40399,6,0,P|403:46|434:95,1,101.999996887207,8|2,0:0|0:0,0:0:0:0:
336,123,41226,2,8,P|309:165|262:183,1,101.999996887207,8|2,0:0|0:0,0:0:0:0:
160,174,42054,1,8,0:0:0:0:
139,74,42468,1,2,0:0:0:0:
237,100,42881,2,8,L|337:84,1,101.999996887207,8|10,0:0|0:0,0:0:0:0:
439,69,43708,6,0,B|443:176|360:191|294:233|361:361,1,305.999990661621,12|8,0:3|0:3,0:3:0:0:
502,362,46190,1,2,0:3:0:0:
351,340,47018,6,0,B|225:303|269:222|278:158|182:97,1,305.999990661621,8|8,0:3|0:3,0:3:0:0:
104,228,49501,1,2,0:3:0:0:
247,281,50328,6,12,P|431:254|474:143,1,305.999990661621,12|8,0:3|0:3,0:3:0:0:
372,43,52811,1,2,0:3:0:0:
219,55,53639,6,0,B|227:191|373:175|353:329,1,305.999990661621,8|8,0:3|0:3,0:3:0:0:
201,306,56121,1,2,0:3:0:0:
115,178,56949,6,0,B|237:83|291:247|425:119,1,305.999990661621,12|8,0:3|0:3,0:3:0:0:
310,16,59432,1,2,0:3:0:0:
290,167,60259,6,0,P|237:292|68:316,1,305.999990661621,8|8,0:3|0:3,0:3:0:0:
136,179,62742,2,0,L|131:91,1,76.4999976654053,2|8,0:3|0:3,0:3:0:0:
256,192,63571,12,0,65226,0:3:0:0:
