osu file format v14

[General]
AudioFilename: audio.mp3
AudioLeadIn: 0
PreviewTime: 217829
Countdown: 0
SampleSet: Soft
StackLeniency: 0.3
Mode: 0
LetterboxInBreaks: 0
WidescreenStoryboard: 0

[Editor]
Bookmarks: 27972,41257,43829,54972,80686,109829,136400,150972,192115,246972,274400,301829
DistanceSpacing: 1.5
BeatDivisor: 8
GridSize: 8
TimelineZoom: 3.299999

[Metadata]
Title:Where Was I (feat. Ashley Apollodor)
TitleUnicode:Where Was I (feat. Ashley Apollodor)
Artist:Sex Whales & Roee Yeger
ArtistUnicode:Sex Whales & Roee Yeger
Creator:FruityEnLoops
Version:Lost
Source:
Tags:no copyright sounds ncs dubstep
BeatmapID:1452574
BeatmapSetID:686328

[Difficulty]
HPDrainRate:6.3
CircleSize:4.6
OverallDifficulty:8
ApproachRate:9
SliderMultiplier:2.2
SliderTickRate:1

[Events]
//Background and Video events
0,0,"wallhaven-569565.jpg",0,0
//Break Periods
2,137457,150372
2,308886,311086
2,312315,313229
2,314029,314943
2,315743,318372
//Storyboard Layer 0 (Background)
//Storyboard Layer 1 (Fail)
//Storyboard Layer 2 (Pass)
//Storyboard Layer 3 (Foreground)
//Storyboard Sound Samples

[TimingPoints]
115,428.571428571429,4,1,0,15,1,0
115,-200,4,2,0,15,0,0
13829,-133.333333333333,4,2,0,15,0,0
21865,-133.333333333333,4,2,0,5,0,0
21972,-133.333333333333,4,2,0,15,0,0
27115,-133.333333333333,4,2,0,5,0,0
27543,-133.333333333333,4,2,1,80,0,0
27972,-133.333333333333,4,2,0,25,0,0
30972,-133.333333333333,4,2,0,35,0,0
31400,-133.333333333333,4,2,0,25,0,0
36115,-133.333333333333,4,2,0,35,0,0
36543,-133.333333333333,4,2,0,25,0,0
37829,-133.333333333333,4,2,0,35,0,0
38472,-133.333333333333,4,2,0,45,0,0
39115,-133.333333333333,4,2,0,55,0,0
40615,-133.333333333333,4,2,0,45,0,0
40829,-133.333333333333,4,2,0,35,0,0
41043,-133.333333333333,4,2,0,25,0,0
42972,-133.333333333333,4,2,0,55,0,0
45543,-133.333333333333,4,2,0,45,0,0
46400,-133.333333333333,4,2,0,35,0,0
47257,-133.333333333333,4,2,0,25,0,0
54972,-133.333333333333,4,2,0,80,0,0
55400,-133.333333333333,4,2,0,35,0,0
58400,-133.333333333333,4,2,0,45,0,0
58829,-133.333333333333,4,2,0,35,0,0
65257,-133.333333333333,4,2,0,65,0,0
67615,-133.333333333333,4,2,0,55,0,0
68043,-133.333333333333,4,2,0,45,0,0
68257,-133.333333333333,4,2,0,35,0,0
68686,-117.647058823529,4,2,0,40,0,0
70400,-105.263157894737,4,2,0,60,0,0
72115,-95.2380952380951,4,2,0,65,0,0
73829,-86.9565217391303,4,2,0,70,0,0
75543,-133.333333333333,4,2,2,45,0,0
75650,-133.333333333333,4,2,2,46,0,0
75757,-133.333333333333,4,2,2,47,0,0
75865,-133.333333333333,4,2,2,48,0,0
75972,-133.333333333333,4,2,2,49,0,0
76079,-133.333333333333,4,2,2,50,0,0
76186,-133.333333333333,4,2,2,51,0,0
76293,-133.333333333333,4,2,2,52,0,0
76400,-133.333333333333,4,2,2,53,0,0
76507,-133.333333333333,4,2,2,54,0,0
76615,-133.333333333333,4,2,2,55,0,0
76722,-133.333333333333,4,2,2,56,0,0
76829,-133.333333333333,4,2,2,57,0,0
76936,-133.333333333333,4,2,2,58,0,0
77043,-133.333333333333,4,2,2,59,0,0
77150,-133.333333333333,4,2,2,60,0,0
77257,-133.333333333333,4,2,2,61,0,0
77365,-133.333333333333,4,2,2,62,0,0
77472,-133.333333333333,4,2,2,63,0,0
77579,-133.333333333333,4,2,2,64,0,0
77686,-133.333333333333,4,2,2,65,0,0
77793,-133.333333333333,4,2,2,66,0,0
77900,-133.333333333333,4,2,2,67,0,0
78007,-133.333333333333,4,2,2,68,0,0
78115,-133.333333333333,4,2,2,69,0,0
78222,-133.333333333333,4,2,2,70,0,0
78329,-133.333333333333,4,2,2,71,0,0
78436,-133.333333333333,4,2,2,72,0,0
78543,-133.333333333333,4,2,2,73,0,0
78650,-133.333333333333,4,2,2,74,0,0
78757,-133.333333333333,4,2,2,75,0,0
78865,-133.333333333333,4,2,2,76,0,0
78972,-133.333333333333,4,2,0,80,0,0
79400,-133.333333333333,4,2,0,85,0,0
79829,-133.333333333333,4,2,0,90,0,0
80257,-133.333333333333,4,2,0,95,0,0
80686,-133.333333333333,4,2,0,100,0,0
81543,-133.333333333333,4,1,1,100,0,0
81972,-100,4,1,1,100,0,0
82400,-200,4,1,1,70,0,1
83257,-83.3333333333333,4,1,1,70,0,1
83686,-200,4,1,1,70,0,1
84972,-74.0740740740741,4,1,1,70,0,1
85400,-68.9655172413793,4,1,1,70,0,1
85615,-64.5161290322581,4,1,1,70,0,1
85829,-200,4,1,1,70,0,1
86686,-71.4285714285714,4,1,1,70,0,1
87115,-200,4,1,1,70,0,1
88400,-90.9090909090909,4,1,1,70,0,1
89257,-200,4,1,1,70,0,1
90115,-83.3333333333333,4,1,1,70,0,1
90543,-200,4,1,1,70,0,1
91829,-66.6666666666667,4,1,1,70,0,1
92043,-71.4285714285714,4,1,1,70,0,1
92257,-76.9230769230769,4,1,1,70,0,1
92472,-83.3333333333333,4,1,1,70,0,1
92686,-200,4,1,1,70,0,1
95257,-66.6666666666667,4,1,1,90,0,1
95472,-71.4285714285714,4,1,1,90,0,1
95686,-76.9230769230769,4,1,1,90,0,1
95900,-83.3333333333333,4,1,1,90,0,1
96115,-200,4,1,1,100,0,1
96972,-66.6666666666667,4,1,1,70,0,1
97400,-200,4,1,1,70,0,1
98686,-71.4285714285714,4,1,1,70,0,1
98900,-76.9230769230769,4,1,1,70,0,1
99115,-83.3333333333333,4,1,1,70,0,1
99329,-90.9090909090909,4,1,1,70,0,1
99543,-200,4,1,1,70,0,1
100400,-66.6666666666667,4,1,1,70,0,1
100829,-200,4,1,1,70,0,1
102115,-142.857142857143,4,1,1,70,0,1
102543,-100,4,1,1,70,0,1
102757,-86.9565217391304,4,1,1,70,0,1
102972,-200,4,1,1,70,0,1
103829,-71.4285714285714,4,1,1,70,0,1
104257,-200,4,1,1,70,0,1
105543,-66.6666666666667,4,1,1,70,0,1
105757,-76.9230769230769,4,1,1,70,0,1
105972,-83.3333333333333,4,1,1,70,0,1
106186,-90.9090909090909,4,1,1,70,0,1
106400,-188.679245283019,4,1,1,70,0,1
107257,-66.6666666666667,4,1,1,70,0,1
107472,-100,4,1,1,70,0,1
107686,-200,4,1,1,70,0,1
108972,-71.4285714285714,4,1,1,70,0,1
109186,-76.9230769230769,4,1,1,70,0,1
109400,-83.3333333333333,4,1,1,70,0,1
109615,-90.9090909090909,4,1,1,70,0,1
109829,-133.333333333333,4,1,1,70,0,1
110257,-83.3333333333333,4,1,1,70,0,1
110686,-133.333333333333,4,1,1,70,0,1
111115,-83.3333333333333,4,1,1,70,0,1
111972,-83.3333333333333,4,1,1,70,0,1
112400,-71.4285714285714,4,1,1,70,0,1
112829,-71.4285714285714,4,1,1,5,0,1
113257,-133.333333333333,4,1,1,70,0,1
113686,-83.3333333333333,4,1,1,70,0,1
114757,-133.333333333333,4,1,1,70,0,1
115186,-83.3333333333333,4,1,1,70,0,1
116686,-133.333333333333,4,1,1,70,0,1
117115,-66.6666666666667,4,1,1,70,0,1
117543,-133.333333333333,4,1,1,70,0,1
117972,-100,4,1,1,70,0,1
118400,-71.4285714285714,4,1,1,70,0,1
118615,-100,4,1,1,70,0,1
118829,-71.4285714285714,4,1,1,70,0,1
119043,-107.52688172043,4,1,1,70,0,1
119257,-133.333333333333,4,1,1,70,0,1
120543,-71.4285714285714,4,1,1,70,0,1
120972,-200,4,1,1,70,0,1
121400,-71.4285714285714,4,1,1,70,0,1
121615,-133.333333333333,4,1,1,70,0,1
122043,-71.4285714285714,4,1,1,70,0,1
122686,-107.52688172043,4,1,1,70,0,1
123115,-71.4285714285714,4,1,1,70,0,1
123543,-133.333333333333,4,1,1,70,0,1
123972,-71.4285714285714,4,1,1,70,0,1
124400,-133.333333333333,4,1,1,70,0,1
124829,-71.4285714285714,4,1,1,70,0,1
125686,-100,4,1,1,70,0,1
125900,-71.4285714285714,4,1,1,70,0,1
126115,-133.333333333333,4,1,1,70,0,1
126543,-133.333333333333,4,1,1,5,0,1
126972,-133.333333333333,4,1,1,70,0,1
127400,-71.4285714285714,4,1,1,70,0,1
128472,-133.333333333333,4,1,1,70,0,1
128900,-71.4285714285714,4,1,1,70,0,1
130400,-133.333333333333,4,1,1,70,0,1
130829,-71.4285714285714,4,1,1,70,0,1
131257,-133.333333333333,4,1,1,70,0,1
131686,-71.4285714285714,4,1,1,70,0,1
132972,-133.333333333333,4,1,1,70,0,1
134472,-133.333333333333,4,1,1,85,0,1
135115,-200,4,1,1,100,0,1
136293,-200,4,1,1,5,0,1
136400,-200,4,1,1,70,0,1
136615,-200,4,2,0,35,0,1
137257,-125,4,2,1,55,0,0
150972,-125,4,2,1,55,0,0
164686,-125,4,2,1,80,0,0
165115,-125,4,2,0,25,0,0
173257,-121.951219512195,4,2,0,25,0,0
173900,-125,4,2,0,25,0,0
186972,-125,4,2,0,55,0,0
187615,-125,4,2,0,45,0,0
189329,-125,4,2,0,35,0,0
189972,-125,4,2,0,25,0,0
192115,-125,4,2,1,80,0,0
192329,-125,4,2,0,35,0,0
195543,-125,4,2,0,40,0,0
198972,-125,4,2,0,45,0,0
202400,-125,4,2,0,50,0,0
205829,-125,4,2,0,55,0,0
207543,-125,4,2,0,60,0,0
209257,-125,4,2,0,65,0,0
210972,-125,4,2,0,70,0,0
212686,-125,4,2,2,45,0,0
212793,-125,4,2,2,46,0,0
212900,-125,4,2,2,47,0,0
213007,-125,4,2,2,48,0,0
213115,-125,4,2,2,49,0,0
213222,-125,4,2,2,50,0,0
213329,-125,4,2,2,51,0,0
213436,-125,4,2,2,52,0,0
213543,-125,4,2,2,53,0,0
213650,-125,4,2,2,54,0,0
213757,-125,4,2,2,55,0,0
213865,-125,4,2,2,56,0,0
213972,-125,4,2,2,57,0,0
214079,-125,4,2,2,58,0,0
214186,-125,4,2,2,59,0,0
214293,-125,4,2,2,60,0,0
214400,-125,4,2,2,61,0,0
214507,-125,4,2,2,62,0,0
214615,-125,4,2,2,63,0,0
214722,-125,4,2,2,64,0,0
214829,-125,4,2,2,65,0,0
214936,-125,4,2,2,66,0,0
215043,-125,4,2,2,67,0,0
215150,-125,4,2,2,68,0,0
215257,-125,4,2,2,69,0,0
215365,-125,4,2,2,70,0,0
215472,-125,4,2,2,71,0,0
215579,-125,4,2,2,72,0,0
215686,-125,4,2,2,73,0,0
215793,-125,4,2,2,74,0,0
215900,-125,4,2,2,75,0,0
216007,-125,4,2,2,76,0,0
216115,-125,4,2,0,70,0,0
216543,-125,4,2,0,75,0,0
216972,-125,4,2,0,80,0,0
217400,-125,4,2,0,85,0,0
217829,-125,4,2,0,100,0,0
218686,-125,4,1,1,100,0,0
219543,-58.8235294117647,4,1,1,70,0,1
219972,-58.8235294117647,4,1,1,5,0,1
220186,-58.8235294117647,4,1,1,80,0,1
220615,-58.8235294117647,4,1,1,5,0,1
220829,-58.8235294117647,4,1,1,90,0,1
221686,-50,4,1,1,5,0,1
222115,-50,4,1,1,70,0,1
222329,-125,4,1,1,70,0,1
222543,-111.111111111111,4,1,1,70,0,1
222757,-100,4,1,1,70,0,1
222972,-133.333333333333,4,1,1,70,0,1
223829,-60.6060606060606,4,1,1,70,0,1
224257,-133.333333333333,4,1,1,70,0,1
225329,-83.3333333333333,4,1,1,70,0,1
225543,-90.9090909090909,4,1,1,70,0,1
225757,-100,4,1,1,70,0,1
225972,-111.111111111111,4,1,1,70,0,1
226186,-125,4,1,1,70,0,1
226400,-133.333333333333,4,1,1,70,0,1
227257,-79.9999999999999,4,1,1,70,0,1
227686,-133.333333333333,4,1,1,70,0,1
228972,-83.3333333333333,4,1,1,70,0,1
229186,-90.9090909090909,4,1,1,70,0,1
229400,-100,4,1,1,70,0,1
229615,-111.111111111111,4,1,1,70,0,1
229829,-133.333333333333,4,1,1,70,0,1
230686,-83.3333333333333,4,1,1,70,0,1
230900,-76.9230769230769,4,1,1,70,0,1
231115,-133.333333333333,4,1,1,70,0,1
232400,-133.333333333333,4,1,1,100,0,1
232829,-200,4,1,1,100,0,1
233257,-133.333333333333,4,1,1,100,0,1
234115,-66.6666666666667,4,1,1,70,0,1
234543,-133.333333333333,4,1,1,70,0,1
235829,-66.6666666666667,4,1,1,70,0,1
236043,-71.4285714285714,4,1,1,70,0,1
236257,-76.9230769230769,4,1,1,70,0,1
236472,-83.3333333333333,4,1,1,70,0,1
236686,-133.333333333333,4,1,1,70,0,1
237543,-57.1428571428571,4,1,1,70,0,1
237757,-66.6666666666667,4,1,1,70,0,1
237972,-133.333333333333,4,1,1,70,0,1
238829,-117.647058823529,4,1,1,70,0,1
239257,-100,4,1,1,70,0,1
240115,-133.333333333333,4,1,1,70,0,1
240972,-57.1428571428571,4,1,1,70,0,1
241400,-133.333333333333,4,1,1,70,0,1
242686,-71.4285714285714,4,1,1,70,0,1
242900,-76.9230769230769,4,1,1,70,0,1
243115,-83.3333333333333,4,1,1,70,0,1
243329,-90.9090909090909,4,1,1,70,0,1
243543,-133.333333333333,4,1,1,70,0,1
244186,-117.647058823529,4,1,1,70,0,1
244400,-57.1428571428571,4,1,1,70,0,1
244829,-133.333333333333,4,1,1,70,0,1
246115,-79.9999999999999,4,1,1,100,0,1
246329,-66.6666666666667,4,1,1,100,0,1
246543,-57.1428571428571,4,1,1,100,0,1
246757,-50,4,1,1,100,0,1
246972,-111.111111111111,4,1,1,70,0,1
247400,-62.5,4,1,1,70,0,1
247829,-76.9230769230769,4,1,1,70,0,1
248257,-62.5,4,1,1,70,0,1
248686,-58.8235294117647,4,1,1,70,0,1
248900,-62.5,4,1,1,70,0,1
249115,-43.4782608695652,4,1,1,70,0,1
249329,-62.5,4,1,1,70,0,1
249543,-76.9230769230769,4,1,1,70,0,1
249972,-111.111111111111,4,1,1,5,0,1
250400,-111.111111111111,4,1,1,70,0,1
250829,-66.6666666666666,4,1,1,70,0,1
251900,-125,4,1,1,70,0,1
252329,-66.6666666666667,4,1,1,70,0,1
253829,-76.9230769230769,4,1,1,70,0,1
254257,-66.6666666666667,4,1,1,70,0,1
254686,-111.111111111111,4,1,1,70,0,1
255115,-90.9090909090909,4,1,1,70,0,1
255543,-76.9230769230769,4,1,1,70,0,1
255972,-66.6666666666667,4,1,1,70,0,1
256186,-76.9230769230769,4,1,1,70,0,1
256400,-90.9090909090909,4,1,1,70,0,1
257257,-111.111111111111,4,1,1,70,0,1
257686,-76.9230769230769,4,1,1,70,0,1
258115,-111.111111111111,4,1,1,70,0,1
258543,-76.9230769230769,4,1,1,70,0,1
258757,-111.111111111111,4,1,1,70,0,1
259186,-76.9230769230769,4,1,1,70,0,1
259829,-153.846153846154,4,1,1,70,0,1
260257,-76.9230769230769,4,1,1,70,0,1
260686,-111.111111111111,4,1,1,70,0,1
261115,-71.4285714285714,4,1,1,70,0,1
261543,-90.9090909090909,4,1,1,70,0,1
261972,-71.4285714285714,4,1,1,70,0,1
262829,-83.3333333333333,4,1,1,70,0,1
263043,-71.4285714285714,4,1,1,70,0,1
263257,-90.9090909090909,4,1,1,70,0,1
263686,-90.9090909090909,4,1,1,5,0,1
264115,-111.111111111111,4,1,1,70,0,1
264543,-71.4285714285714,4,1,1,70,0,1
265615,-111.111111111111,4,1,1,70,0,1
266043,-71.4285714285714,4,1,1,70,0,1
267543,-111.111111111111,4,1,1,70,0,1
267972,-62.5,4,1,1,70,0,1
268186,-71.4285714285714,4,1,1,70,0,1
268400,-111.111111111111,4,1,1,70,0,1
268829,-71.4285714285714,4,1,1,70,0,1
269686,-90.9090909090909,4,1,1,70,0,1
269900,-66.6666666666667,4,1,1,70,0,1
270115,-90.9090909090909,4,1,1,70,0,1
270972,-142.857142857143,4,1,1,70,0,1
273436,-142.857142857143,4,1,1,5,0,1
273543,-142.857142857143,4,1,1,70,0,1
273757,-142.857142857143,4,2,0,70,0,1
274400,-117.647058823529,4,2,1,55,0,0
298400,-142.857142857143,4,2,1,55,0,0
299043,-166.666666666667,4,2,1,55,0,0
299686,-400,4,2,1,55,0,0
301829,-400,4,2,1,80,0,0
303115,-400,4,2,0,15,0,0
311686,-400,4,2,0,10,0,0
318972,-500,4,2,2,15,0,0
319186,-10000,4,2,0,5,0,0

[Colours]
Combo1 : 52,58,114
Combo2 : 35,65,39
Combo3 : 111,105,34
Combo4 : 83,30,31

[HitObjects]
232,252,115,5,2,0:0:0:0:
232,252,2686,6,0,B|248:192|240:136|240:136|264:192|312:224,1,220,2|2,0:0|0:0,0:0:0:0:
232,252,5257,5,2,0:0:0:0:
232,252,5686,2,0,P|248:216|272:184,1,55,2|2,0:0|0:0,0:0:0:0:
176,128,6329,2,0,P|184:72|192:56,2,55,2|2|2,0:0|0:0|0:0,0:0:0:0:
232,252,6972,5,2,0:0:0:0:
232,252,8686,1,2,0:0:0:0:
232,252,9543,2,0,B|224:204|248:144|248:144|288:204|296:248,1,220,2|2,0:0|0:0,0:0:0:0:
232,252,12115,5,2,0:0:0:0:
236,188,13829,5,2,0:0:0:0:
240,72,14686,2,2,L|240:154,1,82.5000031471254,0|0,0:0|0:0,0:0:0:0:
237,238,15115,1,2,0:0:0:0:
232,320,15329,2,2,P|160:264|168:196,1,165.000006294251,0|0,0:0|0:0,0:0:0:0:
237,238,15972,2,2,B|313:267|317:342|317:342|349:306|406:231,1,247.500009441376,0|0,0:0|0:0,0:0:0:0:
328,200,16829,1,2,0:0:0:0:
328,200,17043,1,2,0:0:0:0:
496,160,17257,6,0,B|439:134|419:45|419:45|390:77|321:85,1,247.500009441376,2|0,0:0|0:0,0:0:0:0:
252,132,18115,2,2,P|239:86|251:40,1,82.5000031471254,0|0,0:0|0:0,0:0:0:0:
110,86,18543,1,2,0:0:0:0:
110,86,18757,2,2,P|155:131|254:130,1,165.000006294251,0|0,0:0|0:0,0:0:0:0:
321,166,19400,5,2,0:0:0:0:
319,85,19615,1,2,0:0:0:0:
502,19,20043,1,2,0:0:0:0:
472,96,20258,1,2,0:0:0:0:
420,33,20472,1,2,0:0:0:0:
472,96,20686,6,0,B|491:147|478:195|478:195|464:240|488:288|488:288|440:312|392:224|392:224|432:152|400:96,1,453.75001730919,2|2,0:0|0:0,0:0:0:0:
344,152,21972,2,0,B|332:204|264:256|188:196|212:128|272:136|272:136|288:92|256:64|208:64|191:83|148:104|140:156|155:192|163:214|176:236,1,495.000018882752,2|0,0:0|0:0,0:0:0:0:
165,216,23686,1,2,0:0:0:0:
112,278,23900,1,2,0:0:0:0:
193,293,24115,5,2,0:0:0:0:
304,288,24757,1,2,0:0:0:0:
338,109,25400,1,2,0:0:0:0:
256,192,25507,12,0,27115,0:0:0:0:
108,100,27543,6,0,B|144:144|148:208|148:208|184:140,1,165.000006294251,4|0,0:3|0:0,0:0:0:0:
188,84,28186,1,0,0:0:0:0:
256,128,28400,2,0,B|240:170|240:170|308:200|312:264,1,165.000006294251,0|2,0:0|0:0,0:0:0:0:
228,252,29043,1,0,0:0:0:0:
154,239,29257,6,0,P|166:187|106:99,1,165.000006294251,0|0,0:0|0:0,0:0:0:0:
28,124,29900,1,0,0:0:0:0:
88,184,30115,2,0,P|70:238|40:267,1,82.5000031471254,0|0,0:0|0:0,0:0:0:0:
120,311,30543,2,0,P|137:256|168:227,1,82.5000031471254,2|2,0:0|0:0,0:0:0:0:
236,236,30972,6,0,P|272:192|276:64,1,165.000006294251,2|0,0:0|0:0,0:0:0:0:
244,16,31615,1,0,0:0:0:0:
212,92,31829,2,0,B|220:132|208:152|208:152|144:136|96:160,1,165.000006294251,0|2,0:0|0:0,0:0:0:0:
156,220,32472,1,0,0:0:0:0:
236,236,32686,6,0,P|272:192|276:64,1,165.000006294251,0|2,0:0|0:0,0:0:0:0:
332,20,33329,1,2,0:0:0:0:
368,92,33543,2,0,P|372:148|404:192,1,82.5000031471254,0|2,0:0|0:0,0:0:0:0:
460,204,33972,2,0,P|456:148|424:104,1,82.5000031471254,2|2,0:0|0:0,0:0:0:0:
368,92,34400,6,0,B|317:67|271:71|271:71|300:120|296:160,1,165.000006294251,2|0,0:0|0:0,0:0:0:0:
212,136,35043,1,0,0:0:0:0:
252,208,35257,2,0,B|300:240|336:296|336:296|276:284|256:284,1,165.000006294251,0|2,0:0|0:0,0:0:0:0:
212,276,35900,1,0,0:0:0:0:
180,200,36115,6,0,P|204:152|312:168,1,165.000006294251,0|0,0:0|0:0,0:0:0:0:
364,212,36757,1,0,0:0:0:0:
380,132,36972,2,0,P|395:84|390:32,1,82.5000031471254,0|0,0:0|0:0,0:0:0:0:
318,77,37400,1,2,0:0:0:0:
318,77,37615,1,2,0:0:0:0:
380,132,37829,6,0,P|428:160|422:271,1,165.000006294251,2|0,0:0|0:0,0:0:0:0:
367,211,38472,2,0,P|325:257|207:234,1,165.000006294251,2|0,0:0|0:0,0:0:0:0:
284,185,39115,2,0,P|317:123|112:114,1,412.500015735627,2|0,0:0|0:0,0:0:0:0:
184,306,40400,5,2,0:0:0:0:
184,306,40615,1,2,0:0:0:0:
117,257,40829,1,2,0:0:0:0:
90,179,41043,1,2,0:0:0:0:
184,306,41257,6,0,P|256:288|324:344,1,165.000006294251
240,380,41900,1,0,0:0:0:0:
144,372,42115,2,0,P|110:300|172:224,1,165.000006294251
200,180,42757,1,0,0:0:0:0:
264,144,42972,6,0,B|397:129|397:129|376:156|376:156,1,165.000006294251
328,212,43615,1,0,0:0:0:0:
408,232,43829,2,0,B|323:329|323:329|323:264,1,165.000006294251
256,316,44472,1,0,0:0:0:0:
184,320,44686,2,0,B|128:288|112:244|112:244|108:288|80:316,1,165.000006294251,2|0,0:0|0:0,0:0:0:0:
32,244,45329,1,0,0:0:0:0:
76,176,45543,2,0,B|120:152|172:172|192:228|192:228|220:188,1,165.000006294251,0|2,0:0|0:0,0:0:0:0:
288,204,46186,1,0,0:0:0:0:
312,276,46400,6,2,P|291:337|262:279,1,165.000006294251,0|2,0:0|0:0,0:0:0:0:
288,204,47043,1,2,0:0:0:0:
356,156,47257,2,2,P|381:124|393:85,1,82.5000031471254,0|2,0:0|0:0,0:0:0:0:
344,20,47686,2,0,P|319:52|307:91,1,82.5000031471254,2|2,0:0|0:0,0:0:0:0:
256,172,48115,6,0,B|196:124|220:56|220:56|201:58|145:138|145:138|109:108|56:97,1,330.000012588501,2|0,0:0|0:0,0:0:0:0:
8,144,49186,1,0,0:0:0:0:
68,186,49400,2,0,B|155:219|182:305|182:305|186:213|265:165,1,330.000012588501,2|0,0:0|0:0,0:0:0:0:
356,152,50472,1,0,0:0:0:0:
299,88,50686,2,0,P|253:72|214:40,1,82.5000031471254,0|0,0:0|0:0,0:0:0:0:
303,5,51115,1,2,0:0:0:0:
374,60,51329,1,2,0:0:0:0:
432,128,51543,6,0,B|429:173|474:205|474:205|454:254|474:293,1,165.000006294251,2|0,0:0|0:0,0:0:0:0:
400,336,52186,2,0,B|372:312|372:312|388:232|320:192,1,165.000006294251,2|0,0:0|0:0,0:0:0:0:
280,280,52829,2,0,B|200:248|152:280|152:280|184:232|168:136,1,247.500009441376,2|0,0:0|0:0,0:0:0:0:
74,324,53686,2,2,L|74:231,1,82.5000031471254,0|0,0:0|0:0,0:0:0:0:
29,263,54115,2,2,L|60:175,1,82.5000031471254,2|2,0:0|0:0,0:0:0:0:
8,192,54543,2,2,L|67:120,1,82.5000031471254,2|2,0:0|0:0,0:0:0:0:
256,192,54972,6,0,P|248:139|255:103,1,82.5000031471254,14|0,1:0|0:0,0:0:0:0:
228,188,55400,2,0,P|238:135|257:104,1,82.5000031471254,8|0,0:0|0:0,0:0:0:0:
203,174,55829,2,0,P|230:128|259:105,1,82.5000031471254,8|0,0:0|0:0,0:0:0:0:
183,153,56258,2,0,P|224:119|259:107,1,82.5000031471254,10|0,0:0|0:0,0:0:0:0:
172,126,56686,2,2,P|222:108|259:109,1,82.5000031471254,8|0,0:0|0:0,0:0:0:0:
170,97,57115,2,0,P|223:98|257:111,1,82.5000031471254,8|0,0:0|0:0,0:0:0:0:
178,70,57543,2,0,P|227:89|255:113,1,82.5000031471254,8|0,0:0|0:0,0:0:0:0:
326,148,57972,1,10,0:0:0:0:
283,31,58186,1,2,0:0:0:0:
178,70,58400,6,2,P|186:123|179:159,1,82.5000031471254,10|0,0:0|0:0,0:0:0:0:
206,74,58828,2,0,P|195:126|176:157,1,82.5000031471254,8|0,0:0|0:0,0:0:0:0:
230,87,59257,2,0,P|202:132|173:155,1,82.5000031471254,8|0,0:0|0:0,0:0:0:0:
248,107,59686,2,2,P|206:140|171:152,1,82.5000031471254,10|0,0:0|0:0,0:0:0:0:
259,133,60114,2,0,P|208:150|171:149,1,82.5000031471254,8|0,0:0|0:0,0:0:0:0:
260,161,60543,2,0,P|206:159|172:146,1,82.5000031471254,10|2,0:0|0:0,0:0:0:0:
251,187,60971,2,0,P|201:167|173:143,1,82.5000031471254,8|2,0:0|0:0,0:0:0:0:
108,114,61400,1,10,0:0:0:0:
151,231,61614,1,2,0:0:0:0:
251,187,61829,6,0,P|243:134|250:98,1,82.5000031471254,10|0,0:0|0:0,0:0:0:0:
223,183,62257,2,0,P|233:130|252:99,1,82.5000031471254,8|0,0:0|0:0,0:0:0:0:
198,170,62686,2,0,P|225:124|254:101,1,82.5000031471254,8|0,0:0|0:0,0:0:0:0:
178,149,63115,2,0,P|219:115|254:103,1,82.5000031471254,10|0,0:0|0:0,0:0:0:0:
167,122,63543,2,2,P|217:104|254:105,1,82.5000031471254,8|0,0:0|0:0,0:0:0:0:
165,93,63972,2,0,P|218:94|252:107,1,82.5000031471254,8|0,0:0|0:0,0:0:0:0:
173,66,64400,2,0,P|222:85|250:109,1,82.5000031471254,8|0,0:0|0:0,0:0:0:0:
321,143,64829,1,10,0:0:0:0:
278,26,65043,1,2,0:0:0:0:
173,66,65257,6,2,P|181:119|174:155,1,82.5000031471254,10|0,0:0|0:0,0:0:0:0:
201,70,65685,2,0,P|190:122|171:153,1,82.5000031471254,8|2,0:0|0:0,0:0:0:0:
225,83,66114,2,0,P|197:128|168:151,1,82.5000031471254,8|0,0:0|0:0,0:0:0:0:
243,103,66543,2,2,P|201:136|166:148,1,82.5000031471254,10|0,0:0|0:0,0:0:0:0:
253,128,66971,2,0,P|202:145|165:144,1,82.5000031471254,8|0,0:0|0:0,0:0:0:0:
254,156,67400,2,0,P|200:154|166:141,1,82.5000031471254,8|0,0:0|0:0,0:0:0:0:
225,80,67829,5,10,0:0:0:0:
172,144,68043,1,2,0:0:0:0:
103,110,68257,1,10,0:0:0:0:
146,227,68471,1,2,0:0:0:0:
256,192,68686,6,0,L|291:257,1,46.7500008916855,10|0,0:0|0:0,0:0:0:0:
236,318,68900,2,0,L|214:277,1,46.7500008916855,8|0,0:0|0:0,0:0:0:0:
247,205,69115,2,0,L|282:271,1,46.7500008916855,8|0,0:0|0:0,0:0:0:0:
227,331,69329,2,0,L|205:291,1,46.7500008916855,8|0,0:0|0:0,0:0:0:0:
242,218,69543,2,0,L|278:284,1,46.7500008916855,8|0,0:0|0:0,0:0:0:0:
223,344,69757,2,0,L|201:304,1,46.7500008916855,8|0,0:0|0:0,0:0:0:0:
234,231,69972,2,0,L|269:297,1,46.7500008916855,10|0,0:0|0:0,0:0:0:0:
214,358,70186,2,0,L|192:317,1,46.7500008916855,8|0,0:0|0:0,0:0:0:0:
208,152,70400,6,0,L|128:192,1,52.2499986047745,8|0,0:0|0:0,0:0:0:0:
59,128,70614,2,0,L|105:102,1,52.2499986047745,8|0,0:0|0:0,0:0:0:0:
192,141,70829,2,0,L|115:183,1,52.2499986047745,8|0,0:0|0:0,0:0:0:0:
43,117,71043,2,0,L|89:90,1,52.2499986047745,8|0,0:0|0:0,0:0:0:0:
176,136,71257,2,0,L|99:176,1,52.2499986047745,8|0,0:0|0:0,0:0:0:0:
29,113,71471,2,0,L|74:86,1,52.2499986047745,8|0,0:0|0:0,0:0:0:0:
161,124,71686,2,0,L|84:166,1,52.2499986047745,10|0,0:0|0:0,0:0:0:0:
13,102,71900,2,0,L|58:75,1,52.2499986047745,10|0,0:0|0:0,0:0:0:0:
240,168,72115,6,0,L|242:69,1,57.7499982376099,10|0,0:0|0:0,0:0:0:0:
343,36,72329,2,0,L|339:94,1,57.7499982376099,8|0,0:0|0:0,0:0:0:0:
255,155,72544,2,0,L|257:56,1,57.7499982376099,8|0,0:0|0:0,0:0:0:0:
361,27,72758,2,0,L|357:85,1,57.7499982376099,8|0,0:0|0:0,0:0:0:0:
270,145,72972,2,0,L|272:46,1,57.7499982376099,8|0,0:0|0:0,0:0:0:0:
376,14,73186,2,0,L|372:72,1,57.7499982376099,8|0,0:0|0:0,0:0:0:0:
289,135,73401,2,0,L|291:36,1,57.7499982376099,10|0,0:0|0:0,0:0:0:0:
394,6,73615,2,0,L|390:64,1,57.7499982376099,8|0,0:0|0:0,0:0:0:0:
360,168,73829,6,0,L|449:222,1,63.250001206398,8|0,0:0|0:0,0:0:0:0:
426,314,74043,2,0,L|368:278,1,63.250001206398,8|0,0:0|0:0,0:0:0:0:
360,187,74258,2,0,L|449:241,1,63.250001206398,10|0,0:0|0:0,0:0:0:0:
423,336,74472,2,0,L|365:300,1,63.250001206398,10|0,0:0|0:0,0:0:0:0:
361,208,74686,2,0,L|450:262,1,63.250001206398,8|0,0:0|0:0,0:0:0:0:
428,357,74900,2,0,L|370:321,1,63.250001206398,10|0,0:0|0:0,0:0:0:0:
361,231,75115,2,0,L|450:285,1,63.250001206398,10|0,0:0|0:0,0:0:0:0:
426,379,75329,2,0,L|368:343,1,63.250001206398,10|0,0:0|0:0,0:0:0:0:
128,256,75543,5,10,0:0:0:0:
111,206,75650,1,8,0:0:0:0:
128,157,75757,1,8,0:0:0:0:
169,132,75865,1,8,0:0:0:0:
218,149,75972,1,8,0:0:0:0:
251,182,76079,1,8,0:0:0:0:
300,198,76186,1,8,0:0:0:0:
349,182,76293,1,8,0:0:0:0:
374,141,76400,5,8,0:0:0:0:
366,91,76507,1,8,0:0:0:0:
316,67,76615,1,8,0:0:0:0:
275,91,76722,1,8,0:0:0:0:
267,141,76829,1,10,0:0:0:0:
300,182,76936,1,8,0:0:0:0:
349,182,77043,1,8,0:0:0:0:
382,141,77150,1,8,0:0:0:0:
431,124,77257,5,8,0:0:0:0:
480,149,77365,1,8,0:0:0:0:
505,198,77472,1,8,0:0:0:0:
489,247,77579,1,8,0:0:0:0:
444,272,77686,1,8,0:0:0:0:
393,263,77793,1,8,0:0:0:0:
364,226,77900,1,8,0:0:0:0:
349,182,78007,1,8,0:0:0:0:
348,128,78115,5,8,0:0:0:0:
324,83,78222,1,8,0:0:0:0:
276,68,78329,1,8,0:0:0:0:
230,86,78436,1,8,0:0:0:0:
205,128,78543,1,8,0:0:0:0:
211,176,78650,1,8,0:0:0:0:
216,224,78757,1,8,0:0:0:0:
192,272,78865,1,8,0:0:0:0:
212,316,78972,6,0,L|242:334,6,20.6250007867813,2|0|0|0|0|0|0,0:0|0:0|0:0|0:0|0:0|0:0|0:0,0:0:0:0:
284,252,79400,2,0,L|314:270,6,20.6250007867813,0|0|0|0|2|0|0,0:0|0:0|0:0|0:0|0:0|0:0|0:0,0:0:0:0:
354,196,79829,2,0,L|384:214,6,20.6250007867813,0|0|0|0|0|0|0,0:0|0:0|0:0|0:0|0:0|0:0|0:0,0:0:0:0:
413,126,80257,2,0,L|443:144,6,20.6250007867813,2|0|0|0|0|0|0,0:0|0:0|0:0|0:0|0:0|0:0|0:0,0:0:0:0:
212,316,80686,5,0,0:0:0:0:
176,112,81543,6,0,L|130:157,1,41.2500015735627,2|0,0:0|0:0,0:0:0:0:
96,191,81757,2,0,L|125:161,1,41.2500015735627,2|0,0:0|0:0,0:0:0:0:
176,225,81972,6,0,L|130:270,1,55,2|0,0:0|0:0,0:0:0:0:
74,326,82186,2,0,L|112:287,1,55,2|0,0:0|0:0,0:0:0:0:
233,171,82400,6,2,B|303:171|303:171|339:206|339:206|409:206,1,192.5,12|0,0:3|0:0,0:0:0:0:
374,22,83257,2,0,B|374:43|374:43|390:59|390:59|374:59|374:59|374:139,1,131.99999597168,4|0,0:0|0:0,0:0:0:0:
272,104,83686,2,2,B|112:104|112:104|80:136|80:136|112:168|112:168|176:168|176:168,1,302.5,8|0,0:0|0:0,0:0:0:0:
256,175,84972,2,0,B|280:207|280:207|256:239,1,74.2500002832413,4|0,0:0|0:0,0:0:0:0:
192,314,85186,2,0,L|192:240,1,74.2500002832413,0|0,0:0|0:0,0:0:0:0:
124,239,85400,2,0,L|124:318,1,79.7500024337769,2|0,0:0|0:0,0:0:0:0:
51,325,85615,2,0,L|51:240,1,85.2500006504059,2|0,0:0|0:0,0:0:0:0:
192,224,85829,6,2,B|192:128|192:128|256:128|256:128|256:176,1,192.5,8|0,0:0|0:0,0:0:0:0:
104,232,86686,2,0,B|111:267|111:267|103:307,1,76.9999976501466,4|0,0:0|0:0,0:0:0:0:
280,304,86900,2,0,B|272:264|272:264|279:228,1,76.9999976501466,0|0,0:0|0:0,0:0:0:0:
192,224,87115,2,2,B|192:152|192:152|224:128|224:128|256:152|256:152|312:152,1,192.5,8|0,0:0|0:0,0:0:0:0:
278,228,87972,2,0,L|342:228,1,55,2|2,0:0|0:0,0:0:0:0:
264,296,88400,2,0,L|201:296,1,60.5000018463135,6|0,0:0|0:0,0:0:0:0:
336,296,88615,2,0,L|396:296,1,60.5000018463135,2|0,0:0|0:0,0:0:0:0:
432,232,88829,2,0,L|432:168,1,60.5000018463135,10|0,0:0|0:0,0:0:0:0:
504,192,89043,2,0,L|504:128,1,60.5000018463135,2|0,0:0|0:0,0:0:0:0:
392,64,89257,6,2,B|360:64|360:64|336:120|336:120|360:184|360:184|400:184,1,192.5,8|0,0:0|0:0,0:0:0:0:
392,128,90115,2,0,B|348:124|348:124|332:128|332:128|328:128|328:128|308:132|308:132|268:123|268:123|296:168|296:168|296:192,1,197.99999395752,4|0,0:0|0:0,0:0:0:0:
200,88,90543,2,2,B|192:136|192:136|224:192|224:192|224:240|224:240|296:264|296:264|376:240|376:240,1,302.5,8|0,0:0|0:0,0:0:0:0:
432,200,91829,2,0,L|432:288,1,82.5000031471254,4|0,0:0|0:0,0:0:0:0:
304,344,92043,2,0,L|384:344,1,76.9999976501466,0|0,0:0|0:0,0:0:0:0:
232,344,92257,2,0,L|309:344,1,71.4999967269899,2|0,0:0|0:0,0:0:0:0:
166,344,92472,2,0,L|238:344,1,65.9999979858399,2|0,0:0|0:0,0:0:0:0:
80,344,92686,6,2,B|80:272|80:272|160:272,1,137.5,8|0,0:0|0:0,0:0:0:0:
152,200,93329,2,0,L|192:200,1,27.5,2|0,0:0|0:0,0:0:0:0:
216,272,93543,2,0,L|256:272,1,27.5,6|0,0:0|0:0,0:0:0:0:
272,200,93757,2,0,L|312:200,1,27.5,2|0,0:0|0:0,0:0:0:0:
320,272,93972,2,2,B|376:272|376:272|376:160|376:160|344:120|344:120|256:120,1,302.5,8|0,0:0|0:0,0:0:0:0:
192,144,95257,2,0,L|192:56,1,82.5000031471254,2|0,0:0|0:0,0:0:0:0:
248,200,95472,2,0,L|248:280,1,76.9999976501466,2|0,0:0|0:0,0:0:0:0:
112,176,95686,2,0,L|112:96,1,71.4999967269899,10|0,0:0|0:0,0:0:0:0:
168,232,95901,2,0,L|168:304,1,65.9999979858399,2|0,0:0|0:0,0:0:0:0:
240,368,96115,6,2,B|120:368|120:368|96:344|96:344|96:280,1,192.5,12|0,0:3|0:0,0:0:0:0:
312,364,96972,2,0,B|312:343|312:343|328:327|328:327|312:312|312:312|312:200,1,165.000006294251,4|0,0:0|0:0,0:0:0:0:
96,236,97400,2,2,B|216:236|216:236|240:260|240:260|240:368|240:368|176:368,1,302.5,8|0,0:0|0:0,0:0:0:0:
96,304,98686,2,0,L|176:304,1,76.9999976501466,4|0,0:0|0:0,0:0:0:0:
312,364,98900,2,0,L|312:284,1,71.4999967269899,0|0,0:0|0:0,0:0:0:0:
384,224,99115,2,0,L|384:296,1,65.9999979858399,2|0,0:0|0:0,0:0:0:0:
456,352,99329,2,0,L|456:272,1,60.5000018463135,2|0,0:0|0:0,0:0:0:0:
240,368,99543,6,2,B|240:304|240:304|240:256|240:256|280:224|280:224|328:224,1,192.5,8|0,0:0|0:0,0:0:0:0:
200,192,100400,2,0,B|248:152|248:152|272:152,1,82.5000031471254,4|0,0:0|0:0,0:0:0:0:
384,256,100615,2,0,B|336:296|336:296|312:296,1,82.5000031471254,0|0,0:0|0:0,0:0:0:0:
268,152,100829,2,2,B|268:184|268:184|428:184,1,192.5,8|0,0:0|0:0,0:0:0:0:
472,128,101686,2,0,B|496:152|496:152|496:184,1,55,2|2,0:0|0:0,0:0:0:0:
344,112,102115,2,2,B|408:112|408:112|408:56,1,115.49999647522,6|0,0:0|0:0,0:0:0:0:
272,146,102543,2,0,L|272:82,1,55,10|0,0:0|0:0,0:0:0:0:
200,152,102757,2,0,L|200:215,1,63.250001206398,2|0,0:0|0:0,0:0:0:0:
200,80,102972,6,2,B|160:80|160:80|128:112|128:112|128:224,1,192.5,8|0,0:0|0:0,0:0:0:0:
368,215,103829,2,0,B|200:215|200:215|200:153,1,230.99999295044,4|0,0:0|0:0,0:0:0:0:
56,160,104257,2,2,B|56:256|56:256|88:288|88:288|256:288,1,302.5,8|0,0:0|0:0,0:0:0:0:
128,219,105543,2,0,L|128:136,1,82.5000031471254,4|0,0:0|0:0,0:0:0:0:
200,64,105757,2,0,L|200:136,1,71.4999967269899,0|0,0:0|0:0,0:0:0:0:
272,208,105972,2,0,L|272:142,1,65.9999979858399,2|0,0:0|0:0,0:0:0:0:
344,80,106186,2,0,L|344:144,1,60.5000018463135,2|0,0:0|0:0,0:0:0:0:
128,219,106400,6,2,B|128:152|128:152|144:136|144:136|200:136,1,145.750000222397,8|0,0:0|0:0,0:0:0:0:
272,142,107043,2,0,B|272:192|272:192,1,29.1500000444794,2|0,0:0|0:0,0:0:0:0:
200,280,107257,2,2,B|200:300|200:184,1,82.5000031471254,0|0,0:0|0:0,0:0:0:0:
255,64,107472,2,0,L|191:64,1,55,2|0,0:0|0:0,0:0:0:0:
272,142,107686,2,2,B|336:142|336:142|336:208|336:208|368:232|368:232|408:232|408:232|408:136,1,302.5,0|0,0:0|0:0,0:0:0:0:
272,72,108972,2,0,L|368:72,1,76.9999976501466,6|0,0:0|0:0,0:0:0:0:
256,224,109186,2,0,L|176:224,1,71.4999967269899,2|0,0:0|0:0,0:0:0:0:
200,64,109400,2,0,L|200:144,1,65.9999979858399,2|0,0:0|0:0,0:0:0:0:
352,232,109614,2,0,L|352:160,1,65.9999979858399,2|0,0:0|0:0,0:0:0:0:
112,224,109829,6,2,B|112:296|112:296|176:296,1,123.750004720688,12|0,0:3|0:0,0:0:0:0:
40,296,110257,2,0,L|40:376,1,65.9999979858399,0|0,0:0|0:0,0:0:0:0:
184,232,110472,2,0,L|256:232,1,65.9999979858399,0|0,0:0|0:0,0:0:0:0:
40,224,110686,2,0,B|40:152|40:152|104:152,1,123.750004720688,4|0,0:0|0:0,0:0:0:0:
112,368,111115,2,0,L|192:368,1,65.9999979858399,0|0,0:0|0:0,0:0:0:0:
184,160,111329,2,0,L|264:160,1,65.9999979858399,0|0,0:0|0:0,0:0:0:0:
112,288,111543,6,0,L|112:208,1,65.9999979858399,8|0,0:0|0:0,0:0:0:0:
320,216,111757,2,0,L|320:136,1,65.9999979858399,0|0,0:0|0:0,0:0:0:0:
40,88,111972,2,0,B|40:158,1,65.9999979858399,0|0,0:0|0:0,0:0:0:0:
250,232,112186,2,0,L|250:166,1,65.9999979858399
320,150,112400,2,0,B|320:216|320:216|376:216|376:216|408:192|408:192|408:104,1,230.99999295044,4|0,0:0|0:0,0:0:0:0:
320,288,112829,2,0,B|400:288|400:288|480:224|480:224|480:160|480:160,1,230.99999295044,0|0,0:0|0:0,0:0:0:0:
250,232,113257,6,2,B|250:192|250:192|216:152|216:152|216:104,1,123.750004720688,8|0,0:0|0:0,0:0:0:0:
408,123,113686,2,0,L|456:72,1,65.9999979858399,0|0,0:0|0:0,0:0:0:0:
295,184,113900,2,0,L|249:232,1,65.9999979858399
376,208,114115,2,0,L|427:256,1,65.9999979858399,4|0,0:0|0:0,0:0:0:0:
316,95,114329,2,0,L|267:49,1,65.9999979858399,0|0,0:0|0:0,0:0:0:0:
408,123,114543,2,0,L|456:72,1,65.9999979858399,0|0,0:0|0:0,0:0:0:0:
295,183,114757,2,0,B|231:183|231:183|231:263,1,123.750004720688,8|0,0:0|0:0,0:0:0:0:
228,108,115186,6,0,L|300:108,1,65.9999979858399,0|0,0:0|0:0,0:0:0:0:
302,256,115400,2,0,L|368:256,1,65.9999979858399,0|0,0:0|0:0,0:0:0:0:
228,108,115615,2,0,L|162:108,1,65.9999979858399,0|0,0:0|0:0,0:0:0:0:
302,256,115829,2,0,L|302:321,1,65.9999979858399,4|0,0:0|0:0,0:0:0:0:
446,114,116043,2,0,L|446:48,1,65.9999979858399,0|0,0:0|0:0,0:0:0:0:
302,190,116257,2,0,L|302:255,1,65.9999979858399,0|0,0:0|0:0,0:0:0:0:
302,256,116686,6,2,B|254:256|254:256|230:272|230:272|230:328,1,123.750004720688,8|0,0:0|0:0,0:0:0:0:
200,200,117115,2,0,B|160:232|160:232|160:296,1,82.5000031471254,0|0,0:0|0:0,0:0:0:0:
296,328,117329,2,0,L|392:328,1,82.5000031471254,0|0,0:0|0:0,0:0:0:0:
160,336,117543,2,0,B|88:336|88:336|88:272,1,123.750004720688,4|0,0:0|0:0,0:0:0:0:
168,136,117972,2,0,L|232:136,1,55,0|0,0:0|0:0,0:0:0:0:
88,200,118186,2,0,L|24:200,1,55,0|0,0:0|0:0,0:0:0:0:
160,208,118400,6,0,B|160:264|160:264|192:264,1,76.9999976501466,8|0,0:0|0:0,0:0:0:0:
96,128,118615,2,0,L|96:64,1,55,0|0,0:0|0:0,0:0:0:0:
272,264,118829,2,0,B|272:216|272:216|296:200,1,76.9999976501466,0|0,0:0|0:0,0:0:0:0:
220,136,119043,2,0,L|163:136,1,51.1500015999985
368,262,119257,2,0,B|320:262|320:262|296:246|296:246|296:190,1,123.750004720688,4|0,0:0|0:0,0:0:0:0:
169,136,119686,2,0,B|220:136|220:136|220:208,1,123.750004720688
152,344,120115,6,2,B|176:344|176:344|192:328|192:328|192:296|192:296|208:280|208:280|256:280,1,123.750004720688,8|0,0:0|0:0,0:0:0:0:
220,208,120543,2,0,L|100:208,1,76.9999976501466,0|0,0:0|0:0,0:0:0:0:
64,168,120757,2,0,B|64:104|64:104|104:104,1,76.9999976501466,0|0,0:0|0:0,0:0:0:0:
64,248,120972,2,0,B|64:296|64:296|104:320,1,82.5,4|0,0:0|0:0,0:0:0:0:
203,126,121400,2,0,B|203:174|203:174|235:198,1,76.9999976501466,0|0,0:0|0:0,0:0:0:0:
131,152,121615,2,0,B|131:88|131:88|107:104|107:104|75:104,1,123.750004720688,8|0,0:0|0:0,0:0:0:0:
272,136,122043,6,0,L|352:136,1,76.9999976501466,0|0,0:0|0:0,0:0:0:0:
200,48,122257,2,0,L|200:128,1,76.9999976501466,0|0,0:0|0:0,0:0:0:0:
56,32,122472,2,0,B|80:32|80:32|104:16|104:16|128:16,1,76.9999976501466,0|0,0:0|0:0,0:0:0:0:
200,202,122686,6,0,L|200:40,1,153.450004799996,4|0,0:0|0:0,0:0:0:0:
128,128,123115,2,0,L|128:216,1,76.9999976501466,0|0,0:0|0:0,0:0:0:0:
128,205,123543,6,14,B|128:256|128:256|64:256|64:256|64:224,1,123.750004720688,12|0,0:3|0:0,0:0:0:0:
64,328,123972,2,0,L|152:328,1,76.9999976501466,0|0,0:0|0:0,0:0:0:0:
200,184,124186,2,0,L|200:272,1,76.9999976501466,0|0,0:0|0:0,0:0:0:0:
64,176,124400,2,0,B|64:128|64:128|96:136|96:136|160:136,1,123.750004720688,4|0,0:0|0:0,0:0:0:0:
280,304,124829,2,0,L|280:224,1,76.9999976501466,0|0,0:0|0:0,0:0:0:0:
131,64,125043,2,0,L|208:64,1,76.9999976501466,0|0,0:0|0:0,0:0:0:0:
64,328,125257,6,0,L|64:251,1,76.9999976501466,8|0,0:0|0:0,0:0:0:0:
288,144,125472,2,0,L|208:144,1,76.9999976501466,0|0,0:0|0:0,0:0:0:0:
164,200,125686,2,0,B|188:216|188:216|214:216,1,55
64,174,125900,2,0,L|64:286,1,76.9999976501466,0|0,0:0|0:0,0:0:0:0:
32,112,126115,2,0,B|32:88|32:88|48:72|48:72|80:72|80:72|96:88|96:88|96:112|96:112,1,123.750004720688,4|0,0:0|0:0,0:0:0:0:
8,0,126543,2,0,B|112:0|112:0|144:32,1,123.750004720688,0|0,0:0|0:0,0:0:0:0:
64,174,126972,6,2,B|64:230|64:230|88:230|88:230|112:222|112:222|136:222,1,123.750004720688,8|0,0:0|0:0,0:0:0:0:
192,80,127400,2,0,L|192:168,1,76.9999976501466,0|0,0:0|0:0,0:0:0:0:
320,216,127615,2,0,L|232:216,1,76.9999976501466,0|0,0:0|0:0,0:0:0:0:
216,56,127829,2,0,L|216:144,1,76.9999976501466,4|0,0:0|0:0,0:0:0:0:
344,192,128044,2,0,L|256:192,1,76.9999976501466,0|0,0:0|0:0,0:0:0:0:
240,32,128257,2,0,L|240:120,1,76.9999976501466,0|0,0:0|0:0,0:0:0:0:
368,168,128472,2,0,B|280:168|280:168|280:224,1,123.750004720688,8|0,0:0|0:0,0:0:0:0:
152,168,128900,6,0,L|152:256,1,76.9999976501466,0|0,0:0|0:0,0:0:0:0:
200,304,129115,2,0,L|200:227,1,76.9999976501466,0|0,0:0|0:0,0:0:0:0:
120,192,129329,2,0,L|120:280,1,76.9999976501466,0|0,0:0|0:0,0:0:0:0:
168,328,129544,2,0,L|168:251,1,76.9999976501466,4|0,0:0|0:0,0:0:0:0:
88,216,129757,2,0,L|88:304,1,76.9999976501466,0|0,0:0|0:0,0:0:0:0:
136,352,129972,2,0,L|136:275,1,76.9999976501466,0|0,0:0|0:0,0:0:0:0:
136,275,130400,6,2,B|64:275|64:275|48:296|48:296|48:344,1,123.750004720688,8|0,0:0|0:0,0:0:0:0:
28,204,130829,2,0,B|84:204|84:204|100:188,1,76.9999976501466,0|0,0:0|0:0,0:0:0:0:
168,128,131043,2,0,L|168:224,1,76.9999976501466,0|0,0:0|0:0,0:0:0:0:
96,120,131257,2,0,B|96:72|96:72|112:56|112:56|168:56,1,123.750004720688,4|0,0:0|0:0,0:0:0:0:
240,128,131686,2,0,L|240:216,1,76.9999976501466,0|0,0:0|0:0,0:0:0:0:
312,152,131900,2,0,L|312:75,1,76.9999976501466,0|0,0:0|0:0,0:0:0:0:
384,136,132115,6,0,B|384:184|384:184|352:216,1,76.9999976501466,8|0,0:0|0:0,0:0:0:0:
456,152,132329,2,0,B|456:104|456:104|432:80,1,76.9999976501466,0|0,0:0|0:0,0:0:0:0:
432,240,132543,2,0,B|400:272|400:272|360:272,1,76.9999976501466,0|0,0:0|0:0,0:0:0:0:
235,152,132757,2,0,L|323:152,1,76.9999976501466,0|0,0:0|0:0,0:0:0:0:
240,72,132972,2,0,B|184:72|184:72|160:112|160:112|160:136,1,123.750004720688,4|0,0:0|0:0,0:0:0:0:
62,192,133400,2,0,L|104:192,1,41.2500015735627,2|0,0:0|0:0,0:0:0:0:
73,264,133615,2,0,L|31:264,1,41.2500015735627,2|0,0:0|0:0,0:0:0:0:
16,352,133829,6,2,B|24:336|24:336|136:336|136:336|160:312|160:312|160:248,1,206.250007867813,8|0,0:0|0:0,0:0:0:0:
32,264,134472,2,2,B|32:200|32:200|72:184|72:184|120:200|120:200|184:200,1,206.250007867813,0|0,0:0|0:0,0:0:0:0:
24,128,135115,2,2,B|64:112|64:112|80:112|80:112|128:128|128:128|208:128|208:128|232:152|232:152|312:152|312:152,1,302.5,8|0,0:0|0:0,0:0:0:0:
272,80,136400,1,4,0:0:0:0:
72,184,136615,1,2,0:0:0:0:
196,20,136829,1,6,0:0:0:0:
168,200,137043,1,2,0:0:0:0:
88,28,137257,1,4,0:3:0:0:
115,74,150972,6,0,P|177:77|228:66,2,88,12|0|0,0:3|0:0|0:3,0:0:0:0:
32,105,151615,1,0,0:0:0:0:
100,159,151829,2,0,L|87:255,1,88,4|0,0:0|0:0,0:0:0:0:
154,304,152257,2,0,P|158:244|167:208,1,88,2|0,0:0|0:0,0:0:0:0:
204,138,152686,5,8,0:0:0:0:
204,138,152900,1,0,0:0:0:0:
268,197,153115,2,0,P|320:196|362:180,1,88,0|0,0:0|0:0,0:0:0:0:
410,117,153543,1,4,0:0:0:0:
410,117,153757,1,0,0:0:0:0:
438,200,153972,1,2,0:0:0:0:
359,264,154186,1,2,0:0:0:0:
454,298,154400,6,0,P|417:345|373:358,1,88,10|0,0:0|0:0,0:0:0:0:
304,346,154829,1,0,0:0:0:0:
304,346,155043,1,0,0:0:0:0:
239,286,155257,2,0,L|239:178,1,88,4|0,0:0|0:0,0:0:0:0:
150,197,155686,2,0,P|148:272|135:315,1,88,10|0,0:0|0:0,0:0:0:0:
76,339,156115,5,0,0:0:0:0:
76,339,156329,1,0,0:0:0:0:
69,251,156543,2,0,P|71:176|84:133,1,88,2|2,0:0|0:0,0:0:0:0:
117,87,156972,1,6,0:0:0:0:
204,37,157186,1,2,0:0:0:0:
204,138,157400,1,2,0:0:0:0:
117,87,157615,1,2,0:0:0:0:
204,37,157829,6,0,P|256:48|288:80,2,88,10|0|0,0:0|0:0|0:0,0:0:0:0:
204,138,158472,1,0,0:0:0:0:
234,234,158686,2,0,L|310:174,1,88,4|0,0:0|0:0,0:0:0:0:
365,248,159114,2,0,P|315:281|288:307,1,88,2|0,0:0|0:0,0:0:0:0:
373,341,159543,5,8,0:0:0:0:
373,341,159757,1,0,0:0:0:0:
444,288,159972,2,0,P|452:236|443:192,1,88,0|0,0:0|0:0,0:0:0:0:
392,132,160400,1,4,0:0:0:0:
392,132,160614,1,0,0:0:0:0:
478,115,160829,1,2,0:0:0:0:
494,14,161043,1,2,0:0:0:0:
410,49,161257,6,0,P|387:104|398:149,1,88,10|0,0:0|0:0,0:0:0:0:
445,201,161686,1,0,0:0:0:0:
445,201,161900,1,2,0:0:0:0:
361,227,162114,2,0,L|267:281,1,88,4|0,0:0|0:0,0:0:0:0:
231,200,162543,2,0,P|294:160|325:128,1,88,10|0,0:0|0:0,0:0:0:0:
230,104,162972,5,0,0:0:0:0:
230,104,163186,1,0,0:0:0:0:
220,16,163400,2,0,P|156:55|125:87,1,88,0|0,0:0|0:0,0:0:0:0:
80,128,163829,1,4,0:0:0:0:
80,128,164686,6,0,P|89:204|173:266,1,176,4|0,0:3|0:0,0:0:0:0:
232,212,165329,1,0,0:0:0:0:
309,205,165543,2,2,B|330:269|330:269|374:240|439:238,1,176,0|2,0:0|0:0,0:0:0:0:
400,320,166186,1,0,0:0:0:0:
318,351,166400,6,2,B|291:329|253:304|253:304|259:254|229:207,1,176,0|0,0:0|0:0,0:0:0:0:
231,124,167043,1,0,0:0:0:0:
146,146,167257,2,2,P|89:146|61:127,1,88,0|0,0:0|0:0,0:0:0:0:
115,61,167686,1,2,0:0:0:0:
115,61,167900,1,2,0:0:0:0:
203,71,168115,6,2,B|261:83|319:77|319:77|304:115|289:139,1,176,2|0,0:0|0:0,0:0:0:0:
209,155,168757,1,0,0:0:0:0:
278,209,168972,2,0,B|330:211|359:177|359:177|395:88,1,176,0|2,0:0|0:0,0:0:0:0:
448,30,169615,1,0,0:0:0:0:
343,24,169829,6,0,B|324:74|324:74|258:83|184:67,1,176,0|2,0:0|0:0,0:0:0:0:
117,46,170472,1,2,0:0:0:0:
107,133,170686,2,0,P|101:178|111:226,1,88,0|2,0:0|0:0,0:0:0:0:
187,259,171115,2,0,P|193:214|183:166,1,88,2|2,0:0|0:0,0:0:0:0:
217,90,171543,6,0,B|262:139|262:139|265:195|306:243,1,176,2|0,0:0|0:0,0:0:0:0:
350,164,172186,1,0,0:0:0:0:
343,76,172400,2,2,P|391:82|426:203,1,176,0|2,0:0|0:0,0:0:0:0:
376,240,173043,1,0,0:0:0:0:
350,164,173257,6,2,B|422:105|422:105|382:63|329:79,1,180.400002752686,0|0,0:0|0:0,0:0:0:0:
270,26,173900,1,0,0:0:0:0:
274,114,174115,2,2,P|273:150|244:198,1,88,0|0,0:0|0:0,0:0:0:0:
162,216,174543,2,0,P|163:180|192:132,1,88,0|2,0:0|0:0,0:0:0:0:
99,132,174972,6,2,B|70:195|92:263|92:263|134:285,1,176,2|0,0:0|0:0,0:0:0:0:
216,287,175615,1,2,0:0:0:0:
162,216,175829,2,0,B|170:164|170:164|211:201|286:212,1,176,0|2,0:0|0:0,0:0:0:0:
369,197,176472,1,0,0:0:0:0:
298,144,176686,6,0,B|240:134|190:88|190:88|241:60,1,176,0|0,0:0|0:0,0:0:0:0:
323,52,177329,1,0,0:0:0:0:
408,30,177543,2,0,P|453:66|470:94,1,88,2|2,0:0|0:0,0:0:0:0:
456,179,177972,2,0,P|410:142|393:114,1,88,2|2,0:0|0:0,0:0:0:0:
359,198,178400,6,0,B|381:258|364:319|364:319|314:289,1,176,2|0,0:0|0:0,0:0:0:0:
278,213,179043,1,0,0:0:0:0:
239,292,179257,2,2,B|199:260|191:220|191:220|183:260|143:292,1,176,0|2,0:0|0:0,0:0:0:0:
107,210,179900,1,0,0:0:0:0:
170,150,180115,6,2,B|249:150|249:150|244:202|190:221,1,176,0|0,0:0|0:0,0:0:0:0:
107,210,180757,1,0,0:0:0:0:
85,124,180972,2,2,P|102:86|145:50,1,88,0|0,0:0|0:0,0:0:0:0:
220,80,181400,2,2,P|203:118|160:154,1,88,2|2,0:0|0:0,0:0:0:0:
191,220,181829,6,2,B|269:205|269:205|253:258|275:302|275:302,1,176,2|0,0:0|0:0,0:0:0:0:
345,247,182472,1,0,0:0:0:0:
342,159,182686,2,2,B|318:104|366:52|366:52|391:111,1,176,0|2,0:0|0:0,0:0:0:0:
419,189,183329,1,0,0:0:0:0:
407,261,183543,6,2,B|346:330|346:330|348:279|344:242,1,176,0|2,0:0|0:0,0:0:0:0:
273,299,184186,1,2,0:0:0:0:
253,213,184400,2,2,P|262:180|251:120,1,88,0|2,0:0|0:0,0:0:0:0:
177,84,184829,2,0,P|168:117|179:177,1,88,2|2,0:0|0:0,0:0:0:0:
185,256,185257,6,0,B|102:209|102:209|107:163|90:118,1,176,2|0,0:0|0:0,0:0:0:0:
25,185,185900,1,0,0:0:0:0:
40,81,186115,2,2,B|40:59|40:59|99:22|99:22|150:59|150:59|150:81,1,176,0|2,0:0|0:0,0:0:0:0:
186,164,186757,1,0,0:0:0:0:
228,86,186972,6,2,B|296:73|296:73|347:99|402:87,1,176,0|0,0:0|0:0,0:0:0:0:
359,8,187615,1,0,0:0:0:0:
446,18,187829,2,2,P|476:54|484:95,1,88,0|0,0:0|0:0,0:0:0:0:
437,162,188257,2,2,P|407:126|399:85,1,88,0|2,0:0|0:0,0:0:0:0:
310,88,188686,6,2,B|324:181|324:181|403:245,1,176,2|0,0:0|0:0,0:0:0:0:
468,268,189329,1,2,0:0:0:0:
404,328,189543,2,2,B|390:235|390:235|311:171,1,176,0|2,0:0|0:0,0:0:0:0:
315,271,190186,1,0,0:0:0:0:
326,183,190400,6,2,B|291:95|291:95|328:0,1,176,0|0,0:0|0:0,0:0:0:0:
233,26,191043,1,0,0:0:0:0:
211,111,191257,2,0,P|207:169|189:214,1,88,2|2,0:0|0:0,0:0:0:0:
117,235,191686,2,0,P|121:177|139:132,1,88,2|2,0:0|0:0,0:0:0:0:
345,179,192115,6,0,P|317:145|298:106,1,88,4|0,0:3|0:0,0:0:0:0:
258,183,192543,2,0,P|273:142|298:106,1,88,8|0,0:0|0:0,0:0:0:0:
210,110,192972,2,0,P|254:103|298:106,1,88,8|0,0:0|0:0,0:0:0:0:
250,32,193400,2,0,P|278:66|298:106,1,88,10|0,0:0|0:0,0:0:0:0:
337,27,193829,2,2,P|322:68|298:104,1,88,8|0,0:0|0:0,0:0:0:0:
385,101,194257,2,0,P|341:108|298:106,1,88,8|0,0:0|0:0,0:0:0:0:
345,179,194686,2,0,P|317:145|298:106,1,88,8|0,0:0|0:0,0:0:0:0:
298,106,195115,1,10,0:0:0:0:
298,106,195329,1,2,0:0:0:0:
184,301,195543,6,0,P|156:266|136:227,1,88,10|0,0:0|0:0,0:0:0:0:
97,305,195971,2,0,P|112:264|136:227,1,88,8|0,0:0|0:0,0:0:0:0:
49,232,196400,2,0,P|92:225|136:227,1,88,8|0,0:0|0:0,0:0:0:0:
89,154,196828,2,0,P|116:188|136:227,1,88,10|0,0:0|0:0,0:0:0:0:
177,150,197257,2,2,P|161:190|137:227,1,88,8|0,0:0|0:0,0:0:0:0:
224,223,197685,2,0,P|180:229|136:227,1,88,10|2,0:0|0:0,0:0:0:0:
184,301,198114,2,0,P|156:266|136:227,1,88,8|2,0:0|0:0,0:0:0:0:
137,228,198543,1,10,0:0:0:0:
137,228,198757,1,2,0:0:0:0:
419,320,198972,6,0,P|391:285|371:246,1,88,10|0,0:0|0:0,0:0:0:0:
332,324,199400,2,0,P|347:283|371:246,1,88,8|0,0:0|0:0,0:0:0:0:
284,251,199829,2,2,P|327:244|371:246,1,88,8|0,0:0|0:0,0:0:0:0:
324,173,200257,2,0,P|351:207|371:246,1,88,10|0,0:0|0:0,0:0:0:0:
412,169,200686,2,0,P|396:209|372:246,1,88,8|0,0:0|0:0,0:0:0:0:
459,242,201114,2,0,P|415:248|371:246,1,88,8|0,0:0|0:0,0:0:0:0:
419,320,201543,2,0,P|391:285|371:246,1,88,8|0,0:0|0:0,0:0:0:0:
372,247,201972,1,10,0:0:0:0:
372,247,202186,1,2,0:0:0:0:
206,164,202400,6,0,P|178:129|158:90,1,88,10|0,0:0|0:0,0:0:0:0:
119,168,202828,2,0,P|134:127|158:90,1,88,8|2,0:0|0:0,0:0:0:0:
71,95,203257,2,2,P|114:88|158:90,1,88,8|0,0:0|0:0,0:0:0:0:
111,17,203685,2,0,P|138:51|158:90,1,88,10|0,0:0|0:0,0:0:0:0:
199,13,204114,2,0,P|183:53|159:90,1,88,8|0,0:0|0:0,0:0:0:0:
246,86,204542,2,0,P|202:92|158:90,1,88,8|0,0:0|0:0,0:0:0:0:
206,164,204971,2,0,P|178:129|158:90,1,88,10|2,0:0|0:0,0:0:0:0:
159,91,205400,1,10,0:0:0:0:
159,91,205614,1,2,0:0:0:0:
296,48,205829,6,0,L|352:56,1,44,10|0,0:0|0:0,0:0:0:0:
408,65,206043,2,0,L|364:58,1,44,8|0,0:0|0:0,0:0:0:0:
302,29,206257,2,0,L|352:56,1,44,8|0,0:0|0:0,0:0:0:0:
401,83,206471,2,0,L|362:62,1,44,8|0,0:0|0:0,0:0:0:0:
314,13,206686,2,0,L|352:56,1,44,8|0,0:0|0:0,0:0:0:0:
389,99,206900,2,0,L|360:66,1,44,8|0,0:0|0:0,0:0:0:0:
331,3,207114,2,0,L|352:56,1,44,10|0,0:0|0:0,0:0:0:0:
372,109,207328,2,0,L|356:68,1,44,8|0,0:0|0:0,0:0:0:0:
273,64,207543,6,0,L|235:111,1,44,8|0,0:0|0:0,0:0:0:0:
197,159,207757,2,0,L|226:122,1,44,8|0,0:0|0:0,0:0:0:0:
288,80,207972,2,0,L|235:111,1,44,8|0,0:0|0:0,0:0:0:0:
183,143,208185,2,0,L|223:117,1,44,8|0,0:0|0:0,0:0:0:0:
295,99,208400,2,0,L|235:111,1,44,8|0,0:0|0:0,0:0:0:0:
176,124,208614,2,0,L|222:113,1,44,8|0,0:0|0:0,0:0:0:0:
295,121,208828,2,0,L|235:112,1,44,10|0,0:0|0:0,0:0:0:0:
175,102,209042,2,0,L|221:109,1,44,10|0,0:0|0:0,0:0:0:0:
199,197,209257,6,0,L|223:257,1,44,10|0,0:0|0:0,0:0:0:0:
247,318,209471,2,0,L|228:271,1,44,8|0,0:0|0:0,0:0:0:0:
222,192,209685,2,0,L|223:256,1,44,8|0,0:0|0:0,0:0:0:0:
224,322,209899,2,0,L|222:272,1,44,8|0,0:0|0:0,0:0:0:0:
244,195,210114,2,0,L|223:256,1,44,8|0,0:0|0:0,0:0:0:0:
203,319,210328,2,0,L|218:271,1,44,8|0,0:0|0:0,0:0:0:0:
264,206,210542,2,0,L|223:257,1,44,10|0,0:0|0:0,0:0:0:0:
182,309,210757,2,0,L|214:267,1,44,8|0,0:0|0:0,0:0:0:0:
143,194,210972,6,0,L|116:129,1,44,8|0,0:0|0:0,0:0:0:0:
91,65,211186,2,0,L|111:114,1,44,8|0,0:0|0:0,0:0:0:0:
118,200,211400,2,0,L|116:130,1,44,10|0,0:0|0:0,0:0:0:0:
116,60,211614,2,0,L|117:113,1,44,10|0,0:0|0:0,0:0:0:0:
95,196,211829,2,0,L|116:130,1,44,8|0,0:0|0:0,0:0:0:0:
139,64,212043,2,0,L|122:114,1,44,10|0,0:0|0:0,0:0:0:0:
74,184,212257,2,0,L|116:129,1,44,10|0,0:0|0:0,0:0:0:0:
161,75,212471,2,0,L|127:117,1,44,10|0,0:0|0:0,0:0:0:0:
232,208,212686,5,10,0:0:0:0:
275,237,212793,1,8,0:0:0:0:
327,243,212900,1,8,0:0:0:0:
375,223,213007,1,8,0:0:0:0:
410,184,213114,1,8,0:0:0:0:
421,133,213221,1,8,0:0:0:0:
412,80,213329,1,8,0:0:0:0:
376,44,213436,1,8,0:0:0:0:
336,16,213543,5,8,0:0:0:0:
355,68,213650,1,8,0:0:0:0:
353,127,213757,1,8,0:0:0:0:
329,178,213864,1,8,0:0:0:0:
285,216,213971,1,10,0:0:0:0:
230,233,214078,1,8,0:0:0:0:
173,227,214185,1,8,0:0:0:0:
120,200,214293,1,8,0:0:0:0:
79,159,214400,5,8,0:0:0:0:
124,120,214507,1,8,0:0:0:0:
180,102,214614,1,8,0:0:0:0:
238,108,214721,1,8,0:0:0:0:
291,134,214828,1,8,0:0:0:0:
331,179,214935,1,8,0:0:0:0:
350,235,215042,1,8,0:0:0:0:
346,294,215150,1,8,0:0:0:0:
322,347,215257,5,8,0:0:0:0:
283,301,215364,1,8,0:0:0:0:
264,246,215471,1,8,0:0:0:0:
268,187,215578,1,8,0:0:0:0:
291,133,215685,1,10,0:0:0:0:
334,92,215792,1,8,0:0:0:0:
389,70,215899,1,8,0:0:0:0:
448,68,216007,1,10,0:0:0:0:
500,93,216115,6,0,L|518:128,6,22,2|0|0|0|0|0|0,0:0|0:0|0:0|0:0|0:0|0:0|0:0,0:0:0:0:
465,176,216543,2,0,L|443:211,6,22,0|0|0|0|2|0|0,0:0|0:0|0:0|0:0|0:0|0:0|0:0,0:0:0:0:
377,201,216972,2,0,L|336:199,6,22,0|0|0|0|0|0|0,0:0|0:0|0:0|0:0|0:0|0:0|0:0,0:0:0:0:
268,187,217400,2,0,L|248:150,6,22,2|0|0|0|0|0|0,0:0|0:0|0:0|0:0|0:0|0:0|0:0,0:0:0:0:
500,94,217829,5,8,0:0:0:0:
182,66,218686,6,0,B|200:72|200:72|224:64,1,44,2|0,0:0|0:0,0:0:0:0:
232,168,218900,2,0,B|237:143|237:143|250:130,1,44,2|0,0:0|0:0,0:0:0:0:
144,128,219115,2,0,B|162:144|162:144|167:169,1,44,2|0,0:0|0:0,0:0:0:0:
182,66,219329,2,0,B|200:72|200:72|224:64,1,44,2|0,0:0|0:0,0:0:0:0:
312,16,219543,6,2,B|312:76|312:76|332:104|332:104|332:268|332:268|360:244|360:244|360:112,1,374.000007133484,12|2,0:3|0:3,0:3:0:0:
512,320,220186,6,2,B|384:320|384:320|360:340|360:340|312:340|312:340|276:320|276:320|196:320|196:320|216:340|216:340|236:340,1,374.000007133484,12|2,0:3|0:3,0:3:0:0:
332,264,220829,6,2,B|332:176|332:176|308:152|308:152|308:12|308:12|344:48|344:48|344:68|344:68|360:84|360:84|436:84|436:84|416:120|416:120|376:120|376:120|404:144|404:144|472:144|472:144|484:160|484:160|484:288,1,748.000014266968,14|2,0:3|0:3,0:3:0:0:
484,270,222115,6,0,B|484:156,1,110
332,264,222329,2,0,L|260:264,1,44
216,192,222543,2,0,L|272:192,1,49.4999984893799,0|0,0:0|0:0,0:0:0:0:
352,120,222757,2,0,L|296:120,1,55,0|0,0:0|0:0,0:0:0:0:
216,272,222972,6,2,B|216:336|216:336|416:336|416:336|416:304|416:304,1,288.750011014939,8|0,0:0|0:0,0:0:0:0:
208,200,223829,2,0,B|272:200|272:200|272:256,1,90.7500008654595,4|0,0:0|0:0,0:0:0:0:
136,296,224043,2,0,B|136:248|136:248|144:240|144:240|136:240|136:240|136:208,1,90.7500008654595,0|0,0:0|0:0,0:0:0:0:
352,264,224257,2,2,B|352:160|352:160|448:160|448:160|424:192|424:192|424:240|424:240|480:240|480:240|480:272,1,371.250014162064,8|0,0:0|0:0,0:0:0:0:
280,136,225329,2,0,L|280:216,1,65.9999979858399,2|0,0:0|0:0,0:0:0:0:
344,88,225543,2,0,B|368:88|368:88|368:80|368:80|376:88|376:88|408:88,1,60.5000018463135,6|0,0:0|0:0,0:0:0:0:
280,56,225757,2,0,L|280:-8,1,55,2|0,0:0|0:0,0:0:0:0:
216,88,225972,2,0,L|144:88,1,49.4999984893799,10|0,0:0|0:0,0:0:0:0:
280,136,226186,2,0,B|280:200,1,44,2|0,0:0|0:0,0:0:0:0:
208,16,226400,6,2,B|96:16|96:16|96:88|96:88|72:112,1,206.250007867813,8|0,0:0|0:0,0:0:0:0:
168,88,227043,2,0,L|168:144,1,41.2500015735627,0|0,0:0|0:0,0:0:0:0:
40,184,227257,2,0,B|112:184|112:184|152:208|152:208|256:208,1,206.25,6|0,0:0|0:0,0:0:0:0:
56,256,227686,2,2,B|56:328|56:328|176:328|176:328|200:304|200:304|200:280|200:280|264:280|264:280|264:352|264:352|360:352,1,453.75001730919,8|0,0:0|0:0,0:0:0:0:
128,256,228972,2,0,L|128:176,1,65.9999979858399,4|0,0:0|0:0,0:0:0:0:
8,184,229186,2,0,B|24:184|24:184|24:176|24:176|32:184|32:184|64:184,1,60.5000018463135,2|0,0:0|0:0,0:0:0:0:
160,120,229400,2,0,L|96:120,1,55,2|0,0:0|0:0,0:0:0:0:
232,96,229615,2,0,L|232:160,1,49.4999984893799,2|0,0:0|0:0,0:0:0:0:
32,104,229829,6,2,B|32:48|32:48|176:48|176:48|208:24|208:24|264:24,1,288.750011014939,8|0,0:0|0:0,0:0:0:0:
32,192,230686,2,0,L|104:192,1,65.9999979858399,4|0,0:0|0:0,0:0:0:0:
240,96,230900,2,0,B|240:136|240:136|248:136|248:136|240:144|240:144|240:156,1,71.4999967269899,0|0,0:0|0:0,0:0:0:0:
104,120,231115,2,2,B|168:120|168:120|169:243|169:243|200:224|200:224|288:224|288:224|320:192|320:192|320:80,1,453.75001730919,8|0,0:0|0:0,0:0:0:0:
344,272,232400,2,2,B|328:296|328:296|224:296,1,123.750004720688,4|0,0:0|0:0,0:0:0:0:
248,64,232829,2,0,L|248:160,1,82.5,8|0,0:0|0:0,0:0:0:0:
96,200,233257,6,2,B|96:280|96:280|128:312|128:312|152:312|152:312|160:320|160:320|160:344|160:344|184:368|184:368|256:368,1,288.750011014939,12|0,0:3|0:0,0:0:0:0:
72,360,234115,2,0,B|24:320|24:320|24:128,1,247.500009441376,4|0,0:0|0:0,0:0:0:0:
168,240,234543,2,2,B|192:240|192:240|232:288|232:288|312:288|312:288|328:304|328:304|328:360|328:360|400:360|400:360|400:272|400:272|360:224,1,453.75001730919,8|0,0:0|0:0,0:0:0:0:
264,208,235829,2,0,B|296:208|296:208|328:168,1,82.5000031471254,4|0,0:0|0:0,0:0:0:0:
184,168,236043,2,0,B|144:168|144:168|112:192,1,76.9999976501466,0|0,0:0|0:0,0:0:0:0:
344,88,236257,2,0,L|400:136,1,71.4999967269899,2|0,0:0|0:0,0:0:0:0:
116,96,236472,2,0,L|64:136,1,65.9999979858399,2|0,0:0|0:0,0:0:0:0:
256,120,236686,6,2,B|256:92|256:92|244:80|244:80|208:80|208:80|192:64|192:64|192:16|192:16|208:0|208:0|276:0|276:0|288:8|288:8|288:44,1,288.750011014939,8|0,0:0|0:0,0:0:0:0:
364,24,237543,2,0,B|460:24,1,96.2500009179115,4|0,0:0|0:0,0:0:0:0:
400,104,237757,2,0,B|368:104|368:104|368:112|368:112|360:104|360:104|328:104,1,82.5000031471254,0|0,0:0|0:0,0:0:0:0:
144,192,237972,2,2,B|144:152|144:152|136:144|136:144|40:144|40:144|40:24|40:24|64:0|64:0,1,288.750011014939,8|0,0:0|0:0,0:0:0:0:
120,64,238829,2,2,B|168:64|168:64|208:104,1,93.500001783371
252,40,239257,2,0,B|340:40|340:40|316:56,1,110,6|2,0:0|0:0,0:0:0:0:
348,120,239686,2,0,B|260:120|260:120|284:104,1,110,10|2,0:0|0:0,0:0:0:0:
280,192,240115,6,2,B|344:192|344:192|400:224|400:224|488:224|488:224|448:288|448:288,1,288.750011014939,8|0,0:0|0:0,0:0:0:0:
496,152,240972,2,0,B|424:152|424:152|368:120|368:120|248:120|248:120|208:160,1,288.750002753735,4|0,0:0|0:0,0:0:0:0:
376,296,241400,2,2,B|320:264|320:264|264:264|264:264|208:240|208:240|208:208|208:208|152:208|152:208|152:288|152:288|256:336,1,453.75001730919,8|0,0:0|0:0,0:0:0:0:
280,192,242686,2,0,L|280:104,1,76.9999976501466,4|0,0:0|0:0,0:0:0:0:
376,208,242900,2,0,B|416:232|416:232|448:232,1,71.4999967269899,0|0,0:0|0:0,0:0:0:0:
208,136,243115,2,0,L|128:136,1,65.9999979858399,2|0,0:0|0:0,0:0:0:0:
352,136,243329,2,0,L|352:48,1,60.5000018463135,2|0,0:0|0:0,0:0:0:0:
280,192,243543,6,2,B|280:264|280:264|328:264|328:264|392:304|392:304|408:304|408:304,1,206.250007867813,8|0,0:0|0:0,0:0:0:0:
208,272,244186,2,2,B|208:216,1,46.7500008916855,0|0,0:0|0:0,0:0:0:0:
352,200,244400,2,2,B|384:200|384:200|384:192|384:192|392:200|392:200|440:200,1,96.2500009179115,4|0,0:0|0:0,0:0:0:0:
304,112,244615,2,2,B|288:112|288:112|280:120|280:120|272:112|272:112|208:112,1,96.2500009179115,0|0,0:0|0:0,0:0:0:0:
504,240,244829,2,2,B|504:104|504:104|464:64|464:64|448:64|448:64|448:124|448:124|380:124|380:124|380:32|380:32|408:8|408:8,1,453.75001730919,8|0,0:0|0:0,0:0:0:0:
352,200,246115,2,0,B|392:200|392:200|416:224,1,68.75,6|0,0:0|0:0,0:0:0:0:
248,200,246329,2,0,B|208:200|208:200|168:168,1,82.5000031471254,2|0,0:0|0:0,0:0:0:0:
320,272,246543,2,0,B|360:272|360:272|408:312,1,96.2500009179115,2|0,0:0|0:0,0:0:0:0:
272,128,246757,2,0,B|232:128|232:128|168:72,1,110,2|0,0:0|0:0,0:0:0:0:
174,288,246972,6,0,B|230:288|230:288|270:272|270:272|334:272,1,148.49999546814,4|0,0:3|0:0,0:0:0:0:
104,344,247400,2,0,L|104:240,1,88,0|0,0:0|0:0,0:0:0:0:
304,200,247615,2,0,B|256:200|256:200|216:216,1,88,0|0,0:0|0:0,0:0:0:0:
104,168,247829,2,0,B|152:168|152:168|240:128|240:128|312:128,1,214.49999018097,4|0,0:0|0:0,0:0:0:0:
32,208,248257,2,0,L|32:96,1,88,0|0,0:0|0:0,0:0:0:0:
232,56,248472,2,0,L|344:56,1,88,0|0,0:0|0:0,0:0:0:0:
120,0,248686,6,0,L|120:96,1,93.500001783371,8|0,0:0|0:0,0:0:0:0:
309,128,248900,2,0,B|240:128|240:128|192:150,1,88,0|0,0:0|0:0,0:0:0:0:
104,168,249115,2,0,B|152:168|152:168|240:128,1,126.500002412796,0|0,0:0|0:0,0:0:0:0:
304,200,249329,2,0,B|256:200|256:200|208:224,1,88,0|0,0:0|0:0,0:0:0:0:
232,56,249543,2,0,B|136:96|136:96|48:96|48:96|48:144,1,214.49999018097,4|0,0:0|0:0,0:0:0:0:
336,32,249972,2,0,B|336:120|336:120|376:192|376:192,1,148.49999546814,0|0,0:0|0:0,0:0:0:0:
264,120,250400,6,2,B|160:168|160:168|120:168|120:168,1,148.49999546814,8|0,0:0|0:0,0:0:0:0:
328,264,250829,2,0,L|288:184,1,82.5000031471254,0|0,0:0|0:0,0:0:0:0:
168,288,251043,2,0,L|256:248,1,82.5000031471254,0|0,0:0|0:0,0:0:0:0:
400,248,251257,2,0,L|360:168,1,82.5000031471254,4|0,0:0|0:0,0:0:0:0:
200,352,251472,2,0,L|288:312,1,82.5000031471254,0|0,0:0|0:0,0:0:0:0:
216,184,251686,2,0,L|120:224,1,82.5000031471254,0|0,0:0|0:0,0:0:0:0:
328,264,251900,2,0,B|288:167|288:167|288:127|288:127,1,132,8|0,0:0|0:0,0:0:0:0:
400,248,252329,6,0,L|359:148,1,82.5000031471254,0|0,0:0|0:0,0:0:0:0:
257,281,252543,2,0,L|216:181,1,82.5000031471254,0|0,0:0|0:0,0:0:0:0:
443,140,252757,2,0,L|474:217,1,82.5000031471254,0|0,0:0|0:0,0:0:0:0:
158,233,252972,2,0,L|189:310,1,82.5000031471254,4|0,0:0|0:0,0:0:0:0:
480,288,253186,2,0,L|402:318,1,82.5000031471254
256,384,253400,2,0,L|333:352,1,82.5000031471254
170,104,253829,6,2,B|256:104|256:104|274:87|274:87|274:48|274:48|352:48,1,214.49999018097,8|0,0:0|0:0,0:0:0:0:
200,24,254257,2,0,L|72:24,1,82.5000031471254,0|0,0:0|0:0,0:0:0:0:
352,128,254472,2,0,L|352:224,1,82.5000031471254,0|0,0:0|0:0,0:0:0:0:
216,240,254686,2,0,B|144:240|144:240|176:296|176:296|192:296|192:296,1,148.49999546814,4|0,0:0|0:0,0:0:0:0:
160,168,255115,2,0,L|224:168,1,60.5000018463135,0|0,0:0|0:0,0:0:0:0:
96,320,255329,2,0,L|64:256,1,60.5000018463135,0|0,0:0|0:0,0:0:0:0:
16,184,255543,6,0,B|56:184|56:184|88:160,1,71.4999967269899,8|0,0:0|0:0,0:0:0:0:
120,32,255757,2,0,L|120:103,1,71.4999967269899,0|0,0:0|0:0,0:0:0:0:
144,240,255972,2,0,B|184:240|184:240|184:248|184:248|192:240|192:240|240:240,1,82.5000031471254,0|0,0:0|0:0,0:0:0:0:
368,240,256186,2,0,L|296:240,1,71.4999967269899,0|0,0:0|0:0,0:0:0:0:
160,168,256400,2,0,B|240:168|240:168|200:120|200:120|200:80|200:80,1,181.500005538941,4|0,0:0|0:0,0:0:0:0:
312,176,256829,2,0,B|312:136|312:136|272:88|272:88|272:24|272:24|312:24,1,181.500005538941
384,176,257257,6,2,B|424:176|424:176|344:256|344:256,1,148.49999546814,8|0,0:0|0:0,0:0:0:0:
184,264,257686,2,0,L|96:264,1,71.4999967269899,0|0,0:0|0:0,0:0:0:0:
264,352,257900,2,0,L|264:264,1,71.4999967269899,0|0,0:0|0:0,0:0:0:0:
120,168,258115,2,0,B|152:192|152:192|264:192,1,148.49999546814,4|0,0:0|0:0,0:0:0:0:
112,264,258543,2,0,L|48:216,1,71.4999967269899,0|0,0:0|0:0,0:0:0:0:
256,120,258757,2,0,B|320:120|320:120|344:160|344:160|344:232,1,148.49999546814,8|0,0:0|0:0,0:0:0:0:
328,48,259186,6,0,L|240:48,1,71.4999967269899,0|0,0:0|0:0,0:0:0:0:
472,112,259400,2,0,L|376:112,1,71.4999967269899,0|0,0:0|0:0,0:0:0:0:
192,192,259615,2,0,L|280:192,1,71.4999967269899,0|0,0:0|0:0,0:0:0:0:
48,128,259829,2,0,B|120:128|120:128|96:96,1,107.249995090485,4|0,0:0|0:0,0:0:0:0:
112,200,260257,2,0,L|112:288,1,71.4999967269899,0|0,0:0|0:0,0:0:0:0:
112,271,260686,6,2,B|160:272|160:272|184:248|184:248|216:248|216:248|240:272,1,148.49999546814,12|0,0:3|0:0,0:0:0:0:
200,176,261115,2,0,L|200:96,1,76.9999976501466,0|0,0:0|0:0,0:0:0:0:
32,200,261329,2,0,L|32:277,1,76.9999976501466,0|0,0:0|0:0,0:0:0:0:
240,272,261543,2,0,B|312:272|312:272|344:240|344:240|416:240,1,181.500005538941,4|0,0:0|0:0,0:0:0:0:
320,344,261972,2,0,L|240:344,1,76.9999976501466,0|0,0:0|0:0,0:0:0:0:
336,168,262186,2,0,L|413:168,1,76.9999976501466,0|0,0:0|0:0,0:0:0:0:
168,272,262400,6,0,L|168:360,1,76.9999976501466,8|0,0:0|0:0,0:0:0:0:
248,192,262615,2,0,L|136:192,1,76.9999976501466,0|0,0:0|0:0,0:0:0:0:
384,312,262829,2,0,L|384:384,1,65.9999979858399,0|0,0:0|0:0,0:0:0:0:
480,240,263043,2,0,L|480:152,1,76.9999976501466,0|0,0:0|0:0,0:0:0:0:
336,168,263257,2,0,B|336:96|336:96|360:64|360:64|440:64,1,181.500005538941,4|0,0:0|0:0,0:0:0:0:
312,0,263686,2,0,B|256:72|256:72|256:168,1,181.500005538941,0|0,0:0|0:0,0:0:0:0:
408,136,264115,6,2,B|408:224|408:224|392:240|392:240|336:240,1,148.49999546814,8|0,0:0|0:0,0:0:0:0:
144,208,264543,2,0,L|67:208,1,76.9999976501466
192,333,264757,2,0,L|192:256,1,76.9999976501466
317,208,264972,2,0,L|240:208,1,76.9999976501466,4|0,0:0|0:0,0:0:0:0:
192,83,265186,2,0,L|192:160,1,76.9999976501466
144,208,265400,2,0,L|48:208,1,76.9999976501466,0|0,0:0|0:0,0:0:0:0:
192,256,265615,2,0,B|192:320|192:320|208:336|208:336|272:336,1,148.49999546814,8|0,0:0|0:0,0:0:0:0:
320,160,266043,6,0,L|320:56,1,76.9999976501466,0|0,0:0|0:0,0:0:0:0:
384,208,266257,2,0,L|384:285,1,76.9999976501466,0|0,0:0|0:0,0:0:0:0:
320,160,266472,2,0,L|320:56,1,76.9999976501466,0|0,0:0|0:0,0:0:0:0:
384,208,266686,2,0,L|384:285,1,76.9999976501466,4|0,0:0|0:0,0:0:0:0:
392,136,266900,2,0,L|496:136,1,76.9999976501466,0|0,0:0|0:0,0:0:0:0:
312,232,267114,2,0,L|235:232,1,76.9999976501466,0|0,0:0|0:0,0:0:0:0:
235,232,267543,6,2,B|235:144|235:144|192:144|192:144|176:160,1,148.49999546814,8|0,0:0|0:0,0:0:0:0:
168,72,267972,2,0,L|280:72,1,88,0|0,0:0|0:0,0:0:0:0:
88,112,268186,2,0,L|88:35,1,76.9999976501466,0|0,0:0|0:0,0:0:0:0:
168,224,268400,2,0,B|168:288|168:288|184:304|184:304|248:304,1,148.49999546814,4|0,0:0|0:0,0:0:0:0:
88,187,268829,2,0,L|88:264,1,76.9999976501466,0|0,0:0|0:0,0:0:0:0:
168,152,269043,2,0,L|168:75,1,76.9999976501466,0|0,0:0|0:0,0:0:0:0:
240,232,269257,6,0,L|328:232,1,76.9999976501466,8|0,0:0|0:0,0:0:0:0:
392,152,269472,2,0,L|304:152,1,76.9999976501466,0|0,0:0|0:0,0:0:0:0:
392,288,269686,2,0,L|392:224,1,60.5000018463135,0|0,0:0|0:0,0:0:0:0:
240,160,269900,2,0,L|240:72,1,82.5000031471254,0|0,0:0|0:0,0:0:0:0:
317,232,270115,2,0,B|240:232|240:232|232:248|232:248|240:264|240:264|240:352,1,181.500005538941,4|0,0:0|0:0,0:0:0:0:
168,336,270543,2,0,B|168:280|168:280|160:240|160:240|176:208,1,121.000003692627,2|2,0:0|0:0,0:0:0:0:
200,144,270972,6,2,B|136:144|136:144|160:72|160:72|216:72,1,192.499994125366,8|0,0:0|0:0,0:0:0:0:
272,120,271615,2,2,L|272:160,1,38.4999988250733,2|0,0:0|0:0,0:0:0:0:
200,216,271829,2,0,L|120:216,1,76.9999976501466,6|2,0:0|0:0,0:0:0:0:
272,232,272257,2,2,B|344:232|344:232|344:128|344:128|352:104|352:104|344:80|344:80|344:48|344:48|424:48|424:48|424:80|424:80|416:104|416:104|424:128|424:128|424:144,1,423.499987075806,0|0,0:0|0:0,0:0:0:0:
424,272,273543,1,4,0:0:0:0:
208,176,273757,1,2,0:0:0:0:
424,200,273972,5,6,0:0:0:0:
264,128,274186,1,2,0:0:0:0:
424,130,274400,6,0,P|432:88|424:32,1,93.500001783371,12|0,0:3|0:0,0:0:0:0:
344,80,274829,1,0,0:0:0:0:
344,80,275043,1,0,0:0:0:0:
264,128,275257,2,0,P|223:113|179:79,1,93.500001783371,4|0,0:0|0:0,0:0:0:0:
260,33,275686,1,2,0:0:0:0:
260,33,275900,1,0,0:0:0:0:
344,80,276115,6,0,P|352:122|344:178,1,93.500001783371,8|0,0:0|0:0,0:0:0:0:
264,128,276544,1,0,0:0:0:0:
264,128,276758,1,0,0:0:0:0:
272,224,276972,2,0,P|304:251|356:273,1,93.500001783371,4|0,0:0|0:0,0:0:0:0:
440,288,277400,1,2,0:0:0:0:
352,184,277615,1,2,0:0:0:0:
232,296,277829,6,0,P|200:256|187:215,1,93.500001783371,10|0,0:0|0:0,0:0:0:0:
272,224,278257,1,0,0:0:0:0:
272,224,278472,1,0,0:0:0:0:
240,144,278686,2,0,P|286:142|330:158,1,93.500001783371,4|0,0:0|0:0,0:0:0:0:
416,192,279115,2,0,P|408:136|416:72,1,93.500001783371,10|0,0:0|0:0,0:0:0:0:
496,144,279543,5,0,0:0:0:0:
496,144,279757,1,0,0:0:0:0:
479,236,279972,2,0,P|425:263|371:257,1,93.500001783371,2|2,0:0|0:0,0:0:0:0:
303,250,280400,1,4,0:0:0:0:
437,335,280615,1,2,0:0:0:0:
246,307,280829,1,2,0:0:0:0:
362,343,281043,1,2,0:0:0:0:
223,225,281257,6,0,P|213:160|234:114,1,93.500001783371,10|0,0:0|0:0,0:0:0:0:
302,180,281686,1,0,0:0:0:0:
302,180,281900,1,0,0:0:0:0:
295,86,282115,2,0,P|246:54|178:49,1,93.500001783371,4|0,0:0|0:0,0:0:0:0:
180,134,282543,2,0,P|189:179|178:224,1,93.500001783371,2|0,0:0|0:0,0:0:0:0:
96,178,282972,5,8,0:0:0:0:
96,178,283186,1,0,0:0:0:0:
116,269,283400,2,0,P|162:299|229:283,1,93.500001783371,0|0,0:0|0:0,0:0:0:0:
178,224,283829,1,4,0:0:0:0:
178,224,284043,1,0,0:0:0:0:
269,240,284257,2,0,P|278:178|305:124,1,93.500001783371,2|2,0:0|0:0,0:0:0:0:
340,71,284686,6,0,B|365:122|374:181|374:181|382:122|408:71,1,233.750004458428,10|0,0:0|0:0,0:0:0:0:
464,128,285329,2,0,B|427:261|519:235|481:352,1,233.750004458428
358,303,285972,2,0,B|241:146|374:1|374:1|352:104|384:184,1,514.250009808541,10|0,0:0|0:0,0:0:0:0:
401,215,287257,2,0,P|438:258|485:281,1,93.500001783371,6|2,0:0|0:0,0:0:0:0:
358,303,287686,2,0,P|321:345|274:368,1,93.500001783371,2|2,0:0|0:0,0:0:0:0:
401,215,288115,6,0,P|409:172|401:116,1,93.500001783371,12|0,0:3|0:0,0:0:0:0:
319,167,288544,1,0,0:0:0:0:
319,167,288758,1,0,0:0:0:0:
239,218,288972,2,0,P|231:176|239:120,1,93.500001783371,4|0,0:0|0:0,0:0:0:0:
319,167,289401,1,2,0:0:0:0:
319,167,289615,1,0,0:0:0:0:
239,218,289830,6,0,P|198:203|154:169,1,93.500001783371,8|0,0:0|0:0,0:0:0:0:
237,124,290257,1,0,0:0:0:0:
237,124,290472,1,0,0:0:0:0:
150,83,290686,2,0,P|109:97|65:131,1,93.500001783371,4|0,0:0|0:0,0:0:0:0:
10,197,291115,1,2,0:0:0:0:
144,172,291330,1,2,0:0:0:0:
237,124,291544,6,0,P|220:75|222:33,1,93.500001783371,10|0,0:0|0:0,0:0:0:0:
302,67,291972,1,0,0:0:0:0:
302,67,292187,1,0,0:0:0:0:
314,149,292401,2,0,P|360:147|404:163,1,93.500001783371,4|0,0:0|0:0,0:0:0:0:
479,183,292830,2,0,P|471:127|479:63,1,93.500001783371,10|0,0:0|0:0,0:0:0:0:
398,77,293258,5,0,0:0:0:0:
398,77,293472,1,0,0:0:0:0:
434,239,293687,2,0,P|373:235|329:203,1,93.500001783371,2|2,0:0|0:0,0:0:0:0:
314,149,294115,1,4,0:0:0:0:
457,312,294330,1,2,0:0:0:0:
404,163,294544,1,2,0:0:0:0:
348,306,294758,1,2,0:0:0:0:
328,129,294972,6,0,P|379:87|429:83,1,93.500001783371,10|0,0:0|0:0,0:0:0:0:
404,163,295401,1,0,0:0:0:0:
404,163,295615,1,0,0:0:0:0:
332,223,295830,2,0,P|283:191|215:186,1,93.500001783371,4|0,0:0|0:0,0:0:0:0:
172,237,296258,2,0,P|181:282|170:327,1,93.500001783371,2|0,0:0|0:0,0:0:0:0:
91,277,296687,5,8,0:0:0:0:
91,277,296901,1,0,0:0:0:0:
110,189,297115,2,0,P|156:159|223:175,1,93.500001783371,0|0,0:0|0:0,0:0:0:0:
172,237,297544,1,4,0:0:0:0:
172,237,297758,1,0,0:0:0:0:
257,253,297972,2,0,P|265:191|293:137,1,93.500001783371,2|2,0:0|0:0,0:0:0:0:
320,128,298400,6,0,B|384:128|384:128|440:152|440:152|512:152,1,192.499994125366,8|0,0:0|0:0,0:0:0:0:
336,200,299043,2,0,B|368:200|368:200|432:224|432:224|496:224,1,164.9999949646,2|0,0:0|0:0,0:0:0:0:
320,272,299686,6,0,B|360:272|360:272|416:296|416:296|480:296,1,165,10|4,0:0|0:0,0:0:0:0:
480,296,301829,5,4,0:3:0:0:
426,285,303115,1,2,0:0:0:0:
376,261,304829,5,2,0:0:0:0:
332,229,305043,1,2,0:0:0:0:
293,190,305257,1,2,0:0:0:0:
252,155,306543,5,2,0:0:0:0:
209,120,306757,1,2,0:0:0:0:
155,114,306972,1,2,0:0:0:0:
106,138,307400,5,2,0:0:0:0:
78,184,307615,1,2,0:0:0:0:
78,238,308043,5,2,0:0:0:0:
107,284,308257,1,2,0:0:0:0:
156,307,308472,1,2,0:0:0:0:
210,300,308686,1,2,0:0:0:0:
210,300,311686,5,2,0:0:0:0:
210,300,311900,1,2,0:0:0:0:
210,300,312115,1,2,0:0:0:0:
210,300,313829,5,2,0:0:0:0:
210,300,315543,5,2,0:0:0:0:
210,300,318972,6,0,B|244:349|244:349|276:299|276:299|334:280|334:280|297:234|297:234|296:174|296:174|240:196|240:196|183:177|183:177|186:236|186:236|146:268|146:268,1,528,6|0,0:0|0:0,0:0:0:0:
