osu file format v14

[General]
AudioFilename: audio.mp3
AudioLeadIn: 0
PreviewTime: -1
Countdown: 0
SampleSet: Normal
StackLeniency: 0.7
Mode: 3
LetterboxInBreaks: 0
SpecialStyle: 0
WidescreenStoryboard: 0

[Editor]
DistanceSpacing: 0.8
BeatDivisor: 2
GridSize: 32
TimelineZoom: 1

[Metadata]
Title:Dead to me (feat. Lox Chatterbox)
TitleUnicode:Dead to me (feat. Lox Chatterbox)
Artist:Sex Whales & Fraxo
ArtistUnicode:Sex Whales & Fraxo
Creator:Guilhermeziat
Version:Corruption
Source:
Tags:
BeatmapID:1344207
BeatmapSetID:633332

[Difficulty]
HPDrainRate:8
CircleSize:4
OverallDifficulty:9
ApproachRate:5
SliderMultiplier:1.4
SliderTickRate:1

[Events]
//Background and Video events
//Break Periods
//Storyboard Layer 0 (Background)
//Storyboard Layer 1 (Fail)
//Storyboard Layer 2 (Pass)
//Storyboard Layer 3 (Foreground)
//Storyboard Sound Samples

[TimingPoints]
100,405.405405,4,1,0,100,1,0

[HitObjects]
64,192,13073,128,0,13478:0:0:0:0:
64,192,13883,128,0,14289:0:0:0:0:
320,192,14137,1,0,0:0:0:0:
192,192,14289,1,0,0:0:0:0:
448,192,14559,1,0,0:0:0:0:
192,192,14694,1,0,0:0:0:0:
192,192,14964,1,0,0:0:0:0:
192,192,15150,1,0,0:0:0:0:
320,192,15353,1,0,0:0:0:0:
192,192,15556,1,0,0:0:0:0:
64,192,15961,128,0,16316:0:0:0:0:
448,192,16316,1,0,0:0:0:0:
320,192,16586,1,0,0:0:0:0:
64,192,16721,128,0,17127:0:0:0:0:
192,192,16992,1,0,0:0:0:0:
448,192,17127,1,0,0:0:0:0:
64,192,17397,1,0,0:0:0:0:
64,192,17532,128,0,17937:0:0:0:0:
320,192,17802,1,0,0:0:0:0:
448,192,17937,128,0,18073:0:0:0:0:
64,192,18343,128,0,18478:0:0:0:0:
320,192,18748,128,0,18883:0:0:0:0:
192,192,19019,128,0,19154:0:0:0:0:
64,192,19154,1,0,0:0:0:0:
192,192,19424,1,0,0:0:0:0:
448,192,19559,128,0,19694:0:0:0:0:
64,192,19829,1,0,0:0:0:0:
320,192,19964,1,0,0:0:0:0:
448,192,20235,1,0,0:0:0:0:
192,192,20370,128,0,20505:0:0:0:0:
64,192,20623,1,0,0:0:0:0:
64,192,20775,128,0,20910:0:0:0:0:
448,192,20775,1,0,0:0:0:0:
320,192,21046,1,0,0:0:0:0:
64,192,21181,1,0,0:0:0:0:
320,192,21181,128,0,21316:0:0:0:0:
64,192,21451,1,0,0:0:0:0:
64,192,21611,1,0,0:0:0:0:
448,192,21839,1,0,0:0:0:0:
64,192,21992,1,0,0:0:0:0:
192,192,21992,128,0,22127:0:0:0:0:
320,192,22397,128,0,22802:0:0:0:0:
448,192,22397,128,0,22532:0:0:0:0:
64,192,22802,128,0,22937:0:0:0:0:
320,192,23208,128,0,23613:0:0:0:0:
192,192,23478,1,0,0:0:0:0:
64,192,23613,128,0,23748:0:0:0:0:
192,192,23883,1,0,0:0:0:0:
320,192,24019,128,0,24424:0:0:0:0:
448,192,24019,128,0,24154:0:0:0:0:
64,192,24289,1,0,0:0:0:0:
192,192,24424,128,0,24559:0:0:0:0:
448,192,24694,1,0,0:0:0:0:
320,192,24829,128,0,24964:0:0:0:0:
448,192,25235,128,0,25370:0:0:0:0:
64,192,25505,128,0,25640:0:0:0:0:
320,192,26046,1,0,0:0:0:0:
448,192,26046,1,0,0:0:0:0:
64,192,26096,1,0,0:0:0:0:
192,192,26147,1,0,0:0:0:0:
320,192,26198,1,0,0:0:0:0:
448,192,26248,1,0,0:0:0:0:
64,192,26316,1,0,0:0:0:0:
448,192,26383,1,0,0:0:0:0:
320,192,26451,1,0,0:0:0:0:
192,192,26519,1,0,0:0:0:0:
64,192,26586,1,0,0:0:0:0:
320,192,26654,1,0,0:0:0:0:
192,192,26721,1,0,0:0:0:0:
448,192,26789,1,0,0:0:0:0:
64,192,26856,1,0,0:0:0:0:
320,192,26856,1,0,0:0:0:0:
320,192,27127,1,0,0:0:0:0:
64,192,27194,1,0,0:0:0:0:
192,192,27262,1,0,0:0:0:0:
320,192,27262,1,0,0:0:0:0:
320,192,27532,1,0,0:0:0:0:
448,192,27532,1,0,0:0:0:0:
192,192,27600,1,0,0:0:0:0:
64,192,27667,1,0,0:0:0:0:
448,192,27667,1,0,0:0:0:0:
64,192,27937,1,0,0:0:0:0:
320,192,28005,1,0,0:0:0:0:
64,192,28073,1,0,0:0:0:0:
192,192,28073,1,0,0:0:0:0:
192,192,28343,1,0,0:0:0:0:
320,192,28410,1,0,0:0:0:0:
64,192,28478,1,0,0:0:0:0:
192,192,28478,1,0,0:0:0:0:
448,192,28478,1,0,0:0:0:0:
320,192,28546,1,0,0:0:0:0:
192,192,28613,1,0,0:0:0:0:
64,192,28681,1,0,0:0:0:0:
320,192,28883,1,0,0:0:0:0:
192,192,28951,1,0,0:0:0:0:
64,192,29019,1,0,0:0:0:0:
448,192,29086,1,0,0:0:0:0:
192,192,29154,1,0,0:0:0:0:
320,192,29221,1,0,0:0:0:0:
64,192,29289,1,0,0:0:0:0:
448,192,29289,1,0,0:0:0:0:
192,192,29356,1,0,0:0:0:0:
320,192,29424,1,0,0:0:0:0:
64,192,29492,1,0,0:0:0:0:
320,192,29694,1,0,0:0:0:0:
192,192,29762,1,0,0:0:0:0:
64,192,29829,1,0,0:0:0:0:
320,192,29897,1,0,0:0:0:0:
64,192,29964,1,0,0:0:0:0:
192,192,29964,1,0,0:0:0:0:
448,192,30032,1,0,0:0:0:0:
64,192,30100,1,0,0:0:0:0:
320,192,30100,1,0,0:0:0:0:
192,192,30167,1,0,0:0:0:0:
64,192,30370,1,0,0:0:0:0:
320,192,30437,1,0,0:0:0:0:
192,192,30505,1,0,0:0:0:0:
448,192,30505,1,0,0:0:0:0:
192,192,30775,1,0,0:0:0:0:
320,192,30775,1,0,0:0:0:0:
64,192,30843,1,0,0:0:0:0:
320,192,30910,1,0,0:0:0:0:
448,192,30910,1,0,0:0:0:0:
192,192,31181,1,0,0:0:0:0:
320,192,31248,1,0,0:0:0:0:
64,192,31316,1,0,0:0:0:0:
192,192,31316,1,0,0:0:0:0:
320,192,31586,1,0,0:0:0:0:
448,192,31586,1,0,0:0:0:0:
64,192,31654,1,0,0:0:0:0:
192,192,31721,1,0,0:0:0:0:
320,192,31721,1,0,0:0:0:0:
448,192,31721,1,0,0:0:0:0:
64,192,31992,1,0,0:0:0:0:
448,192,31992,1,0,0:0:0:0:
320,192,32059,1,0,0:0:0:0:
64,192,32127,1,0,0:0:0:0:
192,192,32127,1,0,0:0:0:0:
448,192,32194,1,0,0:0:0:0:
320,192,32262,1,0,0:0:0:0:
64,192,32329,1,0,0:0:0:0:
448,192,32397,1,0,0:0:0:0:
64,192,32464,1,0,0:0:0:0:
320,192,32532,1,0,0:0:0:0:
448,192,32532,1,0,0:0:0:0:
64,192,32600,1,0,0:0:0:0:
192,192,32667,1,0,0:0:0:0:
320,192,32802,1,0,0:0:0:0:
448,192,32802,1,0,0:0:0:0:
192,192,32937,1,0,0:0:0:0:
320,192,32937,1,0,0:0:0:0:
448,192,33005,1,0,0:0:0:0:
192,192,33073,1,0,0:0:0:0:
320,192,33140,1,0,0:0:0:0:
64,192,33208,1,0,0:0:0:0:
448,192,33275,1,0,0:0:0:0:
64,192,33343,1,0,0:0:0:0:
192,192,33343,1,0,0:0:0:0:
320,192,33343,1,0,0:0:0:0:
192,192,33613,1,0,0:0:0:0:
64,192,33681,1,0,0:0:0:0:
320,192,33748,1,0,0:0:0:0:
448,192,33748,1,0,0:0:0:0:
64,192,34019,1,0,0:0:0:0:
448,192,34019,1,0,0:0:0:0:
320,192,34086,1,0,0:0:0:0:
192,192,34154,1,0,0:0:0:0:
448,192,34154,1,0,0:0:0:0:
448,192,34424,1,0,0:0:0:0:
320,192,34492,1,0,0:0:0:0:
64,192,34559,1,0,0:0:0:0:
192,192,34559,1,0,0:0:0:0:
320,192,34829,1,0,0:0:0:0:
192,192,34897,1,0,0:0:0:0:
64,192,34964,1,0,0:0:0:0:
320,192,34964,1,0,0:0:0:0:
448,192,34964,1,0,0:0:0:0:
192,192,35032,1,0,0:0:0:0:
320,192,35100,1,0,0:0:0:0:
64,192,35167,1,0,0:0:0:0:
448,192,35235,1,0,0:0:0:0:
64,192,35370,1,0,0:0:0:0:
320,192,35370,1,0,0:0:0:0:
192,192,35437,1,0,0:0:0:0:
448,192,35505,1,0,0:0:0:0:
64,192,35573,1,0,0:0:0:0:
192,192,35640,1,0,0:0:0:0:
320,192,35708,1,0,0:0:0:0:
64,192,35775,1,0,0:0:0:0:
448,192,35775,1,0,0:0:0:0:
192,192,35843,1,0,0:0:0:0:
320,192,35910,1,0,0:0:0:0:
448,192,35978,1,0,0:0:0:0:
192,192,36181,1,0,0:0:0:0:
320,192,36181,1,0,0:0:0:0:
64,192,36248,1,0,0:0:0:0:
448,192,36316,1,0,0:0:0:0:
320,192,36383,1,0,0:0:0:0:
64,192,36451,1,0,0:0:0:0:
192,192,36451,1,0,0:0:0:0:
64,192,36586,1,0,0:0:0:0:
320,192,36586,1,0,0:0:0:0:
448,192,36586,1,0,0:0:0:0:
192,192,36856,1,0,0:0:0:0:
320,192,36924,1,0,0:0:0:0:
64,192,36992,1,0,0:0:0:0:
192,192,36992,1,0,0:0:0:0:
320,192,37262,1,0,0:0:0:0:
448,192,37262,1,0,0:0:0:0:
192,192,37329,1,0,0:0:0:0:
64,192,37397,1,0,0:0:0:0:
448,192,37397,1,0,0:0:0:0:
320,192,37448,1,0,0:0:0:0:
192,192,37498,1,0,0:0:0:0:
64,192,37549,1,0,0:0:0:0:
448,192,37600,1,0,0:0:0:0:
192,192,37650,1,0,0:0:0:0:
320,192,37701,1,0,0:0:0:0:
448,192,37752,1,0,0:0:0:0:
64,192,37802,1,0,0:0:0:0:
192,192,37802,1,0,0:0:0:0:
320,192,38073,1,0,0:0:0:0:
448,192,38073,1,0,0:0:0:0:
64,192,38140,1,0,0:0:0:0:
192,192,38208,1,0,0:0:0:0:
320,192,38208,1,0,0:0:0:0:
64,192,38478,1,0,0:0:0:0:
192,192,38478,1,0,0:0:0:0:
448,192,38546,1,0,0:0:0:0:
192,192,38613,1,0,0:0:0:0:
320,192,38613,1,0,0:0:0:0:
64,192,38883,1,0,0:0:0:0:
320,192,39069,1,0,0:0:0:0:
192,192,39272,1,0,0:0:0:0:
320,192,39424,1,0,0:0:0:0:
448,192,39677,1,0,0:0:0:0:
192,192,39880,1,0,0:0:0:0:
64,192,40083,1,0,0:0:0:0:
320,192,40083,1,0,0:0:0:0:
192,192,40235,1,0,0:0:0:0:
320,192,40235,1,0,0:0:0:0:
192,192,40505,1,0,0:0:0:0:
320,192,40505,1,0,0:0:0:0:
320,192,40640,1,0,0:0:0:0:
448,192,40640,1,0,0:0:0:0:
64,192,40708,1,0,0:0:0:0:
448,192,40775,1,0,0:0:0:0:
64,192,40843,1,0,0:0:0:0:
448,192,40910,1,0,0:0:0:0:
192,192,41046,1,0,0:0:0:0:
320,192,41046,1,0,0:0:0:0:
448,192,41113,1,0,0:0:0:0:
192,192,41181,1,0,0:0:0:0:
448,192,41248,1,0,0:0:0:0:
192,192,41316,1,0,0:0:0:0:
64,192,41451,1,0,0:0:0:0:
320,192,41451,1,0,0:0:0:0:
448,192,41451,1,0,0:0:0:0:
192,192,41519,1,0,0:0:0:0:
320,192,41586,1,0,0:0:0:0:
192,192,41654,1,0,0:0:0:0:
320,192,41721,1,0,0:0:0:0:
192,192,41789,1,0,0:0:0:0:
64,192,41856,1,0,0:0:0:0:
320,192,41856,1,0,0:0:0:0:
448,192,41924,1,0,0:0:0:0:
192,192,41992,1,0,0:0:0:0:
320,192,41992,1,0,0:0:0:0:
448,192,42059,1,0,0:0:0:0:
64,192,42127,1,0,0:0:0:0:
192,192,42127,1,0,0:0:0:0:
320,192,42194,1,0,0:0:0:0:
64,192,42262,1,0,0:0:0:0:
192,192,42262,1,0,0:0:0:0:
448,192,42329,1,0,0:0:0:0:
320,192,42397,1,0,0:0:0:0:
64,192,42532,1,0,0:0:0:0:
192,192,42532,1,0,0:0:0:0:
64,192,42667,1,0,0:0:0:0:
448,192,42667,1,0,0:0:0:0:
320,192,42735,1,0,0:0:0:0:
192,192,42802,1,0,0:0:0:0:
320,192,42937,1,0,0:0:0:0:
448,192,42937,1,0,0:0:0:0:
64,192,43073,1,0,0:0:0:0:
448,192,43073,1,0,0:0:0:0:
192,192,43140,1,0,0:0:0:0:
320,192,43208,1,0,0:0:0:0:
192,192,43343,1,0,0:0:0:0:
448,192,43343,1,0,0:0:0:0:
320,192,43410,1,0,0:0:0:0:
64,192,43478,1,0,0:0:0:0:
192,192,43478,1,0,0:0:0:0:
448,192,43512,1,0,0:0:0:0:
320,192,43546,1,0,0:0:0:0:
192,192,43613,1,0,0:0:0:0:
448,192,43647,1,0,0:0:0:0:
64,192,43681,1,0,0:0:0:0:
192,192,43748,1,0,0:0:0:0:
320,192,43782,1,0,0:0:0:0:
448,192,43816,1,0,0:0:0:0:
64,192,43883,1,0,0:0:0:0:
192,192,43883,1,0,0:0:0:0:
320,192,43951,1,0,0:0:0:0:
64,192,44019,1,0,0:0:0:0:
448,192,44019,1,0,0:0:0:0:
192,192,44086,1,0,0:0:0:0:
448,192,44154,1,0,0:0:0:0:
192,192,44289,1,0,0:0:0:0:
320,192,44289,1,0,0:0:0:0:
64,192,44356,1,0,0:0:0:0:
320,192,44424,1,0,0:0:0:0:
64,192,44492,1,0,0:0:0:0:
320,192,44559,1,0,0:0:0:0:
448,192,44559,1,0,0:0:0:0:
64,192,44694,1,0,0:0:0:0:
192,192,44694,1,0,0:0:0:0:
448,192,44694,1,0,0:0:0:0:
320,192,44762,1,0,0:0:0:0:
64,192,44829,1,0,0:0:0:0:
320,192,44897,1,0,0:0:0:0:
64,192,44964,1,0,0:0:0:0:
320,192,45032,1,0,0:0:0:0:
64,192,45100,1,0,0:0:0:0:
192,192,45100,1,0,0:0:0:0:
448,192,45167,1,0,0:0:0:0:
192,192,45235,1,0,0:0:0:0:
320,192,45235,1,0,0:0:0:0:
64,192,45302,1,0,0:0:0:0:
192,192,45370,1,0,0:0:0:0:
448,192,45370,1,0,0:0:0:0:
320,192,45437,1,0,0:0:0:0:
192,192,45505,1,0,0:0:0:0:
448,192,45505,1,0,0:0:0:0:
64,192,45573,1,0,0:0:0:0:
448,192,45640,1,0,0:0:0:0:
64,192,45775,1,0,0:0:0:0:
192,192,45775,1,0,0:0:0:0:
192,192,45910,1,0,0:0:0:0:
448,192,45910,1,0,0:0:0:0:
320,192,45978,1,0,0:0:0:0:
64,192,46046,1,0,0:0:0:0:
320,192,46113,1,0,0:0:0:0:
448,192,46113,1,0,0:0:0:0:
64,192,46181,1,0,0:0:0:0:
192,192,46181,1,0,0:0:0:0:
192,192,46316,1,0,0:0:0:0:
320,192,46316,1,0,0:0:0:0:
448,192,46316,1,0,0:0:0:0:
64,192,46383,1,0,0:0:0:0:
320,192,46451,1,0,0:0:0:0:
192,192,46519,1,0,0:0:0:0:
64,192,46586,1,0,0:0:0:0:
448,192,46586,1,0,0:0:0:0:
192,192,46721,1,0,0:0:0:0:
320,192,46721,1,0,0:0:0:0:
64,192,46755,1,0,0:0:0:0:
448,192,46789,1,0,0:0:0:0:
320,192,46856,1,0,0:0:0:0:
192,192,46890,1,0,0:0:0:0:
64,192,46924,1,0,0:0:0:0:
320,192,46992,1,0,0:0:0:0:
192,192,47025,1,0,0:0:0:0:
448,192,47059,1,0,0:0:0:0:
64,192,47127,1,0,0:0:0:0:
320,192,47127,1,0,0:0:0:0:
192,192,47194,1,0,0:0:0:0:
320,192,47262,1,0,0:0:0:0:
448,192,47262,1,0,0:0:0:0:
320,192,47397,1,0,0:0:0:0:
192,192,47532,1,0,0:0:0:0:
448,192,47532,1,0,0:0:0:0:
320,192,47600,1,0,0:0:0:0:
64,192,47667,1,0,0:0:0:0:
192,192,47667,1,0,0:0:0:0:
192,192,47802,1,0,0:0:0:0:
64,192,47937,1,0,0:0:0:0:
320,192,47937,1,0,0:0:0:0:
448,192,47937,1,0,0:0:0:0:
448,192,48073,1,0,0:0:0:0:
64,192,48208,1,0,0:0:0:0:
192,192,48208,1,0,0:0:0:0:
320,192,48242,1,0,0:0:0:0:
192,192,48343,1,0,0:0:0:0:
448,192,48343,1,0,0:0:0:0:
64,192,48410,1,0,0:0:0:0:
320,192,48478,1,0,0:0:0:0:
448,192,48546,1,0,0:0:0:0:
64,192,48613,1,0,0:0:0:0:
320,192,48613,1,0,0:0:0:0:
192,192,48681,1,0,0:0:0:0:
320,192,48748,1,0,0:0:0:0:
448,192,48748,1,0,0:0:0:0:
64,192,48816,1,0,0:0:0:0:
192,192,48883,1,0,0:0:0:0:
448,192,48883,1,0,0:0:0:0:
448,192,49019,1,0,0:0:0:0:
64,192,49154,1,0,0:0:0:0:
192,192,49154,1,0,0:0:0:0:
320,192,49221,1,0,0:0:0:0:
64,192,49289,1,0,0:0:0:0:
448,192,49289,1,0,0:0:0:0:
64,192,49424,1,0,0:0:0:0:
192,192,49559,1,0,0:0:0:0:
320,192,49559,1,0,0:0:0:0:
448,192,49559,1,0,0:0:0:0:
320,192,49694,1,0,0:0:0:0:
320,192,49829,1,0,0:0:0:0:
192,192,49863,1,0,0:0:0:0:
64,192,49964,1,0,0:0:0:0:
448,192,49998,1,0,0:0:0:0:
320,192,50032,1,0,0:0:0:0:
192,192,50100,1,0,0:0:0:0:
64,192,50133,1,0,0:0:0:0:
448,192,50167,1,0,0:0:0:0:
192,192,50235,1,0,0:0:0:0:
320,192,50269,1,0,0:0:0:0:
448,192,50302,1,0,0:0:0:0:
64,192,50370,1,0,0:0:0:0:
192,192,50370,1,0,0:0:0:0:
320,192,50437,1,0,0:0:0:0:
64,192,50505,1,0,0:0:0:0:
64,192,50640,1,0,0:0:0:0:
320,192,50775,1,0,0:0:0:0:
448,192,50775,1,0,0:0:0:0:
192,192,50843,1,0,0:0:0:0:
448,192,50910,1,0,0:0:0:0:
64,192,51046,1,0,0:0:0:0:
192,192,51046,1,0,0:0:0:0:
320,192,51113,1,0,0:0:0:0:
192,192,51181,1,0,0:0:0:0:
448,192,51181,1,0,0:0:0:0:
64,192,51248,1,0,0:0:0:0:
320,192,51316,1,0,0:0:0:0:
192,192,51451,1,0,0:0:0:0:
320,192,51451,1,0,0:0:0:0:
192,192,51586,1,0,0:0:0:0:
448,192,51586,1,0,0:0:0:0:
320,192,51654,1,0,0:0:0:0:
448,192,51721,1,0,0:0:0:0:
192,192,51789,1,0,0:0:0:0:
64,192,51856,1,0,0:0:0:0:
320,192,51856,1,0,0:0:0:0:
448,192,51924,1,0,0:0:0:0:
64,192,51992,128,0,52262:0:0:0:0:
320,192,51992,128,0,52262:0:0:0:0:
192,192,52397,128,0,52532:0:0:0:0:
64,192,52667,128,0,52802:0:0:0:0:
320,192,52802,128,0,52937:0:0:0:0:
192,192,53073,128,0,53208:0:0:0:0:
448,192,53208,128,0,53343:0:0:0:0:
64,192,53613,1,0,0:0:0:0:
64,192,54019,1,0,0:0:0:0:
320,192,54289,1,0,0:0:0:0:
192,192,54424,1,0,0:0:0:0:
448,192,54694,1,0,0:0:0:0:
320,192,54829,1,0,0:0:0:0:
320,192,55235,1,0,0:0:0:0:
448,192,55235,1,0,0:0:0:0:
64,192,55269,1,0,0:0:0:0:
448,192,55370,1,0,0:0:0:0:
64,192,55404,1,0,0:0:0:0:
448,192,55505,1,0,0:0:0:0:
192,192,55539,1,0,0:0:0:0:
320,192,55640,1,0,0:0:0:0:
64,192,55691,1,0,0:0:0:0:
192,192,55742,1,0,0:0:0:0:
320,192,55792,1,0,0:0:0:0:
64,192,55843,1,0,0:0:0:0:
320,192,55894,1,0,0:0:0:0:
192,192,55944,1,0,0:0:0:0:
448,192,55995,1,0,0:0:0:0:
64,192,56046,1,0,0:0:0:0:
320,192,56046,1,0,0:0:0:0:
192,192,56079,1,0,0:0:0:0:
64,192,56181,1,0,0:0:0:0:
448,192,56214,1,0,0:0:0:0:
64,192,56316,1,0,0:0:0:0:
320,192,56350,1,0,0:0:0:0:
192,192,56451,1,0,0:0:0:0:
448,192,56502,1,0,0:0:0:0:
320,192,56552,1,0,0:0:0:0:
64,192,56603,1,0,0:0:0:0:
448,192,56654,1,0,0:0:0:0:
64,192,56704,1,0,0:0:0:0:
320,192,56721,1,0,0:0:0:0:
192,192,56755,1,0,0:0:0:0:
448,192,56806,1,0,0:0:0:0:
192,192,56856,1,0,0:0:0:0:
320,192,56856,1,0,0:0:0:0:
64,192,56890,1,0,0:0:0:0:
64,192,56992,1,0,0:0:0:0:
448,192,57025,1,0,0:0:0:0:
448,192,57127,1,0,0:0:0:0:
192,192,57160,1,0,0:0:0:0:
320,192,57262,1,0,0:0:0:0:
64,192,57312,1,0,0:0:0:0:
448,192,57363,1,0,0:0:0:0:
192,192,57414,1,0,0:0:0:0:
320,192,57464,1,0,0:0:0:0:
448,192,57515,1,0,0:0:0:0:
64,192,57566,1,0,0:0:0:0:
320,192,57667,1,0,0:0:0:0:
448,192,57667,1,0,0:0:0:0:
192,192,57718,1,0,0:0:0:0:
64,192,57769,1,0,0:0:0:0:
320,192,57819,1,0,0:0:0:0:
192,192,57870,1,0,0:0:0:0:
448,192,57921,1,0,0:0:0:0:
320,192,57971,1,0,0:0:0:0:
64,192,58073,1,0,0:0:0:0:
448,192,58098,1,0,0:0:0:0:
320,192,58123,1,0,0:0:0:0:
192,192,58149,1,0,0:0:0:0:
64,192,58343,128,0,58478:0:0:0:0:
320,192,58478,1,0,0:0:0:0:
448,192,58478,1,0,0:0:0:0:
192,192,58546,1,0,0:0:0:0:
320,192,58613,1,0,0:0:0:0:
448,192,58613,1,0,0:0:0:0:
192,192,58681,1,0,0:0:0:0:
320,192,58748,1,0,0:0:0:0:
448,192,58748,1,0,0:0:0:0:
64,192,58883,1,0,0:0:0:0:
192,192,58883,1,0,0:0:0:0:
448,192,58951,1,0,0:0:0:0:
192,192,59019,1,0,0:0:0:0:
320,192,59019,1,0,0:0:0:0:
448,192,59086,1,0,0:0:0:0:
64,192,59154,1,0,0:0:0:0:
192,192,59154,1,0,0:0:0:0:
64,192,59289,1,0,0:0:0:0:
320,192,59289,1,0,0:0:0:0:
448,192,59289,1,0,0:0:0:0:
192,192,59356,1,0,0:0:0:0:
320,192,59424,1,0,0:0:0:0:
448,192,59424,1,0,0:0:0:0:
192,192,59492,1,0,0:0:0:0:
320,192,59559,1,0,0:0:0:0:
448,192,59559,1,0,0:0:0:0:
64,192,59694,1,0,0:0:0:0:
192,192,59694,1,0,0:0:0:0:
448,192,59762,1,0,0:0:0:0:
64,192,59829,1,0,0:0:0:0:
320,192,59829,1,0,0:0:0:0:
448,192,59897,1,0,0:0:0:0:
64,192,59964,1,0,0:0:0:0:
192,192,59964,1,0,0:0:0:0:
320,192,60100,1,0,0:0:0:0:
448,192,60100,1,0,0:0:0:0:
64,192,60167,1,0,0:0:0:0:
192,192,60235,1,0,0:0:0:0:
320,192,60235,1,0,0:0:0:0:
64,192,60302,1,0,0:0:0:0:
448,192,60302,1,0,0:0:0:0:
192,192,60370,1,0,0:0:0:0:
320,192,60370,1,0,0:0:0:0:
448,192,60437,1,0,0:0:0:0:
64,192,60505,1,0,0:0:0:0:
192,192,60505,1,0,0:0:0:0:
320,192,60573,1,0,0:0:0:0:
64,192,60640,1,0,0:0:0:0:
192,192,60640,1,0,0:0:0:0:
448,192,60708,1,0,0:0:0:0:
64,192,60775,1,0,0:0:0:0:
192,192,60775,1,0,0:0:0:0:
448,192,60843,1,0,0:0:0:0:
64,192,60910,1,0,0:0:0:0:
192,192,60910,1,0,0:0:0:0:
320,192,60910,1,0,0:0:0:0:
448,192,60961,1,0,0:0:0:0:
320,192,61012,1,0,0:0:0:0:
192,192,61062,1,0,0:0:0:0:
192,192,61181,1,0,0:0:0:0:
320,192,61181,1,0,0:0:0:0:
448,192,61181,1,0,0:0:0:0:
64,192,61231,1,0,0:0:0:0:
192,192,61282,1,0,0:0:0:0:
320,192,61333,1,0,0:0:0:0:
64,192,61451,1,0,0:0:0:0:
192,192,61451,1,0,0:0:0:0:
448,192,61451,1,0,0:0:0:0:
320,192,61502,1,0,0:0:0:0:
64,192,61552,1,0,0:0:0:0:
448,192,61603,1,0,0:0:0:0:
64,192,61721,1,0,0:0:0:0:
192,192,61721,1,0,0:0:0:0:
448,192,61755,1,0,0:0:0:0:
192,192,61856,1,0,0:0:0:0:
320,192,61890,1,0,0:0:0:0:
192,192,61992,1,0,0:0:0:0:
64,192,62025,1,0,0:0:0:0:
320,192,62127,1,0,0:0:0:0:
192,192,62177,1,0,0:0:0:0:
64,192,62228,1,0,0:0:0:0:
192,192,62279,1,0,0:0:0:0:
320,192,62329,1,0,0:0:0:0:
448,192,62380,1,0,0:0:0:0:
320,192,62431,1,0,0:0:0:0:
192,192,62481,1,0,0:0:0:0:
64,192,62532,1,0,0:0:0:0:
448,192,62532,1,0,0:0:0:0:
320,192,62566,1,0,0:0:0:0:
448,192,62667,1,0,0:0:0:0:
192,192,62701,1,0,0:0:0:0:
448,192,62802,1,0,0:0:0:0:
64,192,62836,1,0,0:0:0:0:
192,192,62937,1,0,0:0:0:0:
320,192,62988,1,0,0:0:0:0:
448,192,63039,1,0,0:0:0:0:
320,192,63089,1,0,0:0:0:0:
192,192,63140,1,0,0:0:0:0:
64,192,63191,1,0,0:0:0:0:
448,192,63208,1,0,0:0:0:0:
192,192,63242,1,0,0:0:0:0:
320,192,63292,1,0,0:0:0:0:
64,192,63343,1,0,0:0:0:0:
448,192,63343,1,0,0:0:0:0:
192,192,63377,1,0,0:0:0:0:
192,192,63478,1,0,0:0:0:0:
320,192,63512,1,0,0:0:0:0:
320,192,63613,1,0,0:0:0:0:
448,192,63647,1,0,0:0:0:0:
192,192,63748,1,0,0:0:0:0:
320,192,63799,1,0,0:0:0:0:
192,192,63850,1,0,0:0:0:0:
64,192,63900,1,0,0:0:0:0:
320,192,63951,1,0,0:0:0:0:
192,192,64002,1,0,0:0:0:0:
448,192,64052,1,0,0:0:0:0:
64,192,64154,1,0,0:0:0:0:
320,192,64154,1,0,0:0:0:0:
192,192,64204,1,0,0:0:0:0:
320,192,64255,1,0,0:0:0:0:
448,192,64306,1,0,0:0:0:0:
192,192,64356,1,0,0:0:0:0:
320,192,64407,1,0,0:0:0:0:
64,192,64458,1,0,0:0:0:0:
320,192,64559,1,0,0:0:0:0:
320,192,64694,1,0,0:0:0:0:
192,192,64829,1,0,0:0:0:0:
64,192,64863,1,0,0:0:0:0:
64,192,64964,1,0,0:0:0:0:
448,192,64964,1,0,0:0:0:0:
320,192,65032,1,0,0:0:0:0:
64,192,65100,1,0,0:0:0:0:
448,192,65100,1,0,0:0:0:0:
192,192,65167,1,0,0:0:0:0:
64,192,65235,1,0,0:0:0:0:
448,192,65235,1,0,0:0:0:0:
320,192,65302,1,0,0:0:0:0:
192,192,65370,1,0,0:0:0:0:
64,192,65421,1,0,0:0:0:0:
192,192,65471,1,0,0:0:0:0:
320,192,65522,1,0,0:0:0:0:
448,192,65573,1,0,0:0:0:0:
64,192,65640,1,0,0:0:0:0:
192,192,65640,1,0,0:0:0:0:
320,192,65708,1,0,0:0:0:0:
64,192,65775,1,0,0:0:0:0:
192,192,65775,1,0,0:0:0:0:
448,192,65775,1,0,0:0:0:0:
320,192,65843,1,0,0:0:0:0:
192,192,65910,1,0,0:0:0:0:
448,192,65910,1,0,0:0:0:0:
64,192,65978,1,0,0:0:0:0:
192,192,66046,1,0,0:0:0:0:
448,192,66046,1,0,0:0:0:0:
320,192,66113,1,0,0:0:0:0:
192,192,66181,1,0,0:0:0:0:
448,192,66181,1,0,0:0:0:0:
64,192,66231,1,0,0:0:0:0:
448,192,66282,1,0,0:0:0:0:
192,192,66333,1,0,0:0:0:0:
320,192,66383,1,0,0:0:0:0:
64,192,66451,1,0,0:0:0:0:
448,192,66451,1,0,0:0:0:0:
64,192,66586,1,0,0:0:0:0:
192,192,66586,1,0,0:0:0:0:
320,192,66992,128,0,67059:0:0:0:0:
448,192,67025,128,0,67093:0:0:0:0:
192,192,67127,128,0,67194:0:0:0:0:
320,192,67160,128,0,67228:0:0:0:0:
64,192,67262,128,0,67329:0:0:0:0:
192,192,67296,128,0,67363:0:0:0:0:
64,192,67397,128,0,67600:0:0:0:0:
448,192,67431,128,0,67600:0:0:0:0:
320,192,67667,128,0,67735:0:0:0:0:
192,192,67802,128,0,68005:0:0:0:0:
64,192,68073,128,0,68140:0:0:0:0:
192,192,68208,1,0,0:0:0:0:
320,192,68208,1,0,0:0:0:0:
448,192,68208,1,0,0:0:0:0:
64,192,68242,1,0,0:0:0:0:
320,192,68343,1,0,0:0:0:0:
448,192,68377,1,0,0:0:0:0:
320,192,68478,1,0,0:0:0:0:
192,192,68512,1,0,0:0:0:0:
448,192,68613,1,0,0:0:0:0:
64,192,68664,1,0,0:0:0:0:
448,192,68714,1,0,0:0:0:0:
192,192,68765,1,0,0:0:0:0:
320,192,68816,1,0,0:0:0:0:
64,192,68867,1,0,0:0:0:0:
320,192,68917,1,0,0:0:0:0:
192,192,68968,1,0,0:0:0:0:
64,192,69019,1,0,0:0:0:0:
448,192,69019,1,0,0:0:0:0:
320,192,69052,1,0,0:0:0:0:
64,192,69154,1,0,0:0:0:0:
192,192,69187,1,0,0:0:0:0:
64,192,69289,1,0,0:0:0:0:
448,192,69323,1,0,0:0:0:0:
192,192,69424,1,0,0:0:0:0:
320,192,69475,1,0,0:0:0:0:
192,192,69525,1,0,0:0:0:0:
448,192,69576,1,0,0:0:0:0:
64,192,69627,1,0,0:0:0:0:
320,192,69677,1,0,0:0:0:0:
448,192,69694,1,0,0:0:0:0:
64,192,69728,1,0,0:0:0:0:
192,192,69779,1,0,0:0:0:0:
320,192,69829,1,0,0:0:0:0:
448,192,69829,1,0,0:0:0:0:
64,192,69863,1,0,0:0:0:0:
64,192,69964,1,0,0:0:0:0:
192,192,69998,1,0,0:0:0:0:
192,192,70100,1,0,0:0:0:0:
448,192,70133,1,0,0:0:0:0:
320,192,70235,1,0,0:0:0:0:
192,192,70285,1,0,0:0:0:0:
320,192,70336,1,0,0:0:0:0:
64,192,70387,1,0,0:0:0:0:
448,192,70437,1,0,0:0:0:0:
64,192,70488,1,0,0:0:0:0:
192,192,70539,1,0,0:0:0:0:
320,192,70640,1,0,0:0:0:0:
448,192,70640,1,0,0:0:0:0:
64,192,70691,1,0,0:0:0:0:
320,192,70742,1,0,0:0:0:0:
192,192,70792,1,0,0:0:0:0:
448,192,70843,1,0,0:0:0:0:
192,192,70894,1,0,0:0:0:0:
64,192,70944,1,0,0:0:0:0:
192,192,71046,1,0,0:0:0:0:
448,192,71071,1,0,0:0:0:0:
64,192,71096,1,0,0:0:0:0:
320,192,71122,1,0,0:0:0:0:
448,192,71316,128,0,71451:0:0:0:0:
64,192,71451,1,0,0:0:0:0:
192,192,71451,1,0,0:0:0:0:
320,192,71519,1,0,0:0:0:0:
64,192,71586,1,0,0:0:0:0:
192,192,71586,1,0,0:0:0:0:
448,192,71654,1,0,0:0:0:0:
64,192,71721,1,0,0:0:0:0:
192,192,71721,1,0,0:0:0:0:
320,192,71789,1,0,0:0:0:0:
192,192,71856,1,0,0:0:0:0:
448,192,71856,1,0,0:0:0:0:
64,192,71924,1,0,0:0:0:0:
320,192,71992,1,0,0:0:0:0:
448,192,71992,1,0,0:0:0:0:
64,192,72059,1,0,0:0:0:0:
192,192,72127,1,0,0:0:0:0:
448,192,72127,1,0,0:0:0:0:
320,192,72194,1,0,0:0:0:0:
64,192,72262,1,0,0:0:0:0:
192,192,72262,1,0,0:0:0:0:
448,192,72262,1,0,0:0:0:0:
320,192,72329,1,0,0:0:0:0:
64,192,72397,1,0,0:0:0:0:
448,192,72397,1,0,0:0:0:0:
192,192,72464,1,0,0:0:0:0:
64,192,72532,1,0,0:0:0:0:
448,192,72532,1,0,0:0:0:0:
320,192,72600,1,0,0:0:0:0:
64,192,72667,1,0,0:0:0:0:
192,192,72667,1,0,0:0:0:0:
448,192,72735,1,0,0:0:0:0:
192,192,72802,1,0,0:0:0:0:
320,192,72802,1,0,0:0:0:0:
448,192,72870,1,0,0:0:0:0:
64,192,72937,1,0,0:0:0:0:
192,192,72937,1,0,0:0:0:0:
320,192,73005,1,0,0:0:0:0:
64,192,73073,1,0,0:0:0:0:
448,192,73073,1,0,0:0:0:0:
192,192,73140,1,0,0:0:0:0:
320,192,73208,1,0,0:0:0:0:
448,192,73208,1,0,0:0:0:0:
64,192,73275,1,0,0:0:0:0:
192,192,73275,1,0,0:0:0:0:
320,192,73343,1,0,0:0:0:0:
448,192,73343,1,0,0:0:0:0:
192,192,73410,1,0,0:0:0:0:
64,192,73478,1,0,0:0:0:0:
448,192,73478,1,0,0:0:0:0:
320,192,73546,1,0,0:0:0:0:
64,192,73613,1,0,0:0:0:0:
192,192,73613,1,0,0:0:0:0:
320,192,73681,1,0,0:0:0:0:
64,192,73748,1,0,0:0:0:0:
448,192,73748,1,0,0:0:0:0:
192,192,73816,1,0,0:0:0:0:
64,192,73883,1,0,0:0:0:0:
448,192,73883,1,0,0:0:0:0:
320,192,73917,1,0,0:0:0:0:
192,192,73951,1,0,0:0:0:0:
448,192,73985,1,0,0:0:0:0:
64,192,74019,1,0,0:0:0:0:
192,192,74052,1,0,0:0:0:0:
320,192,74154,1,0,0:0:0:0:
448,192,74154,1,0,0:0:0:0:
64,192,74187,1,0,0:0:0:0:
192,192,74221,1,0,0:0:0:0:
448,192,74255,1,0,0:0:0:0:
64,192,74289,1,0,0:0:0:0:
320,192,74323,1,0,0:0:0:0:
64,192,74424,1,0,0:0:0:0:
192,192,74424,1,0,0:0:0:0:
448,192,74458,1,0,0:0:0:0:
320,192,74492,1,0,0:0:0:0:
192,192,74525,1,0,0:0:0:0:
64,192,74559,1,0,0:0:0:0:
448,192,74593,1,0,0:0:0:0:
64,192,74694,1,0,0:0:0:0:
320,192,74694,1,0,0:0:0:0:
192,192,74728,1,0,0:0:0:0:
320,192,74829,1,0,0:0:0:0:
64,192,74863,1,0,0:0:0:0:
320,192,74964,1,0,0:0:0:0:
448,192,74998,1,0,0:0:0:0:
192,192,75100,1,0,0:0:0:0:
64,192,75150,1,0,0:0:0:0:
192,192,75201,1,0,0:0:0:0:
320,192,75252,1,0,0:0:0:0:
448,192,75302,1,0,0:0:0:0:
320,192,75353,1,0,0:0:0:0:
192,192,75404,1,0,0:0:0:0:
448,192,75454,1,0,0:0:0:0:
64,192,75505,1,0,0:0:0:0:
192,192,75505,1,0,0:0:0:0:
320,192,75539,1,0,0:0:0:0:
192,192,75640,1,0,0:0:0:0:
64,192,75674,1,0,0:0:0:0:
192,192,75775,1,0,0:0:0:0:
448,192,75809,1,0,0:0:0:0:
320,192,75910,1,0,0:0:0:0:
448,192,75961,1,0,0:0:0:0:
320,192,76012,1,0,0:0:0:0:
192,192,76062,1,0,0:0:0:0:
64,192,76113,1,0,0:0:0:0:
192,192,76164,1,0,0:0:0:0:
448,192,76181,1,0,0:0:0:0:
320,192,76214,1,0,0:0:0:0:
64,192,76265,1,0,0:0:0:0:
320,192,76316,1,0,0:0:0:0:
448,192,76316,1,0,0:0:0:0:
192,192,76350,1,0,0:0:0:0:
192,192,76451,1,0,0:0:0:0:
448,192,76485,1,0,0:0:0:0:
448,192,76586,1,0,0:0:0:0:
64,192,76620,1,0,0:0:0:0:
192,192,76721,1,0,0:0:0:0:
320,192,76772,1,0,0:0:0:0:
64,192,76823,1,0,0:0:0:0:
320,192,76873,1,0,0:0:0:0:
192,192,76924,1,0,0:0:0:0:
64,192,76975,1,0,0:0:0:0:
448,192,77025,1,0,0:0:0:0:
64,192,77127,1,0,0:0:0:0:
320,192,77127,1,0,0:0:0:0:
192,192,77177,1,0,0:0:0:0:
448,192,77228,1,0,0:0:0:0:
192,192,77279,1,0,0:0:0:0:
320,192,77329,1,0,0:0:0:0:
448,192,77380,1,0,0:0:0:0:
64,192,77397,1,0,0:0:0:0:
192,192,77431,1,0,0:0:0:0:
320,192,77464,1,0,0:0:0:0:
64,192,77532,1,0,0:0:0:0:
448,192,77532,1,0,0:0:0:0:
64,192,77667,1,0,0:0:0:0:
320,192,77667,1,0,0:0:0:0:
64,192,77802,1,0,0:0:0:0:
448,192,77802,128,0,77937:0:0:0:0:
192,192,77937,1,0,0:0:0:0:
320,192,77937,1,0,0:0:0:0:
320,192,78073,1,0,0:0:0:0:
320,192,78208,1,0,0:0:0:0:
64,192,78343,1,0,0:0:0:0:
192,192,78343,1,0,0:0:0:0:
448,192,78410,1,0,0:0:0:0:
64,192,78478,1,0,0:0:0:0:
192,192,78478,1,0,0:0:0:0:
320,192,78546,1,0,0:0:0:0:
64,192,78613,1,0,0:0:0:0:
192,192,78613,1,0,0:0:0:0:
448,192,78681,1,0,0:0:0:0:
64,192,78748,1,0,0:0:0:0:
192,192,78748,1,0,0:0:0:0:
320,192,78748,1,0,0:0:0:0:
448,192,78883,1,0,0:0:0:0:
448,192,79019,1,0,0:0:0:0:
192,192,79154,1,0,0:0:0:0:
320,192,79154,1,0,0:0:0:0:
64,192,79221,1,0,0:0:0:0:
192,192,79289,1,0,0:0:0:0:
320,192,79289,1,0,0:0:0:0:
448,192,79356,1,0,0:0:0:0:
192,192,79424,1,0,0:0:0:0:
320,192,79424,1,0,0:0:0:0:
64,192,79492,1,0,0:0:0:0:
320,192,79559,1,0,0:0:0:0:
448,192,79559,1,0,0:0:0:0:
192,192,80167,1,0,0:0:0:0:
320,192,80345,1,0,0:0:0:0:
64,192,80598,1,0,0:0:0:0:
448,192,80775,1,0,0:0:0:0:
64,192,81181,1,0,0:0:0:0:
192,192,81181,1,0,0:0:0:0:
320,192,81181,1,0,0:0:0:0:
448,192,81248,1,0,0:0:0:0:
64,192,81316,1,0,0:0:0:0:
192,192,81316,1,0,0:0:0:0:
320,192,81383,1,0,0:0:0:0:
64,192,81451,1,0,0:0:0:0:
192,192,81451,1,0,0:0:0:0:
448,192,81519,1,0,0:0:0:0:
192,192,81586,1,0,0:0:0:0:
320,192,81586,1,0,0:0:0:0:
320,192,81721,1,0,0:0:0:0:
192,192,81856,1,0,0:0:0:0:
64,192,81992,1,0,0:0:0:0:
320,192,81992,1,0,0:0:0:0:
448,192,81992,1,0,0:0:0:0:
320,192,82127,1,0,0:0:0:0:
192,192,82262,1,0,0:0:0:0:
320,192,82397,1,0,0:0:0:0:
448,192,82397,1,0,0:0:0:0:
192,192,82464,1,0,0:0:0:0:
64,192,82532,1,0,0:0:0:0:
320,192,82532,1,0,0:0:0:0:
448,192,82600,1,0,0:0:0:0:
64,192,82667,1,0,0:0:0:0:
192,192,82667,1,0,0:0:0:0:
320,192,82735,1,0,0:0:0:0:
64,192,82802,1,0,0:0:0:0:
192,192,82802,1,0,0:0:0:0:
448,192,82870,1,0,0:0:0:0:
192,192,82937,1,0,0:0:0:0:
320,192,82937,1,0,0:0:0:0:
64,192,83005,1,0,0:0:0:0:
192,192,83073,1,0,0:0:0:0:
448,192,83073,1,0,0:0:0:0:
320,192,83140,1,0,0:0:0:0:
64,192,83208,1,0,0:0:0:0:
448,192,83208,1,0,0:0:0:0:
192,192,83275,1,0,0:0:0:0:
64,192,83343,1,0,0:0:0:0:
320,192,83343,1,0,0:0:0:0:
192,192,83410,1,0,0:0:0:0:
320,192,83478,1,0,0:0:0:0:
448,192,83478,1,0,0:0:0:0:
64,192,83546,1,0,0:0:0:0:
192,192,83613,1,0,0:0:0:0:
320,192,83613,1,0,0:0:0:0:
448,192,83613,1,0,0:0:0:0:
64,192,83681,1,0,0:0:0:0:
320,192,83748,1,0,0:0:0:0:
448,192,83748,1,0,0:0:0:0:
192,192,83816,1,0,0:0:0:0:
64,192,83883,1,0,0:0:0:0:
320,192,83883,1,0,0:0:0:0:
448,192,83951,1,0,0:0:0:0:
64,192,84019,128,0,84289:0:0:0:0:
320,192,84289,1,0,0:0:0:0:
64,192,84424,1,0,0:0:0:0:
192,192,84424,1,0,0:0:0:0:
64,192,84559,1,0,0:0:0:0:
448,192,84694,1,0,0:0:0:0:
192,192,84762,1,0,0:0:0:0:
320,192,84829,1,0,0:0:0:0:
448,192,84829,1,0,0:0:0:0:
64,192,84897,1,0,0:0:0:0:
192,192,84964,1,0,0:0:0:0:
320,192,84964,1,0,0:0:0:0:
448,192,85032,1,0,0:0:0:0:
64,192,85100,1,0,0:0:0:0:
192,192,85100,1,0,0:0:0:0:
320,192,85167,1,0,0:0:0:0:
64,192,85235,1,0,0:0:0:0:
192,192,85235,1,0,0:0:0:0:
448,192,85235,1,0,0:0:0:0:
320,192,85302,1,0,0:0:0:0:
192,192,85370,1,0,0:0:0:0:
448,192,85370,1,0,0:0:0:0:
64,192,85437,1,0,0:0:0:0:
320,192,85505,1,0,0:0:0:0:
448,192,85505,1,0,0:0:0:0:
192,192,85573,1,0,0:0:0:0:
64,192,85640,1,0,0:0:0:0:
320,192,85640,1,0,0:0:0:0:
192,192,85775,1,0,0:0:0:0:
64,192,85910,1,0,0:0:0:0:
448,192,85910,1,0,0:0:0:0:
192,192,86046,1,0,0:0:0:0:
448,192,86046,1,0,0:0:0:0:
320,192,86113,1,0,0:0:0:0:
64,192,86181,1,0,0:0:0:0:
192,192,86181,1,0,0:0:0:0:
448,192,86248,1,0,0:0:0:0:
64,192,86316,1,0,0:0:0:0:
320,192,86316,1,0,0:0:0:0:
448,192,86383,1,0,0:0:0:0:
64,192,86451,1,0,0:0:0:0:
192,192,86451,1,0,0:0:0:0:
320,192,86519,1,0,0:0:0:0:
192,192,86586,1,0,0:0:0:0:
448,192,86586,1,0,0:0:0:0:
320,192,86654,1,0,0:0:0:0:
64,192,86721,1,0,0:0:0:0:
192,192,86721,1,0,0:0:0:0:
448,192,86789,1,0,0:0:0:0:
64,192,86856,1,0,0:0:0:0:
192,192,86856,1,0,0:0:0:0:
320,192,86856,1,0,0:0:0:0:
448,192,86924,1,0,0:0:0:0:
192,192,86992,1,0,0:0:0:0:
320,192,86992,1,0,0:0:0:0:
64,192,87059,1,0,0:0:0:0:
320,192,87127,1,0,0:0:0:0:
448,192,87127,1,0,0:0:0:0:
64,192,87194,1,0,0:0:0:0:
192,192,87194,1,0,0:0:0:0:
320,192,87262,1,0,0:0:0:0:
448,192,87262,1,0,0:0:0:0:
64,192,87397,1,0,0:0:0:0:
192,192,87397,1,0,0:0:0:0:
448,192,87532,1,0,0:0:0:0:
192,192,87667,1,0,0:0:0:0:
320,192,87667,1,0,0:0:0:0:
64,192,87718,1,0,0:0:0:0:
448,192,87769,1,0,0:0:0:0:
320,192,87819,1,0,0:0:0:0:
192,192,87870,1,0,0:0:0:0:
320,192,87937,1,0,0:0:0:0:
448,192,88005,1,0,0:0:0:0:
64,192,88073,1,0,0:0:0:0:
192,192,88140,1,0,0:0:0:0:
64,192,88208,1,0,0:0:0:0:
320,192,88208,1,0,0:0:0:0:
448,192,88275,1,0,0:0:0:0:
192,192,88343,1,0,0:0:0:0:
320,192,88343,1,0,0:0:0:0:
64,192,88410,1,0,0:0:0:0:
192,192,88478,1,0,0:0:0:0:
320,192,88478,1,0,0:0:0:0:
448,192,88478,1,0,0:0:0:0:
64,192,88546,1,0,0:0:0:0:
320,192,88613,1,0,0:0:0:0:
448,192,88613,1,0,0:0:0:0:
192,192,88681,1,0,0:0:0:0:
64,192,88748,1,0,0:0:0:0:
320,192,88748,1,0,0:0:0:0:
448,192,88816,1,0,0:0:0:0:
64,192,88883,1,0,0:0:0:0:
192,192,88917,1,0,0:0:0:0:
320,192,88951,1,0,0:0:0:0:
192,192,88985,1,0,0:0:0:0:
64,192,89019,1,0,0:0:0:0:
320,192,89154,1,0,0:0:0:0:
448,192,89154,1,0,0:0:0:0:
64,192,89289,1,0,0:0:0:0:
448,192,89289,1,0,0:0:0:0:
64,192,89424,1,0,0:0:0:0:
320,192,89559,1,0,0:0:0:0:
192,192,89694,1,0,0:0:0:0:
192,192,89829,1,0,0:0:0:0:
448,192,89897,1,0,0:0:0:0:
64,192,89964,1,0,0:0:0:0:
320,192,89964,1,0,0:0:0:0:
192,192,90032,1,0,0:0:0:0:
64,192,90100,1,0,0:0:0:0:
320,192,90100,1,0,0:0:0:0:
448,192,90100,1,0,0:0:0:0:
192,192,90167,1,0,0:0:0:0:
320,192,90235,1,0,0:0:0:0:
448,192,90235,1,0,0:0:0:0:
64,192,90302,1,0,0:0:0:0:
320,192,90370,1,0,0:0:0:0:
448,192,90370,1,0,0:0:0:0:
192,192,90437,1,0,0:0:0:0:
448,192,90505,1,0,0:0:0:0:
320,192,90539,1,0,0:0:0:0:
192,192,90573,1,0,0:0:0:0:
320,192,90606,1,0,0:0:0:0:
448,192,90640,1,0,0:0:0:0:
64,192,90775,1,0,0:0:0:0:
192,192,90910,1,0,0:0:0:0:
320,192,90910,1,0,0:0:0:0:
320,192,91046,1,0,0:0:0:0:
64,192,91181,1,0,0:0:0:0:
192,192,91316,1,0,0:0:0:0:
192,192,91451,1,0,0:0:0:0:
320,192,91586,1,0,0:0:0:0:
448,192,91586,1,0,0:0:0:0:
64,192,91654,1,0,0:0:0:0:
192,192,91721,1,0,0:0:0:0:
320,192,91721,1,0,0:0:0:0:
448,192,91721,1,0,0:0:0:0:
64,192,91789,1,0,0:0:0:0:
192,192,91856,1,0,0:0:0:0:
320,192,91856,1,0,0:0:0:0:
448,192,91924,1,0,0:0:0:0:
64,192,91992,1,0,0:0:0:0:
320,192,91992,1,0,0:0:0:0:
448,192,92059,1,0,0:0:0:0:
64,192,92127,1,0,0:0:0:0:
192,192,92127,1,0,0:0:0:0:
320,192,92194,1,0,0:0:0:0:
448,192,92262,1,0,0:0:0:0:
192,192,92329,1,0,0:0:0:0:
64,192,92397,1,0,0:0:0:0:
320,192,92397,1,0,0:0:0:0:
192,192,92456,1,0,0:0:0:0:
320,192,92507,1,0,0:0:0:0:
448,192,92507,1,0,0:0:0:0:
64,192,92633,1,0,0:0:0:0:
448,192,92633,1,0,0:0:0:0:
320,192,92760,1,0,0:0:0:0:
448,192,92760,1,0,0:0:0:0:
192,192,92912,1,0,0:0:0:0:
448,192,92912,1,0,0:0:0:0:
64,192,93013,1,0,0:0:0:0:
320,192,93013,1,0,0:0:0:0:
192,192,93166,1,0,0:0:0:0:
320,192,93166,1,0,0:0:0:0:
192,192,93318,1,0,0:0:0:0:
448,192,93318,1,0,0:0:0:0:
320,192,93377,1,0,0:0:0:0:
64,192,93444,1,0,0:0:0:0:
192,192,93444,1,0,0:0:0:0:
64,192,93579,1,0,0:0:0:0:
448,192,93579,1,0,0:0:0:0:
192,192,93748,1,0,0:0:0:0:
320,192,93748,1,0,0:0:0:0:
448,192,93799,1,0,0:0:0:0:
64,192,93850,1,0,0:0:0:0:
192,192,93900,1,0,0:0:0:0:
320,192,93951,1,0,0:0:0:0:
64,192,94002,1,0,0:0:0:0:
448,192,94052,1,0,0:0:0:0:
320,192,94103,1,0,0:0:0:0:
64,192,94154,1,0,0:0:0:0:
192,192,94154,1,0,0:0:0:0:
448,192,94221,1,0,0:0:0:0:
192,192,94289,1,0,0:0:0:0:
320,192,94289,1,0,0:0:0:0:
64,192,94424,1,0,0:0:0:0:
320,192,94424,1,0,0:0:0:0:
192,192,94559,1,0,0:0:0:0:
448,192,94559,1,0,0:0:0:0:
192,192,94694,1,0,0:0:0:0:
320,192,94694,1,0,0:0:0:0:
320,192,94829,1,0,0:0:0:0:
448,192,94829,1,0,0:0:0:0:
64,192,94964,1,0,0:0:0:0:
192,192,94964,1,0,0:0:0:0:
448,192,94964,1,0,0:0:0:0:
192,192,95100,1,0,0:0:0:0:
320,192,95100,1,0,0:0:0:0:
320,192,95235,1,0,0:0:0:0:
448,192,95235,1,0,0:0:0:0:
64,192,95370,1,0,0:0:0:0:
192,192,95370,1,0,0:0:0:0:
448,192,95437,1,0,0:0:0:0:
192,192,95505,1,0,0:0:0:0:
320,192,95505,1,0,0:0:0:0:
64,192,95573,1,0,0:0:0:0:
320,192,95640,1,0,0:0:0:0:
448,192,95640,1,0,0:0:0:0:
192,192,95708,1,0,0:0:0:0:
320,192,95775,1,0,0:0:0:0:
448,192,95775,1,0,0:0:0:0:
64,192,95843,1,0,0:0:0:0:
192,192,95910,1,0,0:0:0:0:
320,192,95910,1,0,0:0:0:0:
64,192,96046,1,0,0:0:0:0:
192,192,96046,1,0,0:0:0:0:
320,192,96181,1,0,0:0:0:0:
448,192,96181,1,0,0:0:0:0:
192,192,96316,1,0,0:0:0:0:
320,192,96316,1,0,0:0:0:0:
64,192,96451,1,0,0:0:0:0:
192,192,96451,1,0,0:0:0:0:
64,192,96586,1,0,0:0:0:0:
320,192,96586,1,0,0:0:0:0:
448,192,96586,1,0,0:0:0:0:
192,192,96721,1,0,0:0:0:0:
320,192,96721,1,0,0:0:0:0:
192,192,96856,1,0,0:0:0:0:
448,192,96856,1,0,0:0:0:0:
64,192,96992,1,0,0:0:0:0:
448,192,96992,1,0,0:0:0:0:
192,192,97127,1,0,0:0:0:0:
320,192,97262,1,0,0:0:0:0:
64,192,97397,1,0,0:0:0:0:
192,192,97397,1,0,0:0:0:0:
320,192,97464,1,0,0:0:0:0:
448,192,97532,1,0,0:0:0:0:
448,192,97667,1,0,0:0:0:0:
448,192,97802,1,0,0:0:0:0:
448,192,97937,1,0,0:0:0:0:
64,192,98073,1,0,0:0:0:0:
448,192,98073,1,0,0:0:0:0:
64,192,98208,1,0,0:0:0:0:
192,192,98208,1,0,0:0:0:0:
320,192,98208,1,0,0:0:0:0:
192,192,98343,1,0,0:0:0:0:
448,192,98343,1,0,0:0:0:0:
320,192,98478,1,0,0:0:0:0:
448,192,98478,1,0,0:0:0:0:
64,192,98613,1,0,0:0:0:0:
192,192,98613,1,0,0:0:0:0:
448,192,98681,1,0,0:0:0:0:
64,192,98748,1,0,0:0:0:0:
320,192,98748,1,0,0:0:0:0:
448,192,98816,1,0,0:0:0:0:
192,192,98883,1,0,0:0:0:0:
320,192,98883,1,0,0:0:0:0:
64,192,98951,1,0,0:0:0:0:
192,192,99019,1,0,0:0:0:0:
320,192,99019,1,0,0:0:0:0:
448,192,99086,1,0,0:0:0:0:
64,192,99154,1,0,0:0:0:0:
192,192,99154,1,0,0:0:0:0:
64,192,99289,1,0,0:0:0:0:
448,192,99289,1,0,0:0:0:0:
192,192,99424,1,0,0:0:0:0:
320,192,99424,1,0,0:0:0:0:
320,192,99559,1,0,0:0:0:0:
448,192,99559,1,0,0:0:0:0:
64,192,99694,1,0,0:0:0:0:
448,192,99694,1,0,0:0:0:0:
64,192,99829,1,0,0:0:0:0:
192,192,99829,1,0,0:0:0:0:
448,192,99829,1,0,0:0:0:0:
192,192,99964,1,0,0:0:0:0:
320,192,99964,1,0,0:0:0:0:
320,192,100100,1,0,0:0:0:0:
448,192,100100,1,0,0:0:0:0:
192,192,100235,1,0,0:0:0:0:
320,192,100269,1,0,0:0:0:0:
448,192,100302,1,0,0:0:0:0:
64,192,100370,1,0,0:0:0:0:
192,192,100404,1,0,0:0:0:0:
448,192,100437,1,0,0:0:0:0:
320,192,100505,1,0,0:0:0:0:
192,192,100539,1,0,0:0:0:0:
64,192,100573,1,0,0:0:0:0:
320,192,100640,1,0,0:0:0:0:
448,192,100640,1,0,0:0:0:0:
192,192,100708,1,0,0:0:0:0:
64,192,100775,1,0,0:0:0:0:
320,192,100775,1,0,0:0:0:0:
320,192,100910,1,0,0:0:0:0:
448,192,100910,1,0,0:0:0:0:
64,192,101046,1,0,0:0:0:0:
192,192,101046,1,0,0:0:0:0:
192,192,101181,1,0,0:0:0:0:
448,192,101181,1,0,0:0:0:0:
64,192,101316,1,0,0:0:0:0:
192,192,101316,1,0,0:0:0:0:
64,192,101451,1,0,0:0:0:0:
320,192,101451,1,0,0:0:0:0:
448,192,101451,1,0,0:0:0:0:
320,192,101586,1,0,0:0:0:0:
448,192,101586,1,0,0:0:0:0:
320,192,101721,1,0,0:0:0:0:
448,192,101721,1,0,0:0:0:0:
64,192,101856,1,0,0:0:0:0:
192,192,101856,1,0,0:0:0:0:
320,192,101924,1,0,0:0:0:0:
192,192,101992,1,0,0:0:0:0:
448,192,101992,1,0,0:0:0:0:
320,192,102059,1,0,0:0:0:0:
64,192,102127,1,0,0:0:0:0:
448,192,102127,1,0,0:0:0:0:
320,192,102194,1,0,0:0:0:0:
64,192,102262,1,0,0:0:0:0:
192,192,102262,1,0,0:0:0:0:
448,192,102329,1,0,0:0:0:0:
64,192,102397,1,0,0:0:0:0:
192,192,102397,1,0,0:0:0:0:
64,192,102532,1,0,0:0:0:0:
192,192,102532,1,0,0:0:0:0:
320,192,102667,1,0,0:0:0:0:
448,192,102667,1,0,0:0:0:0:
192,192,102802,1,0,0:0:0:0:
64,192,102937,1,0,0:0:0:0:
320,192,102937,1,0,0:0:0:0:
64,192,103073,1,0,0:0:0:0:
192,192,103073,1,0,0:0:0:0:
448,192,103073,1,0,0:0:0:0:
64,192,103208,1,0,0:0:0:0:
320,192,103208,1,0,0:0:0:0:
448,192,103208,1,0,0:0:0:0:
192,192,103343,1,0,0:0:0:0:
320,192,103343,1,0,0:0:0:0:
64,192,103478,1,0,0:0:0:0:
448,192,103503,1,0,0:0:0:0:
192,192,103529,1,0,0:0:0:0:
320,192,103748,1,0,0:0:0:0:
64,192,103883,1,0,0:0:0:0:
192,192,103883,1,0,0:0:0:0:
448,192,103951,1,0,0:0:0:0:
192,192,104019,1,0,0:0:0:0:
320,192,104019,1,0,0:0:0:0:
320,192,104154,1,0,0:0:0:0:
448,192,104154,1,0,0:0:0:0:
64,192,104289,1,0,0:0:0:0:
448,192,104289,128,0,104424:0:0:0:0:
192,192,104424,1,0,0:0:0:0:
64,192,104559,1,0,0:0:0:0:
320,192,104559,1,0,0:0:0:0:
192,192,104694,1,0,0:0:0:0:
320,192,104694,1,0,0:0:0:0:
448,192,104694,1,0,0:0:0:0:
64,192,104829,1,0,0:0:0:0:
192,192,104829,1,0,0:0:0:0:
320,192,104964,1,0,0:0:0:0:
448,192,104964,1,0,0:0:0:0:
64,192,105100,1,0,0:0:0:0:
448,192,105100,1,0,0:0:0:0:
192,192,105167,1,0,0:0:0:0:
320,192,105235,1,0,0:0:0:0:
448,192,105235,1,0,0:0:0:0:
192,192,105302,1,0,0:0:0:0:
64,192,105370,1,0,0:0:0:0:
320,192,105370,1,0,0:0:0:0:
448,192,105437,1,0,0:0:0:0:
64,192,105505,1,0,0:0:0:0:
320,192,105505,1,0,0:0:0:0:
192,192,105640,1,0,0:0:0:0:
192,192,105758,1,0,0:0:0:0:
448,192,105910,1,0,0:0:0:0:
448,192,106046,1,0,0:0:0:0:
192,192,106164,1,0,0:0:0:0:
320,192,106316,1,0,0:0:0:0:
64,192,106586,1,0,0:0:0:0:
448,192,106856,1,0,0:0:0:0:
64,192,107127,1,0,0:0:0:0:
192,192,107127,1,0,0:0:0:0:
320,192,107127,1,0,0:0:0:0:
448,192,107127,1,0,0:0:0:0:
192,192,108208,1,0,0:0:0:0:
192,192,108368,1,0,0:0:0:0:
320,192,108647,1,0,0:0:0:0:
64,192,108799,1,0,0:0:0:0:
64,192,109027,1,0,0:0:0:0:
64,192,109179,1,0,0:0:0:0:
448,192,109407,1,0,0:0:0:0:
64,192,109559,1,0,0:0:0:0:
320,192,109964,128,0,110370:0:0:0:0:
192,192,110370,1,0,0:0:0:0:
320,192,110775,128,0,111181:0:0:0:0:
192,192,111181,1,0,0:0:0:0:
192,192,111451,1,0,0:0:0:0:
320,192,111586,1,0,0:0:0:0:
192,192,111814,1,0,0:0:0:0:
320,192,112017,1,0,0:0:0:0:
192,192,112296,1,0,0:0:0:0:
320,192,112448,1,0,0:0:0:0:
192,192,112701,1,0,0:0:0:0:
320,192,112853,1,0,0:0:0:0:
448,192,113106,1,0,0:0:0:0:
64,192,113258,1,0,0:0:0:0:
320,192,113613,1,0,0:0:0:0:
448,192,113883,1,0,0:0:0:0:
64,192,114019,128,0,114424:0:0:0:0:
320,192,114424,1,0,0:0:0:0:
448,192,114694,1,0,0:0:0:0:
192,192,114728,1,0,0:0:0:0:
320,192,114897,1,0,0:0:0:0:
192,192,115100,1,0,0:0:0:0:
448,192,115302,1,0,0:0:0:0:
448,192,115505,1,0,0:0:0:0:
448,192,115691,1,0,0:0:0:0:
64,192,115927,1,0,0:0:0:0:
448,192,116113,1,0,0:0:0:0:
192,192,116502,1,0,0:0:0:0:
320,192,116856,1,0,0:0:0:0:
192,192,117262,128,0,117667:0:0:0:0:
320,192,117667,1,0,0:0:0:0:
64,192,117937,1,0,0:0:0:0:
64,192,118098,1,0,0:0:0:0:
64,192,118343,1,0,0:0:0:0:
448,192,118478,128,0,118782:0:0:0:0:
192,192,118934,1,0,0:0:0:0:
320,192,119187,1,0,0:0:0:0:
64,192,119339,1,0,0:0:0:0:
192,192,119568,1,0,0:0:0:0:
192,192,119770,1,0,0:0:0:0:
448,192,120024,1,0,0:0:0:0:
64,192,120269,1,0,0:0:0:0:
192,192,120302,1,0,0:0:0:0:
320,192,120336,1,0,0:0:0:0:
448,192,120370,1,0,0:0:0:0:
64,192,120404,128,0,120792:0:0:0:0:
320,192,120792,1,0,0:0:0:0:
192,192,120910,128,0,121316:0:0:0:0:
448,192,120910,128,0,121046:0:0:0:0:
320,192,121214,1,0,0:0:0:0:
64,192,121350,1,0,0:0:0:0:
64,192,121586,1,0,0:0:0:0:
64,192,121721,1,0,0:0:0:0:
448,192,121721,1,0,0:0:0:0:
192,192,121789,1,0,0:0:0:0:
320,192,121856,1,0,0:0:0:0:
448,192,121924,1,0,0:0:0:0:
64,192,121992,1,0,0:0:0:0:
448,192,122127,1,0,0:0:0:0:
320,192,122194,1,0,0:0:0:0:
192,192,122262,1,0,0:0:0:0:
64,192,122329,1,0,0:0:0:0:
448,192,122397,1,0,0:0:0:0:
64,192,122532,1,0,0:0:0:0:
192,192,122532,1,0,0:0:0:0:
320,192,122600,1,0,0:0:0:0:
448,192,122667,1,0,0:0:0:0:
192,192,122735,1,0,0:0:0:0:
320,192,122802,1,0,0:0:0:0:
64,192,122870,1,0,0:0:0:0:
192,192,122937,1,0,0:0:0:0:
64,192,123005,1,0,0:0:0:0:
320,192,123073,1,0,0:0:0:0:
192,192,123140,1,0,0:0:0:0:
64,192,123208,1,0,0:0:0:0:
448,192,123208,1,0,0:0:0:0:
320,192,123275,1,0,0:0:0:0:
192,192,123343,1,0,0:0:0:0:
448,192,123343,1,0,0:0:0:0:
64,192,123571,1,0,0:0:0:0:
64,192,123748,1,0,0:0:0:0:
320,192,123976,1,0,0:0:0:0:
448,192,124154,1,0,0:0:0:0:
192,192,124179,1,0,0:0:0:0:
448,192,124407,1,0,0:0:0:0:
64,192,124559,1,0,0:0:0:0:
64,192,124812,1,0,0:0:0:0:
320,192,124964,1,0,0:0:0:0:
448,192,124964,1,0,0:0:0:0:
192,192,125032,1,0,0:0:0:0:
64,192,125100,1,0,0:0:0:0:
448,192,125167,1,0,0:0:0:0:
320,192,125235,1,0,0:0:0:0:
192,192,125370,1,0,0:0:0:0:
320,192,125437,1,0,0:0:0:0:
448,192,125505,1,0,0:0:0:0:
64,192,125573,1,0,0:0:0:0:
192,192,125640,1,0,0:0:0:0:
320,192,125640,1,0,0:0:0:0:
64,192,125775,1,0,0:0:0:0:
448,192,125775,1,0,0:0:0:0:
320,192,125843,1,0,0:0:0:0:
192,192,125910,1,0,0:0:0:0:
64,192,125978,1,0,0:0:0:0:
192,192,126046,1,0,0:0:0:0:
320,192,126113,1,0,0:0:0:0:
448,192,126181,1,0,0:0:0:0:
320,192,126248,1,0,0:0:0:0:
192,192,126316,1,0,0:0:0:0:
64,192,126383,1,0,0:0:0:0:
320,192,126451,1,0,0:0:0:0:
448,192,126451,1,0,0:0:0:0:
64,192,126586,1,0,0:0:0:0:
192,192,126586,1,0,0:0:0:0:
448,192,126789,1,0,0:0:0:0:
448,192,126992,1,0,0:0:0:0:
64,192,127093,1,0,0:0:0:0:
320,192,127144,1,0,0:0:0:0:
192,192,127194,1,0,0:0:0:0:
64,192,127262,1,0,0:0:0:0:
448,192,127262,1,0,0:0:0:0:
64,192,127397,1,0,0:0:0:0:
192,192,127397,1,0,0:0:0:0:
320,192,127667,1,0,0:0:0:0:
448,192,127667,1,0,0:0:0:0:
192,192,127802,1,0,0:0:0:0:
192,192,128039,1,0,0:0:0:0:
64,192,128208,1,0,0:0:0:0:
448,192,128208,1,0,0:0:0:0:
320,192,128258,1,0,0:0:0:0:
192,192,128309,1,0,0:0:0:0:
320,192,128478,1,0,0:0:0:0:
64,192,128613,1,0,0:0:0:0:
448,192,128613,1,0,0:0:0:0:
192,192,128664,1,0,0:0:0:0:
320,192,128714,1,0,0:0:0:0:
64,192,128883,1,0,0:0:0:0:
320,192,129019,1,0,0:0:0:0:
448,192,129019,1,0,0:0:0:0:
64,192,129221,1,0,0:0:0:0:
320,192,129272,1,0,0:0:0:0:
192,192,129323,1,0,0:0:0:0:
64,192,129390,1,0,0:0:0:0:
448,192,129458,1,0,0:0:0:0:
320,192,129525,1,0,0:0:0:0:
64,192,129694,1,0,0:0:0:0:
192,192,129694,1,0,0:0:0:0:
192,192,129829,1,0,0:0:0:0:
448,192,129829,1,0,0:0:0:0:
320,192,129880,1,0,0:0:0:0:
64,192,129931,1,0,0:0:0:0:
320,192,130100,1,0,0:0:0:0:
192,192,130235,1,0,0:0:0:0:
448,192,130235,1,0,0:0:0:0:
64,192,130285,1,0,0:0:0:0:
320,192,130336,1,0,0:0:0:0:
192,192,130640,1,0,0:0:0:0:
320,192,130640,1,0,0:0:0:0:
448,192,130792,1,0,0:0:0:0:
64,192,130843,1,0,0:0:0:0:
448,192,130894,1,0,0:0:0:0:
64,192,130944,1,0,0:0:0:0:
192,192,130995,1,0,0:0:0:0:
320,192,131062,1,0,0:0:0:0:
448,192,131130,1,0,0:0:0:0:
192,192,131198,1,0,0:0:0:0:
320,192,131282,1,0,0:0:0:0:
64,192,131451,1,0,0:0:0:0:
192,192,131451,1,0,0:0:0:0:
448,192,131502,1,0,0:0:0:0:
320,192,131552,1,0,0:0:0:0:
64,192,131620,1,0,0:0:0:0:
448,192,131687,1,0,0:0:0:0:
192,192,131755,1,0,0:0:0:0:
320,192,131856,1,0,0:0:0:0:
448,192,131856,1,0,0:0:0:0:
64,192,131907,1,0,0:0:0:0:
192,192,131958,1,0,0:0:0:0:
320,192,132025,1,0,0:0:0:0:
192,192,132093,1,0,0:0:0:0:
64,192,132127,1,0,0:0:0:0:
448,192,132127,1,0,0:0:0:0:
64,192,132262,1,0,0:0:0:0:
192,192,132262,1,0,0:0:0:0:
320,192,132312,1,0,0:0:0:0:
448,192,132363,1,0,0:0:0:0:
192,192,132515,1,0,0:0:0:0:
64,192,132667,1,0,0:0:0:0:
448,192,132667,1,0,0:0:0:0:
320,192,132718,1,0,0:0:0:0:
192,192,132769,1,0,0:0:0:0:
320,192,132937,1,0,0:0:0:0:
448,192,132937,1,0,0:0:0:0:
320,192,133073,1,0,0:0:0:0:
448,192,133073,1,0,0:0:0:0:
320,192,133478,1,0,0:0:0:0:
64,192,133714,1,0,0:0:0:0:
320,192,133883,1,0,0:0:0:0:
192,192,134137,1,0,0:0:0:0:
448,192,134289,1,0,0:0:0:0:
448,192,134559,1,0,0:0:0:0:
64,192,134694,1,0,0:0:0:0:
192,192,134694,1,0,0:0:0:0:
448,192,134762,1,0,0:0:0:0:
64,192,134829,1,0,0:0:0:0:
448,192,134897,1,0,0:0:0:0:
64,192,134964,1,0,0:0:0:0:
192,192,135100,1,0,0:0:0:0:
320,192,135100,1,0,0:0:0:0:
64,192,135167,1,0,0:0:0:0:
320,192,135235,1,0,0:0:0:0:
64,192,135302,1,0,0:0:0:0:
320,192,135370,1,0,0:0:0:0:
64,192,135505,1,0,0:0:0:0:
192,192,135505,1,0,0:0:0:0:
448,192,135505,1,0,0:0:0:0:
320,192,135573,1,0,0:0:0:0:
192,192,135640,1,0,0:0:0:0:
320,192,135708,1,0,0:0:0:0:
192,192,135775,1,0,0:0:0:0:
320,192,135843,1,0,0:0:0:0:
192,192,135910,1,0,0:0:0:0:
448,192,135910,1,0,0:0:0:0:
64,192,135978,1,0,0:0:0:0:
192,192,136046,1,0,0:0:0:0:
320,192,136046,1,0,0:0:0:0:
64,192,136113,1,0,0:0:0:0:
320,192,136181,1,0,0:0:0:0:
448,192,136181,1,0,0:0:0:0:
192,192,136248,1,0,0:0:0:0:
320,192,136316,1,0,0:0:0:0:
448,192,136316,1,0,0:0:0:0:
64,192,136383,1,0,0:0:0:0:
192,192,136451,1,0,0:0:0:0:
320,192,136586,1,0,0:0:0:0:
448,192,136586,1,0,0:0:0:0:
64,192,136721,1,0,0:0:0:0:
448,192,136721,1,0,0:0:0:0:
192,192,136789,1,0,0:0:0:0:
320,192,136856,1,0,0:0:0:0:
64,192,136992,1,0,0:0:0:0:
192,192,136992,1,0,0:0:0:0:
64,192,137127,1,0,0:0:0:0:
448,192,137127,1,0,0:0:0:0:
320,192,137194,1,0,0:0:0:0:
192,192,137262,1,0,0:0:0:0:
64,192,137397,1,0,0:0:0:0:
320,192,137397,1,0,0:0:0:0:
192,192,137464,1,0,0:0:0:0:
320,192,137532,1,0,0:0:0:0:
448,192,137532,1,0,0:0:0:0:
64,192,137566,1,0,0:0:0:0:
192,192,137600,1,0,0:0:0:0:
320,192,137667,1,0,0:0:0:0:
64,192,137701,1,0,0:0:0:0:
448,192,137735,1,0,0:0:0:0:
320,192,137802,1,0,0:0:0:0:
192,192,137836,1,0,0:0:0:0:
64,192,137870,1,0,0:0:0:0:
320,192,137937,1,0,0:0:0:0:
448,192,137937,1,0,0:0:0:0:
192,192,138005,1,0,0:0:0:0:
64,192,138073,1,0,0:0:0:0:
448,192,138073,1,0,0:0:0:0:
320,192,138140,1,0,0:0:0:0:
64,192,138208,1,0,0:0:0:0:
192,192,138343,1,0,0:0:0:0:
320,192,138343,1,0,0:0:0:0:
448,192,138410,1,0,0:0:0:0:
192,192,138478,1,0,0:0:0:0:
448,192,138546,1,0,0:0:0:0:
64,192,138613,1,0,0:0:0:0:
192,192,138613,1,0,0:0:0:0:
64,192,138748,1,0,0:0:0:0:
320,192,138748,1,0,0:0:0:0:
448,192,138748,1,0,0:0:0:0:
192,192,138816,1,0,0:0:0:0:
448,192,138883,1,0,0:0:0:0:
192,192,138951,1,0,0:0:0:0:
448,192,139019,1,0,0:0:0:0:
192,192,139086,1,0,0:0:0:0:
320,192,139154,1,0,0:0:0:0:
448,192,139154,1,0,0:0:0:0:
64,192,139221,1,0,0:0:0:0:
192,192,139289,1,0,0:0:0:0:
320,192,139289,1,0,0:0:0:0:
448,192,139356,1,0,0:0:0:0:
64,192,139424,1,0,0:0:0:0:
320,192,139424,1,0,0:0:0:0:
192,192,139492,1,0,0:0:0:0:
64,192,139559,1,0,0:0:0:0:
320,192,139559,1,0,0:0:0:0:
448,192,139627,1,0,0:0:0:0:
64,192,139694,1,0,0:0:0:0:
320,192,139829,1,0,0:0:0:0:
448,192,139829,1,0,0:0:0:0:
64,192,139964,1,0,0:0:0:0:
320,192,139964,1,0,0:0:0:0:
192,192,140032,1,0,0:0:0:0:
448,192,140100,1,0,0:0:0:0:
64,192,140167,1,0,0:0:0:0:
192,192,140167,1,0,0:0:0:0:
320,192,140235,1,0,0:0:0:0:
448,192,140235,1,0,0:0:0:0:
64,192,140370,1,0,0:0:0:0:
192,192,140370,1,0,0:0:0:0:
320,192,140370,1,0,0:0:0:0:
448,192,140437,1,0,0:0:0:0:
192,192,140505,1,0,0:0:0:0:
320,192,140573,1,0,0:0:0:0:
64,192,140640,1,0,0:0:0:0:
448,192,140640,1,0,0:0:0:0:
192,192,140775,1,0,0:0:0:0:
320,192,140775,1,0,0:0:0:0:
448,192,140809,1,0,0:0:0:0:
64,192,140843,1,0,0:0:0:0:
192,192,140910,1,0,0:0:0:0:
320,192,140944,1,0,0:0:0:0:
448,192,140978,1,0,0:0:0:0:
192,192,141046,1,0,0:0:0:0:
320,192,141079,1,0,0:0:0:0:
64,192,141113,1,0,0:0:0:0:
192,192,141181,1,0,0:0:0:0:
448,192,141181,1,0,0:0:0:0:
320,192,141248,1,0,0:0:0:0:
64,192,141316,1,0,0:0:0:0:
192,192,141316,1,0,0:0:0:0:
192,192,141451,1,0,0:0:0:0:
64,192,141586,1,0,0:0:0:0:
320,192,141586,1,0,0:0:0:0:
192,192,141654,1,0,0:0:0:0:
320,192,141721,1,0,0:0:0:0:
448,192,141721,1,0,0:0:0:0:
320,192,141856,1,0,0:0:0:0:
64,192,141992,1,0,0:0:0:0:
192,192,141992,1,0,0:0:0:0:
448,192,141992,1,0,0:0:0:0:
64,192,142127,1,0,0:0:0:0:
320,192,142262,1,0,0:0:0:0:
448,192,142262,1,0,0:0:0:0:
192,192,142296,1,0,0:0:0:0:
64,192,142397,1,0,0:0:0:0:
320,192,142397,1,0,0:0:0:0:
448,192,142464,1,0,0:0:0:0:
192,192,142532,1,0,0:0:0:0:
64,192,142600,1,0,0:0:0:0:
192,192,142667,1,0,0:0:0:0:
448,192,142667,1,0,0:0:0:0:
320,192,142735,1,0,0:0:0:0:
64,192,142802,1,0,0:0:0:0:
192,192,142802,1,0,0:0:0:0:
448,192,142870,1,0,0:0:0:0:
64,192,142937,1,0,0:0:0:0:
320,192,142937,1,0,0:0:0:0:
64,192,143073,1,0,0:0:0:0:
320,192,143208,1,0,0:0:0:0:
448,192,143208,1,0,0:0:0:0:
192,192,143275,1,0,0:0:0:0:
64,192,143343,1,0,0:0:0:0:
448,192,143343,1,0,0:0:0:0:
448,192,143478,1,0,0:0:0:0:
64,192,143613,1,0,0:0:0:0:
192,192,143613,1,0,0:0:0:0:
320,192,143613,1,0,0:0:0:0:
192,192,143748,1,0,0:0:0:0:
192,192,143883,1,0,0:0:0:0:
320,192,143917,1,0,0:0:0:0:
448,192,144019,1,0,0:0:0:0:
64,192,144052,1,0,0:0:0:0:
192,192,144086,1,0,0:0:0:0:
320,192,144154,1,0,0:0:0:0:
448,192,144187,1,0,0:0:0:0:
64,192,144221,1,0,0:0:0:0:
320,192,144289,1,0,0:0:0:0:
192,192,144323,1,0,0:0:0:0:
64,192,144356,1,0,0:0:0:0:
320,192,144424,1,0,0:0:0:0:
448,192,144424,1,0,0:0:0:0:
192,192,144492,1,0,0:0:0:0:
448,192,144559,1,0,0:0:0:0:
448,192,144694,1,0,0:0:0:0:
64,192,144829,1,0,0:0:0:0:
192,192,144829,1,0,0:0:0:0:
320,192,144897,1,0,0:0:0:0:
64,192,144964,1,0,0:0:0:0:
320,192,145100,1,0,0:0:0:0:
448,192,145100,1,0,0:0:0:0:
192,192,145167,1,0,0:0:0:0:
64,192,145235,1,0,0:0:0:0:
320,192,145235,1,0,0:0:0:0:
448,192,145302,1,0,0:0:0:0:
192,192,145370,1,0,0:0:0:0:
192,192,145505,1,0,0:0:0:0:
320,192,145505,1,0,0:0:0:0:
64,192,145640,1,0,0:0:0:0:
320,192,145640,1,0,0:0:0:0:
192,192,145708,1,0,0:0:0:0:
64,192,145775,1,0,0:0:0:0:
320,192,145843,1,0,0:0:0:0:
192,192,145910,1,0,0:0:0:0:
448,192,145910,1,0,0:0:0:0:
64,192,145978,1,0,0:0:0:0:
192,192,146046,128,0,146316:0:0:0:0:
448,192,146046,128,0,146316:0:0:0:0:
64,192,146316,1,0,0:0:0:0:
320,192,146451,128,0,146586:0:0:0:0:
64,192,146856,128,0,146992:0:0:0:0:
448,192,147127,128,0,147262:0:0:0:0:
192,192,149289,128,0,150910:0:0:0:0:
64,192,150910,1,0,0:0:0:0:
320,192,150910,1,0,0:0:0:0:
448,192,150910,1,0,0:0:0:0:
192,192,151046,1,0,0:0:0:0:
320,192,151079,1,0,0:0:0:0:
64,192,151181,1,0,0:0:0:0:
320,192,151214,1,0,0:0:0:0:
192,192,151316,1,0,0:0:0:0:
320,192,151367,1,0,0:0:0:0:
448,192,151417,1,0,0:0:0:0:
320,192,151468,1,0,0:0:0:0:
64,192,151569,1,0,0:0:0:0:
448,192,151620,1,0,0:0:0:0:
64,192,151671,1,0,0:0:0:0:
192,192,151721,1,0,0:0:0:0:
320,192,151721,1,0,0:0:0:0:
448,192,151856,1,0,0:0:0:0:
192,192,151890,1,0,0:0:0:0:
64,192,151992,1,0,0:0:0:0:
192,192,152025,1,0,0:0:0:0:
320,192,152127,1,0,0:0:0:0:
448,192,152177,1,0,0:0:0:0:
320,192,152228,1,0,0:0:0:0:
192,192,152279,1,0,0:0:0:0:
320,192,152380,1,0,0:0:0:0:
448,192,152397,1,0,0:0:0:0:
192,192,152431,1,0,0:0:0:0:
64,192,152481,1,0,0:0:0:0:
192,192,152532,1,0,0:0:0:0:
448,192,152532,1,0,0:0:0:0:
320,192,152566,1,0,0:0:0:0:
448,192,152667,1,0,0:0:0:0:
192,192,152701,1,0,0:0:0:0:
320,192,152802,1,0,0:0:0:0:
448,192,152836,1,0,0:0:0:0:
64,192,152937,1,0,0:0:0:0:
192,192,152988,1,0,0:0:0:0:
64,192,153039,1,0,0:0:0:0:
320,192,153089,1,0,0:0:0:0:
448,192,153208,1,0,0:0:0:0:
320,192,153242,1,0,0:0:0:0:
192,192,153275,1,0,0:0:0:0:
64,192,153343,1,0,0:0:0:0:
448,192,153343,1,0,0:0:0:0:
192,192,153394,1,0,0:0:0:0:
448,192,153444,1,0,0:0:0:0:
320,192,153495,1,0,0:0:0:0:
192,192,153546,1,0,0:0:0:0:
448,192,153596,1,0,0:0:0:0:
64,192,153647,1,0,0:0:0:0:
192,192,153698,1,0,0:0:0:0:
320,192,153748,1,0,0:0:0:0:
64,192,153774,1,0,0:0:0:0:
448,192,153799,1,0,0:0:0:0:
192,192,153824,1,0,0:0:0:0:
320,192,154019,128,0,154154:0:0:0:0:
64,192,154154,1,0,0:0:0:0:
192,192,154154,1,0,0:0:0:0:
448,192,154221,1,0,0:0:0:0:
64,192,154289,1,0,0:0:0:0:
192,192,154289,1,0,0:0:0:0:
320,192,154356,1,0,0:0:0:0:
64,192,154424,1,0,0:0:0:0:
192,192,154424,1,0,0:0:0:0:
448,192,154492,1,0,0:0:0:0:
320,192,154559,1,0,0:0:0:0:
64,192,154601,1,0,0:0:0:0:
192,192,154644,1,0,0:0:0:0:
64,192,154686,1,0,0:0:0:0:
320,192,154762,1,0,0:0:0:0:
64,192,154838,1,0,0:0:0:0:
192,192,154838,1,0,0:0:0:0:
448,192,154880,1,0,0:0:0:0:
320,192,154922,1,0,0:0:0:0:
64,192,154964,1,0,0:0:0:0:
448,192,154964,1,0,0:0:0:0:
192,192,155032,1,0,0:0:0:0:
64,192,155100,1,0,0:0:0:0:
448,192,155100,1,0,0:0:0:0:
320,192,155167,1,0,0:0:0:0:
64,192,155235,1,0,0:0:0:0:
448,192,155235,1,0,0:0:0:0:
192,192,155302,1,0,0:0:0:0:
320,192,155370,1,0,0:0:0:0:
448,192,155370,1,0,0:0:0:0:
64,192,155412,1,0,0:0:0:0:
448,192,155454,1,0,0:0:0:0:
320,192,155497,1,0,0:0:0:0:
192,192,155573,1,0,0:0:0:0:
64,192,155649,1,0,0:0:0:0:
448,192,155691,1,0,0:0:0:0:
64,192,155733,1,0,0:0:0:0:
192,192,155775,1,0,0:0:0:0:
320,192,155775,1,0,0:0:0:0:
448,192,155843,1,0,0:0:0:0:
192,192,155910,1,0,0:0:0:0:
320,192,155910,1,0,0:0:0:0:
64,192,155953,1,0,0:0:0:0:
448,192,156003,1,0,0:0:0:0:
192,192,156046,1,0,0:0:0:0:
320,192,156046,1,0,0:0:0:0:
64,192,156113,1,0,0:0:0:0:
320,192,156181,1,0,0:0:0:0:
448,192,156181,1,0,0:0:0:0:
64,192,156248,1,0,0:0:0:0:
192,192,156316,1,0,0:0:0:0:
320,192,156316,1,0,0:0:0:0:
448,192,156383,1,0,0:0:0:0:
64,192,156451,1,0,0:0:0:0:
192,192,156451,1,0,0:0:0:0:
448,192,156519,1,0,0:0:0:0:
192,192,156586,1,0,0:0:0:0:
320,192,156586,1,0,0:0:0:0:
64,192,156628,1,0,0:0:0:0:
448,192,156671,1,0,0:0:0:0:
192,192,156713,1,0,0:0:0:0:
320,192,156747,1,0,0:0:0:0:
64,192,156856,1,0,0:0:0:0:
192,192,156856,1,0,0:0:0:0:
448,192,156899,1,0,0:0:0:0:
320,192,156932,1,0,0:0:0:0:
192,192,156975,1,0,0:0:0:0:
64,192,157017,1,0,0:0:0:0:
320,192,157127,1,0,0:0:0:0:
448,192,157127,1,0,0:0:0:0:
192,192,157169,1,0,0:0:0:0:
320,192,157211,1,0,0:0:0:0:
448,192,157253,1,0,0:0:0:0:
64,192,157296,1,0,0:0:0:0:
320,192,157397,1,0,0:0:0:0:
448,192,157397,1,0,0:0:0:0:
64,192,157532,1,0,0:0:0:0:
448,192,157566,1,0,0:0:0:0:
192,192,157667,1,0,0:0:0:0:
448,192,157701,1,0,0:0:0:0:
320,192,157802,1,0,0:0:0:0:
448,192,157853,1,0,0:0:0:0:
64,192,157904,1,0,0:0:0:0:
320,192,157954,1,0,0:0:0:0:
320,192,158056,1,0,0:0:0:0:
64,192,158106,1,0,0:0:0:0:
448,192,158157,1,0,0:0:0:0:
192,192,158208,1,0,0:0:0:0:
320,192,158208,1,0,0:0:0:0:
64,192,158343,1,0,0:0:0:0:
320,192,158377,1,0,0:0:0:0:
448,192,158478,1,0,0:0:0:0:
320,192,158512,1,0,0:0:0:0:
192,192,158613,1,0,0:0:0:0:
448,192,158664,1,0,0:0:0:0:
64,192,158714,1,0,0:0:0:0:
192,192,158765,1,0,0:0:0:0:
192,192,158867,1,0,0:0:0:0:
320,192,158883,1,0,0:0:0:0:
64,192,158917,1,0,0:0:0:0:
448,192,158968,1,0,0:0:0:0:
192,192,159019,1,0,0:0:0:0:
320,192,159019,1,0,0:0:0:0:
64,192,159052,1,0,0:0:0:0:
448,192,159154,1,0,0:0:0:0:
320,192,159187,1,0,0:0:0:0:
64,192,159289,1,0,0:0:0:0:
448,192,159323,1,0,0:0:0:0:
192,192,159424,1,0,0:0:0:0:
320,192,159475,1,0,0:0:0:0:
64,192,159525,1,0,0:0:0:0:
192,192,159576,1,0,0:0:0:0:
192,192,159677,1,0,0:0:0:0:
64,192,159711,1,0,0:0:0:0:
320,192,159745,1,0,0:0:0:0:
192,192,159829,1,0,0:0:0:0:
448,192,159829,1,0,0:0:0:0:
320,192,159880,1,0,0:0:0:0:
448,192,159931,1,0,0:0:0:0:
64,192,159981,1,0,0:0:0:0:
320,192,160032,1,0,0:0:0:0:
192,192,160083,1,0,0:0:0:0:
64,192,160133,1,0,0:0:0:0:
320,192,160184,1,0,0:0:0:0:
192,192,160235,1,0,0:0:0:0:
448,192,160235,1,0,0:0:0:0:
192,192,160370,1,0,0:0:0:0:
320,192,160370,1,0,0:0:0:0:
64,192,160505,128,0,160640:0:0:0:0:
320,192,160505,1,0,0:0:0:0:
192,192,160640,1,0,0:0:0:0:
448,192,160640,1,0,0:0:0:0:
320,192,160708,1,0,0:0:0:0:
64,192,160775,1,0,0:0:0:0:
448,192,160775,1,0,0:0:0:0:
192,192,160843,1,0,0:0:0:0:
64,192,160910,1,0,0:0:0:0:
320,192,160910,1,0,0:0:0:0:
448,192,160978,1,0,0:0:0:0:
192,192,161046,1,0,0:0:0:0:
320,192,161046,1,0,0:0:0:0:
64,192,161096,1,0,0:0:0:0:
192,192,161147,1,0,0:0:0:0:
320,192,161198,1,0,0:0:0:0:
448,192,161248,1,0,0:0:0:0:
192,192,161316,1,0,0:0:0:0:
320,192,161316,1,0,0:0:0:0:
64,192,161383,1,0,0:0:0:0:
192,192,161451,1,0,0:0:0:0:
320,192,161451,1,0,0:0:0:0:
448,192,161451,1,0,0:0:0:0:
64,192,161519,1,0,0:0:0:0:
320,192,161586,1,0,0:0:0:0:
448,192,161586,1,0,0:0:0:0:
192,192,161654,1,0,0:0:0:0:
320,192,161721,1,0,0:0:0:0:
448,192,161721,1,0,0:0:0:0:
64,192,161789,1,0,0:0:0:0:
320,192,161856,1,0,0:0:0:0:
448,192,161856,1,0,0:0:0:0:
192,192,161907,1,0,0:0:0:0:
448,192,161958,1,0,0:0:0:0:
320,192,162008,1,0,0:0:0:0:
192,192,162059,1,0,0:0:0:0:
64,192,162127,1,0,0:0:0:0:
448,192,162127,1,0,0:0:0:0:
192,192,162262,1,0,0:0:0:0:
320,192,162262,1,0,0:0:0:0:
192,192,162667,128,0,162735:0:0:0:0:
64,192,162701,128,0,162769:0:0:0:0:
320,192,162802,128,0,162870:0:0:0:0:
192,192,162836,128,0,162904:0:0:0:0:
448,192,162937,128,0,163005:0:0:0:0:
320,192,162971,128,0,163039:0:0:0:0:
448,192,163073,128,0,163275:0:0:0:0:
64,192,163106,128,0,163275:0:0:0:0:
192,192,163343,128,0,163410:0:0:0:0:
320,192,163478,128,0,163681:0:0:0:0:
448,192,163748,128,0,163816:0:0:0:0:
64,192,163883,1,0,0:0:0:0:
192,192,163883,1,0,0:0:0:0:
320,192,163917,1,0,0:0:0:0:
448,192,164019,1,0,0:0:0:0:
320,192,164052,1,0,0:0:0:0:
64,192,164154,1,0,0:0:0:0:
320,192,164187,1,0,0:0:0:0:
192,192,164289,1,0,0:0:0:0:
448,192,164339,1,0,0:0:0:0:
320,192,164390,1,0,0:0:0:0:
64,192,164441,1,0,0:0:0:0:
448,192,164542,1,0,0:0:0:0:
192,192,164593,1,0,0:0:0:0:
64,192,164644,1,0,0:0:0:0:
320,192,164694,1,0,0:0:0:0:
448,192,164694,1,0,0:0:0:0:
192,192,164728,1,0,0:0:0:0:
64,192,164829,1,0,0:0:0:0:
192,192,164863,1,0,0:0:0:0:
448,192,164964,1,0,0:0:0:0:
192,192,164998,1,0,0:0:0:0:
320,192,165100,1,0,0:0:0:0:
64,192,165150,1,0,0:0:0:0:
192,192,165201,1,0,0:0:0:0:
448,192,165252,1,0,0:0:0:0:
64,192,165353,1,0,0:0:0:0:
192,192,165370,1,0,0:0:0:0:
320,192,165404,1,0,0:0:0:0:
448,192,165454,1,0,0:0:0:0:
64,192,165505,1,0,0:0:0:0:
192,192,165505,1,0,0:0:0:0:
320,192,165539,1,0,0:0:0:0:
448,192,165640,1,0,0:0:0:0:
192,192,165674,1,0,0:0:0:0:
64,192,165775,1,0,0:0:0:0:
448,192,165809,1,0,0:0:0:0:
192,192,165910,1,0,0:0:0:0:
64,192,165961,1,0,0:0:0:0:
320,192,166012,1,0,0:0:0:0:
448,192,166062,1,0,0:0:0:0:
448,192,166181,1,0,0:0:0:0:
320,192,166214,1,0,0:0:0:0:
64,192,166248,1,0,0:0:0:0:
192,192,166316,1,0,0:0:0:0:
448,192,166316,1,0,0:0:0:0:
320,192,166367,1,0,0:0:0:0:
64,192,166417,1,0,0:0:0:0:
320,192,166468,1,0,0:0:0:0:
192,192,166519,1,0,0:0:0:0:
64,192,166569,1,0,0:0:0:0:
320,192,166620,1,0,0:0:0:0:
192,192,166671,1,0,0:0:0:0:
448,192,166721,1,0,0:0:0:0:
64,192,166747,1,0,0:0:0:0:
320,192,166772,1,0,0:0:0:0:
192,192,166797,1,0,0:0:0:0:
448,192,166992,128,0,167127:0:0:0:0:
64,192,167127,1,0,0:0:0:0:
320,192,167127,1,0,0:0:0:0:
192,192,167194,1,0,0:0:0:0:
64,192,167262,1,0,0:0:0:0:
320,192,167262,1,0,0:0:0:0:
448,192,167329,1,0,0:0:0:0:
64,192,167397,1,0,0:0:0:0:
320,192,167397,1,0,0:0:0:0:
192,192,167464,1,0,0:0:0:0:
448,192,167532,1,0,0:0:0:0:
64,192,167574,1,0,0:0:0:0:
192,192,167617,1,0,0:0:0:0:
448,192,167659,1,0,0:0:0:0:
320,192,167735,1,0,0:0:0:0:
192,192,167802,1,0,0:0:0:0:
448,192,167802,1,0,0:0:0:0:
64,192,167870,1,0,0:0:0:0:
192,192,167937,1,0,0:0:0:0:
320,192,167937,1,0,0:0:0:0:
448,192,167937,1,0,0:0:0:0:
64,192,168005,1,0,0:0:0:0:
320,192,168073,1,0,0:0:0:0:
448,192,168073,1,0,0:0:0:0:
192,192,168140,1,0,0:0:0:0:
320,192,168208,1,0,0:0:0:0:
448,192,168208,1,0,0:0:0:0:
64,192,168275,1,0,0:0:0:0:
192,192,168343,1,0,0:0:0:0:
320,192,168343,1,0,0:0:0:0:
448,192,168385,1,0,0:0:0:0:
64,192,168427,1,0,0:0:0:0:
320,192,168470,1,0,0:0:0:0:
448,192,168546,1,0,0:0:0:0:
64,192,168613,1,0,0:0:0:0:
192,192,168613,1,0,0:0:0:0:
448,192,168681,1,0,0:0:0:0:
192,192,168748,1,0,0:0:0:0:
320,192,168748,1,0,0:0:0:0:
64,192,168816,1,0,0:0:0:0:
192,192,168883,1,0,0:0:0:0:
320,192,168883,1,0,0:0:0:0:
448,192,168926,1,0,0:0:0:0:
64,192,168976,1,0,0:0:0:0:
192,192,169019,1,0,0:0:0:0:
320,192,169019,1,0,0:0:0:0:
448,192,169086,1,0,0:0:0:0:
64,192,169154,1,0,0:0:0:0:
192,192,169154,1,0,0:0:0:0:
320,192,169221,1,0,0:0:0:0:
192,192,169289,1,0,0:0:0:0:
448,192,169289,1,0,0:0:0:0:
64,192,169356,1,0,0:0:0:0:
320,192,169424,1,0,0:0:0:0:
448,192,169424,1,0,0:0:0:0:
192,192,169492,1,0,0:0:0:0:
64,192,169559,1,0,0:0:0:0:
320,192,169559,1,0,0:0:0:0:
448,192,169593,1,0,0:0:0:0:
192,192,169627,1,0,0:0:0:0:
64,192,169660,1,0,0:0:0:0:
320,192,169694,1,0,0:0:0:0:
192,192,169728,1,0,0:0:0:0:
320,192,169829,1,0,0:0:0:0:
448,192,169829,1,0,0:0:0:0:
64,192,169863,1,0,0:0:0:0:
192,192,169897,1,0,0:0:0:0:
320,192,169931,1,0,0:0:0:0:
448,192,169964,1,0,0:0:0:0:
64,192,169998,1,0,0:0:0:0:
192,192,170100,1,0,0:0:0:0:
320,192,170100,1,0,0:0:0:0:
448,192,170133,1,0,0:0:0:0:
64,192,170167,1,0,0:0:0:0:
320,192,170201,1,0,0:0:0:0:
192,192,170235,1,0,0:0:0:0:
448,192,170269,1,0,0:0:0:0:
64,192,170370,1,0,0:0:0:0:
192,192,170370,1,0,0:0:0:0:
448,192,170404,1,0,0:0:0:0:
320,192,170505,1,0,0:0:0:0:
448,192,170539,1,0,0:0:0:0:
64,192,170640,1,0,0:0:0:0:
448,192,170674,1,0,0:0:0:0:
320,192,170775,1,0,0:0:0:0:
64,192,170826,1,0,0:0:0:0:
320,192,170877,1,0,0:0:0:0:
64,192,170927,1,0,0:0:0:0:
192,192,171029,1,0,0:0:0:0:
320,192,171079,1,0,0:0:0:0:
192,192,171130,1,0,0:0:0:0:
64,192,171181,1,0,0:0:0:0:
320,192,171181,1,0,0:0:0:0:
192,192,171214,1,0,0:0:0:0:
448,192,171316,1,0,0:0:0:0:
192,192,171350,1,0,0:0:0:0:
64,192,171451,1,0,0:0:0:0:
192,192,171485,1,0,0:0:0:0:
320,192,171586,1,0,0:0:0:0:
448,192,171637,1,0,0:0:0:0:
320,192,171687,1,0,0:0:0:0:
448,192,171738,1,0,0:0:0:0:
192,192,171839,1,0,0:0:0:0:
320,192,171856,1,0,0:0:0:0:
64,192,171890,1,0,0:0:0:0:
192,192,171941,1,0,0:0:0:0:
64,192,171992,1,0,0:0:0:0:
448,192,171992,1,0,0:0:0:0:
320,192,172025,1,0,0:0:0:0:
192,192,172127,1,0,0:0:0:0:
320,192,172160,1,0,0:0:0:0:
64,192,172262,1,0,0:0:0:0:
320,192,172296,1,0,0:0:0:0:
192,192,172397,1,0,0:0:0:0:
448,192,172448,1,0,0:0:0:0:
192,192,172498,1,0,0:0:0:0:
448,192,172549,1,0,0:0:0:0:
320,192,172650,1,0,0:0:0:0:
64,192,172701,1,0,0:0:0:0:
320,192,172752,1,0,0:0:0:0:
64,192,172802,1,0,0:0:0:0:
448,192,172802,1,0,0:0:0:0:
192,192,172853,1,0,0:0:0:0:
64,192,172904,1,0,0:0:0:0:
320,192,172954,1,0,0:0:0:0:
192,192,173005,1,0,0:0:0:0:
320,192,173056,1,0,0:0:0:0:
448,192,173106,1,0,0:0:0:0:
320,192,173157,1,0,0:0:0:0:
192,192,173208,1,0,0:0:0:0:
448,192,173258,1,0,0:0:0:0:
192,192,173309,1,0,0:0:0:0:
320,192,173360,1,0,0:0:0:0:
64,192,173410,1,0,0:0:0:0:
320,192,173461,1,0,0:0:0:0:
192,192,173512,1,0,0:0:0:0:
64,192,173562,1,0,0:0:0:0:
192,192,173613,1,0,0:0:0:0:
448,192,173613,1,0,0:0:0:0:
320,192,173681,1,0,0:0:0:0:
64,192,173748,1,0,0:0:0:0:
448,192,173748,1,0,0:0:0:0:
192,192,173816,1,0,0:0:0:0:
320,192,173883,1,0,0:0:0:0:
448,192,173883,1,0,0:0:0:0:
64,192,173951,1,0,0:0:0:0:
192,192,174019,1,0,0:0:0:0:
448,192,174019,1,0,0:0:0:0:
320,192,174086,1,0,0:0:0:0:
64,192,174154,1,0,0:0:0:0:
448,192,174154,1,0,0:0:0:0:
192,192,174221,1,0,0:0:0:0:
320,192,174289,1,0,0:0:0:0:
448,192,174289,1,0,0:0:0:0:
64,192,174356,1,0,0:0:0:0:
192,192,174424,1,0,0:0:0:0:
320,192,174424,1,0,0:0:0:0:
448,192,174424,1,0,0:0:0:0:
64,192,174492,1,0,0:0:0:0:
320,192,174559,1,0,0:0:0:0:
448,192,174559,1,0,0:0:0:0:
192,192,174627,1,0,0:0:0:0:
64,192,174694,1,0,0:0:0:0:
448,192,174694,1,0,0:0:0:0:
320,192,174762,1,0,0:0:0:0:
192,192,174829,1,0,0:0:0:0:
448,192,174829,1,0,0:0:0:0:
64,192,174897,1,0,0:0:0:0:
320,192,174964,1,0,0:0:0:0:
448,192,174964,1,0,0:0:0:0:
64,192,175032,1,0,0:0:0:0:
192,192,175100,1,0,0:0:0:0:
448,192,175100,1,0,0:0:0:0:
320,192,175167,1,0,0:0:0:0:
192,192,175235,1,0,0:0:0:0:
448,192,175235,1,0,0:0:0:0:
64,192,175285,1,0,0:0:0:0:
448,192,175336,1,0,0:0:0:0:
320,192,175387,1,0,0:0:0:0:
192,192,175437,1,0,0:0:0:0:
64,192,175488,1,0,0:0:0:0:
320,192,175539,1,0,0:0:0:0:
192,192,175589,1,0,0:0:0:0:
64,192,175640,1,0,0:0:0:0:
192,192,175691,1,0,0:0:0:0:
320,192,175742,1,0,0:0:0:0:
448,192,175792,1,0,0:0:0:0:
64,192,175843,1,0,0:0:0:0:
320,192,175894,1,0,0:0:0:0:
448,192,175944,1,0,0:0:0:0:
64,192,175995,1,0,0:0:0:0:
192,192,176046,1,0,0:0:0:0:
320,192,176096,1,0,0:0:0:0:
64,192,176147,1,0,0:0:0:0:
320,192,176198,1,0,0:0:0:0:
192,192,176248,1,0,0:0:0:0:
448,192,176299,1,0,0:0:0:0:
64,192,176350,1,0,0:0:0:0:
192,192,176400,1,0,0:0:0:0:
448,192,176451,1,0,0:0:0:0:
192,192,176502,1,0,0:0:0:0:
320,192,176552,1,0,0:0:0:0:
448,192,176603,1,0,0:0:0:0:
64,192,176654,1,0,0:0:0:0:
192,192,176704,1,0,0:0:0:0:
320,192,176755,1,0,0:0:0:0:
448,192,176806,1,0,0:0:0:0:
64,192,176856,1,0,0:0:0:0:
192,192,176856,1,0,0:0:0:0:
320,192,176924,1,0,0:0:0:0:
64,192,176992,1,0,0:0:0:0:
192,192,176992,1,0,0:0:0:0:
448,192,177059,1,0,0:0:0:0:
64,192,177127,1,0,0:0:0:0:
192,192,177127,1,0,0:0:0:0:
320,192,177194,1,0,0:0:0:0:
192,192,177262,1,0,0:0:0:0:
64,192,177312,1,0,0:0:0:0:
192,192,177363,1,0,0:0:0:0:
320,192,177414,1,0,0:0:0:0:
448,192,177464,1,0,0:0:0:0:
64,192,177515,1,0,0:0:0:0:
448,192,177566,1,0,0:0:0:0:
192,192,177617,1,0,0:0:0:0:
64,192,177667,1,0,0:0:0:0:
320,192,177667,1,0,0:0:0:0:
192,192,177735,1,0,0:0:0:0:
320,192,177802,1,0,0:0:0:0:
448,192,177802,1,0,0:0:0:0:
64,192,177870,1,0,0:0:0:0:
320,192,177937,1,0,0:0:0:0:
448,192,177937,1,0,0:0:0:0:
192,192,178005,1,0,0:0:0:0:
320,192,178073,1,0,0:0:0:0:
448,192,178123,1,0,0:0:0:0:
320,192,178174,1,0,0:0:0:0:
192,192,178225,1,0,0:0:0:0:
64,192,178275,1,0,0:0:0:0:
448,192,178326,1,0,0:0:0:0:
192,192,178343,1,0,0:0:0:0:
64,192,178377,1,0,0:0:0:0:
320,192,178427,1,0,0:0:0:0:
192,192,178478,1,0,0:0:0:0:
448,192,178478,1,0,0:0:0:0:
320,192,178546,1,0,0:0:0:0:
64,192,178613,1,0,0:0:0:0:
192,192,178613,1,0,0:0:0:0:
448,192,178681,1,0,0:0:0:0:
64,192,178748,1,0,0:0:0:0:
192,192,178748,1,0,0:0:0:0:
448,192,178816,1,0,0:0:0:0:
320,192,178883,1,0,0:0:0:0:
192,192,178934,1,0,0:0:0:0:
448,192,178985,1,0,0:0:0:0:
192,192,179035,1,0,0:0:0:0:
320,192,179086,1,0,0:0:0:0:
448,192,179137,1,0,0:0:0:0:
64,192,179187,1,0,0:0:0:0:
192,192,179238,1,0,0:0:0:0:
64,192,179289,1,0,0:0:0:0:
320,192,179289,1,0,0:0:0:0:
448,192,179356,1,0,0:0:0:0:
192,192,179424,1,0,0:0:0:0:
320,192,179424,1,0,0:0:0:0:
64,192,179492,1,0,0:0:0:0:
192,192,179559,1,0,0:0:0:0:
320,192,179559,1,0,0:0:0:0:
448,192,179627,1,0,0:0:0:0:
320,192,179694,1,0,0:0:0:0:
64,192,179720,1,0,0:0:0:0:
192,192,179745,1,0,0:0:0:0:
448,192,179770,1,0,0:0:0:0:
64,192,179897,1,0,0:0:0:0:
192,192,179931,1,0,0:0:0:0:
448,192,179964,1,0,0:0:0:0:
320,192,179998,1,0,0:0:0:0:
192,192,180032,1,0,0:0:0:0:
64,192,180066,1,0,0:0:0:0:
320,192,180100,1,0,0:0:0:0:
448,192,180100,1,0,0:0:0:0:
192,192,180150,1,0,0:0:0:0:
320,192,180201,1,0,0:0:0:0:
64,192,180252,1,0,0:0:0:0:
192,192,180302,1,0,0:0:0:0:
320,192,180370,1,0,0:0:0:0:
448,192,180370,1,0,0:0:0:0:
64,192,180437,1,0,0:0:0:0:
192,192,180505,1,0,0:0:0:0:
320,192,180556,1,0,0:0:0:0:
192,192,180606,1,0,0:0:0:0:
448,192,180657,1,0,0:0:0:0:
320,192,180708,1,0,0:0:0:0:
64,192,180775,1,0,0:0:0:0:
192,192,180775,1,0,0:0:0:0:
448,192,180843,1,0,0:0:0:0:
192,192,180910,1,0,0:0:0:0:
320,192,180910,1,0,0:0:0:0:
64,192,180961,1,0,0:0:0:0:
320,192,181012,1,0,0:0:0:0:
192,192,181062,1,0,0:0:0:0:
64,192,181113,1,0,0:0:0:0:
320,192,181181,1,0,0:0:0:0:
448,192,181181,1,0,0:0:0:0:
64,192,181248,1,0,0:0:0:0:
192,192,181316,1,0,0:0:0:0:
448,192,181367,1,0,0:0:0:0:
192,192,181417,1,0,0:0:0:0:
320,192,181468,1,0,0:0:0:0:
448,192,181519,1,0,0:0:0:0:
64,192,181586,1,0,0:0:0:0:
192,192,181586,1,0,0:0:0:0:
320,192,181654,1,0,0:0:0:0:
64,192,181721,1,0,0:0:0:0:
192,192,181721,1,0,0:0:0:0:
448,192,181772,1,0,0:0:0:0:
64,192,181823,1,0,0:0:0:0:
320,192,181873,1,0,0:0:0:0:
448,192,181924,1,0,0:0:0:0:
64,192,181992,1,0,0:0:0:0:
192,192,181992,1,0,0:0:0:0:
320,192,182059,1,0,0:0:0:0:
448,192,182127,1,0,0:0:0:0:
64,192,182177,1,0,0:0:0:0:
448,192,182228,1,0,0:0:0:0:
192,192,182279,1,0,0:0:0:0:
64,192,182329,1,0,0:0:0:0:
320,192,182397,1,0,0:0:0:0:
448,192,182397,1,0,0:0:0:0:
192,192,182464,1,0,0:0:0:0:
64,192,182532,1,0,0:0:0:0:
320,192,182532,1,0,0:0:0:0:
448,192,182566,1,0,0:0:0:0:
192,192,182600,1,0,0:0:0:0:
320,192,182633,1,0,0:0:0:0:
64,192,182667,1,0,0:0:0:0:
192,192,182701,1,0,0:0:0:0:
320,192,182802,1,0,0:0:0:0:
448,192,182802,1,0,0:0:0:0:
192,192,182836,1,0,0:0:0:0:
64,192,182870,1,0,0:0:0:0:
320,192,182904,1,0,0:0:0:0:
192,192,182937,1,0,0:0:0:0:
448,192,182971,1,0,0:0:0:0:
192,192,183073,1,0,0:0:0:0:
320,192,183073,1,0,0:0:0:0:
448,192,183106,1,0,0:0:0:0:
64,192,183140,1,0,0:0:0:0:
320,192,183174,1,0,0:0:0:0:
448,192,183208,1,0,0:0:0:0:
192,192,183242,1,0,0:0:0:0:
64,192,183343,1,0,0:0:0:0:
320,192,183343,1,0,0:0:0:0:
448,192,183343,1,0,0:0:0:0:
192,192,183410,1,0,0:0:0:0:
320,192,183478,1,0,0:0:0:0:
448,192,183478,1,0,0:0:0:0:
64,192,183546,1,0,0:0:0:0:
320,192,183613,1,0,0:0:0:0:
448,192,183613,1,0,0:0:0:0:
192,192,183681,1,0,0:0:0:0:
320,192,183748,1,0,0:0:0:0:
64,192,183799,1,0,0:0:0:0:
320,192,183850,1,0,0:0:0:0:
192,192,183900,1,0,0:0:0:0:
64,192,183951,1,0,0:0:0:0:
448,192,184002,1,0,0:0:0:0:
64,192,184052,1,0,0:0:0:0:
320,192,184103,1,0,0:0:0:0:
192,192,184154,1,0,0:0:0:0:
448,192,184154,1,0,0:0:0:0:
320,192,184221,1,0,0:0:0:0:
64,192,184289,1,0,0:0:0:0:
192,192,184289,1,0,0:0:0:0:
448,192,184356,1,0,0:0:0:0:
64,192,184424,1,0,0:0:0:0:
192,192,184424,1,0,0:0:0:0:
320,192,184492,1,0,0:0:0:0:
192,192,184559,1,0,0:0:0:0:
448,192,184610,1,0,0:0:0:0:
192,192,184660,1,0,0:0:0:0:
320,192,184711,1,0,0:0:0:0:
448,192,184762,1,0,0:0:0:0:
64,192,184812,1,0,0:0:0:0:
320,192,184829,1,0,0:0:0:0:
448,192,184863,1,0,0:0:0:0:
192,192,184914,1,0,0:0:0:0:
64,192,184964,1,0,0:0:0:0:
320,192,184964,1,0,0:0:0:0:
192,192,185032,1,0,0:0:0:0:
320,192,185100,1,0,0:0:0:0:
448,192,185100,1,0,0:0:0:0:
64,192,185167,1,0,0:0:0:0:
320,192,185235,1,0,0:0:0:0:
448,192,185235,1,0,0:0:0:0:
64,192,185302,1,0,0:0:0:0:
192,192,185370,1,0,0:0:0:0:
320,192,185421,1,0,0:0:0:0:
64,192,185471,1,0,0:0:0:0:
320,192,185522,1,0,0:0:0:0:
192,192,185573,1,0,0:0:0:0:
448,192,185623,1,0,0:0:0:0:
64,192,185674,1,0,0:0:0:0:
448,192,185725,1,0,0:0:0:0:
192,192,185775,1,0,0:0:0:0:
320,192,185775,1,0,0:0:0:0:
64,192,185843,1,0,0:0:0:0:
320,192,185910,1,0,0:0:0:0:
64,192,185978,1,0,0:0:0:0:
192,192,185978,1,0,0:0:0:0:
320,192,186046,1,0,0:0:0:0:
448,192,186046,1,0,0:0:0:0:
64,192,186113,1,0,0:0:0:0:
192,192,186113,1,0,0:0:0:0:
320,192,186181,1,0,0:0:0:0:
448,192,186181,1,0,0:0:0:0:
64,192,186316,1,0,0:0:0:0:
448,192,186316,1,0,0:0:0:0:
320,192,186451,1,0,0:0:0:0:
448,192,186451,1,0,0:0:0:0:
192,192,186586,1,0,0:0:0:0:
192,192,186721,1,0,0:0:0:0:
192,192,186856,1,0,0:0:0:0:
64,192,186992,1,0,0:0:0:0:
320,192,186992,1,0,0:0:0:0:
448,192,187059,1,0,0:0:0:0:
64,192,187127,1,0,0:0:0:0:
320,192,187127,1,0,0:0:0:0:
192,192,187194,1,0,0:0:0:0:
64,192,187262,1,0,0:0:0:0:
320,192,187262,1,0,0:0:0:0:
448,192,187329,1,0,0:0:0:0:
64,192,187397,1,0,0:0:0:0:
192,192,187397,1,0,0:0:0:0:
320,192,187397,1,0,0:0:0:0:
448,192,187532,1,0,0:0:0:0:
448,192,187667,1,0,0:0:0:0:
64,192,187802,1,0,0:0:0:0:
448,192,187802,1,0,0:0:0:0:
192,192,187870,1,0,0:0:0:0:
64,192,187937,1,0,0:0:0:0:
320,192,187937,1,0,0:0:0:0:
192,192,188005,1,0,0:0:0:0:
64,192,188073,1,0,0:0:0:0:
448,192,188073,1,0,0:0:0:0:
320,192,188140,1,0,0:0:0:0:
192,192,188208,1,0,0:0:0:0:
448,192,188208,1,0,0:0:0:0:
64,192,188850,1,0,0:0:0:0:
320,192,189019,1,0,0:0:0:0:
192,192,189247,1,0,0:0:0:0:
448,192,189449,1,0,0:0:0:0:
64,192,189829,1,0,0:0:0:0:
320,192,189829,1,0,0:0:0:0:
448,192,189829,1,0,0:0:0:0:
