osu file format v14

[General]
AudioFilename: audio.mp3
AudioLeadIn: 0
PreviewTime: 149239
Countdown: 1
SampleSet: None
StackLeniency: 0.7
Mode: 1
LetterboxInBreaks: 0
WidescreenStoryboard: 0

[Editor]
Bookmarks: 25995,55185,81131,94104,107077,121671,134644,150860,176806,189779,202752,215725
DistanceSpacing: 2
BeatDivisor: 3
GridSize: 8
TimelineZoom: 3

[Metadata]
Title:Dead To Me (feat. Lox Chatterbox)
TitleUnicode:Dead To Me (feat. Lox Chatterbox)
Artist:Sex Whales & Fraxo
ArtistUnicode:Sex Whales & Fraxo
Creator:Ulqui
Version:Overlapse Oni
Source:
Tags:
BeatmapID:1325289
BeatmapSetID:628627

[Difficulty]
HPDrainRate:7
CircleSize:2
OverallDifficulty:4
ApproachRate:10
SliderMultiplier:1.4
SliderTickRate:1

[Events]
//Background and Video events
0,0,"daddddddddd.jpg",0,0
//Break Periods
2,53222,54735
//Storyboard Layer 0 (Background)
//Storyboard Layer 1 (Fail)
//Storyboard Layer 2 (Pass)
//Storyboard Layer 3 (Foreground)
//Storyboard Sound Samples

[TimingPoints]
50,202.702702702703,4,1,0,100,1,0
50,-200,4,1,0,100,0,0
13022,-200,4,1,0,100,0,0
25995,-125,4,1,0,100,0,0
37617,-142.857142857143,4,1,0,100,0,0
38022,-166.666666666667,4,1,0,100,0,0
38428,-200.000000000001,4,1,0,100,0,0
38968,-250.000000000001,4,1,0,100,0,0
39779,-333.333333333334,4,1,0,100,0,0
40590,-125,4,1,0,100,0,0
52347,-142.857142857143,4,1,0,100,0,0
52617,-166.666666666667,4,1,0,100,0,0
53022,-200.000000000001,4,1,0,100,0,0
55185,-111.111111111111,4,1,0,100,0,1
58022,-111.111111111111,4,1,0,100,0,0
58428,-111.111111111111,4,1,0,100,0,1
66536,-111.111111111111,4,1,0,100,0,0
66941,-142.857142857143,4,1,0,100,0,0
67617,-125,4,1,0,100,0,0
68158,-111.111111111111,4,1,0,100,0,1
70995,-111.111111111111,4,1,0,100,0,0
71401,-111.111111111111,4,1,0,100,0,1
79509,-111.111111111111,4,1,0,100,0,0
81131,-142.857142857143,4,1,0,100,0,0
92752,-166.666666666667,4,1,0,100,0,0
93158,-200,4,1,0,100,0,0
93563,-250.000000000001,4,1,0,100,0,0
94104,-125,4,1,0,100,0,0
105860,-142.857142857143,4,1,0,100,0,0
106131,-166.666666666667,4,1,0,100,0,0
106536,-200,4,1,0,100,0,0
106806,-166.666666666667,4,1,0,100,0,0
107077,-142.857142857143,4,1,0,100,0,0
118833,-166.666666666667,4,1,0,100,0,0
119104,-200,4,1,0,100,0,0
119509,-250.000000000001,4,1,0,100,0,0
121671,-125,4,1,0,100,0,0
133428,-142.857142857143,4,1,0,100,0,0
133698,-166.666666666667,4,1,0,100,0,0
134104,-200,4,1,0,100,0,0
134644,-125,4,1,0,100,0,0
146401,-142.857142857143,4,1,0,100,0,0
146671,-166.666666666667,4,1,0,100,0,0
147077,-200,4,1,0,100,0,0
147617,-250,4,1,0,100,0,0
148428,-333.333333333333,4,1,0,100,0,0
149239,-200,4,1,0,100,0,0
150050,-142.857142857143,4,1,0,100,0,0
150860,-111.111111111111,4,1,0,100,0,1
153698,-111.111111111111,4,1,0,100,0,0
154104,-111.111111111111,4,1,0,100,0,1
162617,-142.857142857143,4,1,0,100,0,0
163293,-125,4,1,0,100,0,0
163833,-111.111111111111,4,1,0,100,0,1
166671,-111.111111111111,4,1,0,100,0,0
167077,-111.111111111111,4,1,0,100,0,1
175185,-111.111111111111,4,1,0,100,0,0
176806,-111.111111111111,4,1,0,100,0,1
188158,-111.111111111111,4,1,0,100,0,0
189779,-142.857142857143,4,1,0,100,0,0
202752,-125,4,1,0,100,0,0
214509,-142.857142857143,4,1,0,100,0,0
214914,-166.666666666667,4,1,0,100,0,0
215185,-200,4,1,0,100,0,0
215725,-125,4,1,0,100,0,0

[HitObjects]
176,128,13022,5,8,0:0:0:0:
192,96,13428,1,0,0:0:0:0:
192,96,13698,1,8,0:0:0:0:
192,96,13833,1,0,0:0:0:0:
184,72,14104,1,0,0:0:0:0:
184,72,14239,1,8,0:0:0:0:
184,72,14509,1,0,0:0:0:0:
184,72,14644,1,8,0:0:0:0:
184,16,14779,1,0,0:0:0:0:
192,40,14914,1,0,0:0:0:0:
192,40,15050,1,8,0:0:0:0:
192,40,15320,1,0,0:0:0:0:
192,40,15455,1,8,0:0:0:0:
168,56,15725,1,8,0:0:0:0:
192,40,15860,1,0,0:0:0:0:
176,64,16266,1,8,0:0:0:0:
160,152,16535,1,8,0:0:0:0:
160,152,16671,1,0,0:0:0:0:
128,104,16941,5,8,0:0:0:0:
128,104,17077,1,8,0:0:0:0:
200,64,17212,1,0,0:0:0:0:
192,32,17347,1,0,0:0:0:0:
192,32,17482,1,8,0:0:0:0:
192,32,17752,1,0,0:0:0:0:
192,32,17887,1,8,0:0:0:0:
192,32,18158,1,8,0:0:0:0:
192,32,18293,1,0,0:0:0:0:
168,48,18428,1,0,0:0:0:0:
176,48,18563,1,0,0:0:0:0:
192,32,18698,1,8,0:0:0:0:
176,48,18968,1,0,0:0:0:0:
192,56,19374,1,0,0:0:0:0:
192,56,19509,1,8,0:0:0:0:
224,104,19779,1,0,0:0:0:0:
224,104,19914,1,0,0:0:0:0:
224,104,20185,1,0,0:0:0:0:
224,104,20320,1,8,0:0:0:0:
168,72,20455,1,0,0:0:0:0:
168,72,20590,1,0,0:0:0:0:
168,72,20725,1,8,0:0:0:0:
208,64,20995,1,8,0:0:0:0:
208,64,21131,1,0,0:0:0:0:
168,64,21401,1,0,0:0:0:0:
168,64,21536,1,0,0:0:0:0:
168,64,21806,1,8,0:0:0:0:
168,64,21941,1,8,0:0:0:0:
208,48,22077,1,0,0:0:0:0:
208,48,22212,1,0,0:0:0:0:
208,48,22347,1,8,0:0:0:0:
200,40,22617,1,8,0:0:0:0:
200,40,22752,1,0,0:0:0:0:
184,56,23158,1,0,0:0:0:0:
184,56,23428,1,0,0:0:0:0:
184,56,23563,1,8,0:0:0:0:
192,72,23833,1,0,0:0:0:0:
192,72,23968,1,8,0:0:0:0:
184,40,24239,1,8,0:0:0:0:
184,40,24374,1,8,0:0:0:0:
176,64,24509,1,0,0:0:0:0:
176,64,24644,1,0,0:0:0:0:
176,64,24779,1,8,0:0:0:0:
184,48,25050,1,0,0:0:0:0:
184,48,25185,1,8,0:0:0:0:
160,80,25455,1,0,0:0:0:0:
176,96,25995,1,12,0:0:0:0:
168,96,26266,1,0,0:0:0:0:
168,96,26401,1,8,0:0:0:0:
176,96,26536,1,8,0:0:0:0:
176,96,26671,1,0,0:0:0:0:
160,96,26806,1,8,0:0:0:0:
192,32,27077,1,0,0:0:0:0:
192,32,27145,1,0,0:0:0:0:
192,32,27212,1,8,0:0:0:0:
192,32,27347,1,0,0:0:0:0:
192,32,27482,1,8,0:0:0:0:
192,32,27618,1,0,0:0:0:0:
208,40,27887,1,0,0:0:0:0:
208,40,28023,1,8,0:0:0:0:
208,40,28158,1,8,0:0:0:0:
208,40,28225,1,8,0:0:0:0:
208,40,28293,1,0,0:0:0:0:
208,40,28428,1,8,0:0:0:0:
200,24,28698,1,0,0:0:0:0:
200,24,28766,1,0,0:0:0:0:
200,24,28833,1,8,0:0:0:0:
192,40,28968,1,0,0:0:0:0:
192,40,29104,1,8,0:0:0:0:
192,40,29239,1,0,0:0:0:0:
184,120,29509,1,0,0:0:0:0:
184,120,29644,1,8,0:0:0:0:
200,56,29712,1,8,0:0:0:0:
184,120,29779,1,0,0:0:0:0:
184,120,29914,1,0,0:0:0:0:
184,120,30050,1,8,0:0:0:0:
192,40,30320,1,0,0:0:0:0:
192,40,30455,1,8,0:0:0:0:
192,40,30590,1,0,0:0:0:0:
176,40,30658,1,0,0:0:0:0:
192,40,30725,1,8,0:0:0:0:
192,40,30860,1,0,0:0:0:0:
192,40,31131,1,0,0:0:0:0:
176,24,31198,1,0,0:0:0:0:
192,40,31266,1,8,0:0:0:0:
176,16,31333,1,8,0:0:0:0:
192,40,31401,1,0,0:0:0:0:
192,40,31536,1,0,0:0:0:0:
192,40,31671,1,8,0:0:0:0:
192,40,31806,1,0,0:0:0:0:
184,64,31874,1,0,0:0:0:0:
192,40,31941,1,0,0:0:0:0:
192,40,32077,1,8,0:0:0:0:
192,40,32212,1,0,0:0:0:0:
192,40,32347,1,8,0:0:0:0:
192,40,32482,1,0,0:0:0:0:
192,40,32753,1,0,0:0:0:0:
192,40,32888,1,8,0:0:0:0:
184,32,32955,1,8,0:0:0:0:
192,40,33023,1,0,0:0:0:0:
192,40,33158,1,0,0:0:0:0:
192,40,33293,1,8,0:0:0:0:
200,80,33563,1,0,0:0:0:0:
176,8,33631,1,0,0:0:0:0:
200,80,33698,1,8,0:0:0:0:
200,80,33833,1,0,0:0:0:0:
200,80,33968,1,8,0:0:0:0:
200,80,34104,1,0,0:0:0:0:
200,80,34374,1,8,0:0:0:0:
200,80,34509,1,0,0:0:0:0:
184,32,34577,1,0,0:0:0:0:
200,80,34644,1,8,0:0:0:0:
200,80,34779,1,0,0:0:0:0:
200,80,34914,1,8,0:0:0:0:
200,80,35185,1,8,0:0:0:0:
200,80,35320,1,0,0:0:0:0:
176,56,35387,1,0,0:0:0:0:
200,80,35455,1,0,0:0:0:0:
200,80,35590,1,8,0:0:0:0:
200,80,35725,1,0,0:0:0:0:
168,64,35995,1,0,0:0:0:0:
184,8,36063,1,0,0:0:0:0:
168,64,36131,1,8,0:0:0:0:
168,64,36266,1,0,0:0:0:0:
168,64,36401,1,0,0:0:0:0:
168,64,36536,1,8,0:0:0:0:
192,64,36806,1,0,0:0:0:0:
192,64,36941,1,8,0:0:0:0:
208,16,37009,1,8,0:0:0:0:
192,64,37077,1,0,0:0:0:0:
208,16,37144,1,0,0:0:0:0:
192,64,37212,1,8,0:0:0:0:
192,64,37347,1,0,0:0:0:0:
168,72,37617,1,0,0:0:0:0:
168,48,37752,1,8,0:0:0:0:
168,48,38022,1,0,0:0:0:0:
168,48,38158,1,8,0:0:0:0:
168,48,38428,1,0,0:0:0:0:
168,64,40590,1,0,0:0:0:0:
96,240,40725,1,8,0:0:0:0:
104,224,40793,1,8,0:0:0:0:
96,240,40860,1,0,0:0:0:0:
96,240,40995,1,8,0:0:0:0:
96,240,41131,1,0,0:0:0:0:
96,240,41266,1,0,0:0:0:0:
96,240,41401,1,8,0:0:0:0:
104,224,41536,1,0,0:0:0:0:
104,224,41604,1,0,0:0:0:0:
160,128,41671,1,8,0:0:0:0:
192,32,41806,1,0,0:0:0:0:
192,32,41874,1,0,0:0:0:0:
192,32,41941,1,8,0:0:0:0:
192,32,42009,1,0,0:0:0:0:
192,32,42077,1,8,0:0:0:0:
192,32,42144,1,8,0:0:0:0:
192,32,42212,1,0,0:0:0:0:
208,40,42347,1,0,0:0:0:0:
200,40,42414,1,0,0:0:0:0:
208,40,42482,1,8,0:0:0:0:
176,32,42617,1,0,0:0:0:0:
176,32,42752,1,0,0:0:0:0:
184,24,42820,1,8,0:0:0:0:
176,32,42887,1,0,0:0:0:0:
176,32,42955,1,0,0:0:0:0:
176,32,43022,1,8,0:0:0:0:
184,48,43158,1,0,0:0:0:0:
184,48,43293,1,0,0:0:0:0:
184,48,43428,1,8,0:0:0:0:
216,80,43462,1,8,0:0:0:0:
184,48,43563,1,0,0:0:0:0:
168,24,43597,1,0,0:0:0:0:
168,40,43698,1,8,0:0:0:0:
176,16,43732,1,8,0:0:0:0:
168,40,43833,1,0,0:0:0:0:
240,120,43968,1,0,0:0:0:0:
176,72,44036,1,0,0:0:0:0:
240,120,44104,1,8,0:0:0:0:
240,120,44239,1,8,0:0:0:0:
176,80,44306,1,0,0:0:0:0:
176,80,44374,1,8,0:0:0:0:
176,80,44441,1,8,0:0:0:0:
176,80,44509,1,0,0:0:0:0:
176,80,44577,1,0,0:0:0:0:
176,72,44644,1,8,0:0:0:0:
208,32,44779,1,0,0:0:0:0:
208,32,44847,1,0,0:0:0:0:
208,32,44914,1,8,0:0:0:0:
208,32,45050,1,0,0:0:0:0:
208,32,45117,1,0,0:0:0:0:
208,32,45185,1,8,0:0:0:0:
208,32,45252,1,0,0:0:0:0:
208,32,45320,1,8,0:0:0:0:
208,32,45387,1,8,0:0:0:0:
208,32,45455,1,0,0:0:0:0:
232,16,45590,1,8,0:0:0:0:
208,32,45658,1,8,0:0:0:0:
232,16,45725,1,0,0:0:0:0:
184,24,45860,1,8,0:0:0:0:
216,40,45995,1,0,0:0:0:0:
216,40,46131,1,0,0:0:0:0:
208,16,46266,1,8,0:0:0:0:
192,24,46333,1,8,0:0:0:0:
192,24,46401,1,0,0:0:0:0:
192,32,46536,1,0,0:0:0:0:
192,32,46671,1,8,0:0:0:0:
248,56,46705,1,8,0:0:0:0:
192,64,46806,1,8,0:0:0:0:
192,64,46840,1,8,0:0:0:0:
160,24,46941,1,8,0:0:0:0:
144,8,46975,1,8,0:0:0:0:
160,24,47077,1,0,0:0:0:0:
224,80,47212,1,8,0:0:0:0:
224,72,47279,1,8,0:0:0:0:
168,32,47347,1,0,0:0:0:0:
200,32,47482,1,8,0:0:0:0:
200,32,47617,1,0,0:0:0:0:
192,32,47685,1,0,0:0:0:0:
208,24,47752,1,8,0:0:0:0:
192,32,47887,1,0,0:0:0:0:
192,16,47955,1,0,0:0:0:0:
208,64,48022,1,8,0:0:0:0:
192,16,48090,1,8,0:0:0:0:
200,64,48158,1,0,0:0:0:0:
168,56,48293,1,8,0:0:0:0:
192,16,48360,1,0,0:0:0:0:
184,32,48428,1,8,0:0:0:0:
184,32,48495,1,8,0:0:0:0:
168,48,48563,1,0,0:0:0:0:
192,16,48631,1,0,0:0:0:0:
192,24,48698,1,8,0:0:0:0:
216,56,48833,1,0,0:0:0:0:
216,56,48968,1,0,0:0:0:0:
208,56,49104,1,8,0:0:0:0:
192,32,49239,1,0,0:0:0:0:
192,32,49306,1,0,0:0:0:0:
192,32,49374,1,8,0:0:0:0:
216,24,49509,1,8,0:0:0:0:
184,40,49644,1,0,0:0:0:0:
184,40,49712,1,0,0:0:0:0:
184,40,49779,1,0,0:0:0:0:
184,40,49914,1,8,0:0:0:0:
256,96,49948,1,8,0:0:0:0:
184,40,50050,1,8,0:0:0:0:
256,96,50083,1,8,0:0:0:0:
184,40,50185,1,8,0:0:0:0:
256,96,50218,1,8,0:0:0:0:
184,40,50320,1,0,0:0:0:0:
232,136,50455,1,8,0:0:0:0:
232,136,50522,1,8,0:0:0:0:
232,136,50590,1,0,0:0:0:0:
216,136,50725,1,8,0:0:0:0:
208,104,50793,1,8,0:0:0:0:
208,104,50860,1,0,0:0:0:0:
208,104,50928,1,0,0:0:0:0:
208,104,50995,1,8,0:0:0:0:
208,104,51131,1,8,0:0:0:0:
176,64,51266,1,0,0:0:0:0:
176,64,51333,1,0,0:0:0:0:
176,48,51401,1,8,0:0:0:0:
152,56,51536,1,0,0:0:0:0:
152,48,51604,1,8,0:0:0:0:
152,48,51671,1,0,0:0:0:0:
152,48,51739,1,0,0:0:0:0:
152,48,51806,1,8,0:0:0:0:
152,56,51874,1,8,0:0:0:0:
152,48,51941,1,0,0:0:0:0:
192,32,52347,1,8,0:0:0:0:
184,32,52617,1,0,0:0:0:0:
184,32,52752,1,8,0:0:0:0:
184,32,53022,1,0,0:0:0:0:
152,168,55185,5,0,0:0:0:0:
96,80,55252,1,8,0:0:0:0:
152,168,55320,1,0,0:0:0:0:
152,168,55455,1,0,0:0:0:0:
152,168,55590,1,8,0:0:0:0:
136,112,55658,1,0,0:0:0:0:
136,112,55725,1,8,0:0:0:0:
136,112,55793,1,8,0:0:0:0:
136,112,55860,1,0,0:0:0:0:
136,112,55928,1,0,0:0:0:0:
152,168,55995,1,8,0:0:0:0:
144,168,56131,1,0,0:0:0:0:
144,168,56266,1,8,0:0:0:0:
144,168,56401,1,8,0:0:0:0:
176,16,56468,1,8,0:0:0:0:
184,16,56536,1,0,0:0:0:0:
184,8,56604,1,0,0:0:0:0:
136,168,56671,1,8,0:0:0:0:
144,144,56806,1,8,0:0:0:0:
184,64,56874,1,8,0:0:0:0:
184,64,56941,1,0,0:0:0:0:
160,48,57077,1,8,0:0:0:0:
184,64,57212,1,8,0:0:0:0:
184,64,57279,1,8,0:0:0:0:
184,64,57347,1,0,0:0:0:0:
200,16,57414,1,8,0:0:0:0:
184,64,57482,1,0,0:0:0:0:
184,8,57550,1,0,0:0:0:0:
184,64,57617,1,8,0:0:0:0:
184,32,57752,1,0,0:0:0:0:
184,32,57887,1,0,0:0:0:0:
176,104,58022,1,8,0:0:0:0:
192,40,58293,1,0,0:0:0:0:
192,40,58428,1,8,0:0:0:0:
136,96,58495,1,8,0:0:0:0:
184,24,58563,1,0,0:0:0:0:
184,24,58698,1,0,0:0:0:0:
184,24,58833,1,8,0:0:0:0:
176,104,58901,1,8,0:0:0:0:
176,104,58968,1,0,0:0:0:0:
176,104,59036,1,0,0:0:0:0:
176,104,59104,1,8,0:0:0:0:
176,104,59171,1,0,0:0:0:0:
176,104,59239,1,8,0:0:0:0:
232,32,59374,1,0,0:0:0:0:
232,32,59509,1,0,0:0:0:0:
232,32,59644,1,8,0:0:0:0:
200,16,59712,1,0,0:0:0:0:
200,16,59779,1,0,0:0:0:0:
200,16,59847,1,0,0:0:0:0:
200,16,59914,1,8,0:0:0:0:
200,0,60050,1,8,0:0:0:0:
200,0,60117,1,0,0:0:0:0:
200,0,60185,1,8,0:0:0:0:
200,0,60252,1,8,0:0:0:0:
208,8,60320,1,0,0:0:0:0:
208,32,60387,1,0,0:0:0:0:
232,8,60455,1,8,0:0:0:0:
200,16,60522,1,0,0:0:0:0:
200,16,60590,1,8,0:0:0:0:
200,16,60658,1,0,0:0:0:0:
200,16,60725,1,8,0:0:0:0:
184,16,60793,1,0,0:0:0:0:
184,8,60860,1,8,0:0:0:0:
192,56,60928,1,8,0:0:0:0:
200,48,60995,1,0,0:0:0:0:
192,48,61131,1,8,0:0:0:0:
192,48,61198,1,8,0:0:0:0:
192,48,61266,1,0,0:0:0:0:
192,32,61401,1,8,0:0:0:0:
192,32,61468,1,8,0:0:0:0:
192,32,61536,1,8,0:0:0:0:
208,40,61671,1,0,0:0:0:0:
208,40,61739,1,0,0:0:0:0:
208,40,61806,1,8,0:0:0:0:
192,40,61941,1,8,0:0:0:0:
192,40,62077,1,8,0:0:0:0:
184,24,62144,1,0,0:0:0:0:
184,24,62212,1,8,0:0:0:0:
184,32,62279,1,8,0:0:0:0:
184,32,62347,1,0,0:0:0:0:
184,32,62414,1,0,0:0:0:0:
184,32,62482,1,8,0:0:0:0:
184,32,62617,1,0,0:0:0:0:
184,32,62752,1,8,0:0:0:0:
184,32,62887,1,0,0:0:0:0:
184,32,62955,1,8,0:0:0:0:
184,32,63022,1,0,0:0:0:0:
184,32,63090,1,0,0:0:0:0:
192,16,63158,1,8,0:0:0:0:
184,16,63293,1,0,0:0:0:0:
184,16,63428,1,8,0:0:0:0:
192,16,63495,1,0,0:0:0:0:
192,16,63563,1,8,0:0:0:0:
192,16,63698,1,8,0:0:0:0:
192,24,63766,1,8,0:0:0:0:
192,24,63833,1,0,0:0:0:0:
192,24,63901,1,0,0:0:0:0:
192,24,63968,1,8,0:0:0:0:
192,24,64036,1,0,0:0:0:0:
192,24,64104,1,8,0:0:0:0:
192,24,64171,1,8,0:0:0:0:
184,24,64239,1,0,0:0:0:0:
184,24,64306,1,0,0:0:0:0:
184,24,64374,1,8,0:0:0:0:
184,24,64441,1,0,0:0:0:0:
192,24,64509,1,8,0:0:0:0:
192,24,64644,1,8,0:0:0:0:
184,24,64779,1,8,0:0:0:0:
192,24,64914,1,0,0:0:0:0:
184,80,64982,1,8,0:0:0:0:
184,104,65050,1,0,0:0:0:0:
184,104,65117,1,0,0:0:0:0:
184,104,65185,1,8,0:0:0:0:
184,104,65320,1,8,0:0:0:0:
184,104,65387,1,0,0:0:0:0:
192,16,65455,1,8,0:0:0:0:
192,16,65522,1,8,0:0:0:0:
192,16,65590,1,0,0:0:0:0:
192,16,65658,1,0,0:0:0:0:
192,24,65725,1,8,0:0:0:0:
208,24,65860,1,0,0:0:0:0:
200,24,65995,1,8,0:0:0:0:
192,24,66131,1,0,0:0:0:0:
192,24,66198,1,0,0:0:0:0:
192,24,66266,1,8,0:0:0:0:
176,16,66333,1,8,0:0:0:0:
184,0,66401,1,0,0:0:0:0:
184,0,66468,1,8,0:0:0:0:
184,56,66536,1,0,0:0:0:0:
192,56,66941,1,0,0:0:0:0:
192,56,67077,1,0,0:0:0:0:
192,56,67212,1,8,0:0:0:0:
192,56,67347,1,0,0:0:0:0:
192,56,67617,1,8,0:0:0:0:
192,56,67752,1,8,0:0:0:0:
192,56,68022,1,8,0:0:0:0:
192,56,68158,1,0,0:0:0:0:
176,80,68225,1,0,0:0:0:0:
176,80,68293,1,0,0:0:0:0:
160,80,68428,1,8,0:0:0:0:
160,80,68563,1,0,0:0:0:0:
152,80,68631,1,8,0:0:0:0:
152,80,68698,1,0,0:0:0:0:
152,80,68766,1,0,0:0:0:0:
152,80,68833,1,0,0:0:0:0:
152,80,68901,1,0,0:0:0:0:
152,88,68968,1,8,0:0:0:0:
192,40,69104,1,8,0:0:0:0:
192,40,69239,1,0,0:0:0:0:
144,32,69374,1,8,0:0:0:0:
144,40,69441,1,8,0:0:0:0:
144,32,69509,1,0,0:0:0:0:
144,40,69577,1,0,0:0:0:0:
144,40,69644,1,8,0:0:0:0:
144,40,69779,1,0,0:0:0:0:
208,32,69847,1,8,0:0:0:0:
200,40,69914,1,0,0:0:0:0:
200,32,69982,1,0,0:0:0:0:
200,40,70050,1,8,0:0:0:0:
192,48,70185,1,8,0:0:0:0:
192,48,70252,1,0,0:0:0:0:
192,48,70320,1,8,0:0:0:0:
192,56,70387,1,8,0:0:0:0:
184,56,70455,1,0,0:0:0:0:
192,56,70522,1,0,0:0:0:0:
184,56,70590,1,8,0:0:0:0:
208,40,70725,1,0,0:0:0:0:
208,40,70793,1,0,0:0:0:0:
208,40,70860,1,8,0:0:0:0:
200,32,70995,1,12,0:0:0:0:
112,80,71266,1,0,0:0:0:0:
112,80,71401,1,8,0:0:0:0:
176,80,71536,1,0,0:0:0:0:
176,80,71604,1,0,0:0:0:0:
176,80,71671,1,8,0:0:0:0:
176,80,71806,1,8,0:0:0:0:
176,80,71874,1,0,0:0:0:0:
176,80,71941,1,8,0:0:0:0:
176,80,72009,1,8,0:0:0:0:
176,80,72077,1,0,0:0:0:0:
176,80,72144,1,0,0:0:0:0:
176,80,72212,1,8,0:0:0:0:
208,72,72347,1,0,0:0:0:0:
208,72,72482,1,8,0:0:0:0:
208,72,72617,1,0,0:0:0:0:
208,72,72685,1,8,0:0:0:0:
208,72,72752,1,8,0:0:0:0:
208,72,72820,1,8,0:0:0:0:
208,72,72887,1,0,0:0:0:0:
208,72,72955,1,8,0:0:0:0:
208,72,73022,1,0,0:0:0:0:
200,16,73158,1,8,0:0:0:0:
200,16,73225,1,8,0:0:0:0:
200,16,73293,1,0,0:0:0:0:
176,0,73428,1,8,0:0:0:0:
176,0,73495,1,0,0:0:0:0:
176,0,73563,1,8,0:0:0:0:
176,0,73631,1,0,0:0:0:0:
176,8,73698,1,8,0:0:0:0:
176,8,73766,1,8,0:0:0:0:
176,8,73833,1,0,0:0:0:0:
168,16,73901,1,0,0:0:0:0:
176,16,73968,1,8,0:0:0:0:
168,16,74104,1,0,0:0:0:0:
160,8,74171,1,0,0:0:0:0:
160,16,74239,1,8,0:0:0:0:
144,48,74374,1,8,0:0:0:0:
160,40,74441,1,8,0:0:0:0:
160,40,74509,1,0,0:0:0:0:
160,32,74644,1,0,0:0:0:0:
160,32,74779,1,8,0:0:0:0:
184,32,74914,1,8,0:0:0:0:
192,16,75050,1,0,0:0:0:0:
184,48,75117,1,0,0:0:0:0:
176,56,75185,1,8,0:0:0:0:
176,48,75252,1,8,0:0:0:0:
176,56,75320,1,8,0:0:0:0:
176,56,75387,1,0,0:0:0:0:
176,56,75455,1,8,0:0:0:0:
200,40,75590,1,0,0:0:0:0:
192,40,75725,1,0,0:0:0:0:
152,40,75860,1,8,0:0:0:0:
152,40,75928,1,0,0:0:0:0:
152,40,75995,1,8,0:0:0:0:
152,40,76063,1,8,0:0:0:0:
176,24,76131,1,0,0:0:0:0:
176,24,76266,1,0,0:0:0:0:
184,32,76333,1,0,0:0:0:0:
184,24,76401,1,8,0:0:0:0:
184,32,76468,1,8,0:0:0:0:
184,32,76536,1,0,0:0:0:0:
184,32,76671,1,0,0:0:0:0:
192,0,76739,1,8,0:0:0:0:
192,8,76806,1,0,0:0:0:0:
192,8,76874,1,0,0:0:0:0:
192,8,76941,1,8,0:0:0:0:
192,8,77009,1,8,0:0:0:0:
192,8,77077,1,0,0:0:0:0:
184,16,77212,1,0,0:0:0:0:
184,16,77279,1,0,0:0:0:0:
208,16,77347,1,0,0:0:0:0:
208,16,77414,1,0,0:0:0:0:
184,0,77482,1,8,0:0:0:0:
192,0,77617,1,8,0:0:0:0:
192,0,77752,1,8,0:0:0:0:
192,0,77887,1,8,0:0:0:0:
200,16,77955,1,8,0:0:0:0:
200,16,78022,1,0,0:0:0:0:
208,32,78158,1,0,0:0:0:0:
208,32,78293,1,8,0:0:0:0:
184,56,78360,1,8,0:0:0:0:
184,56,78428,1,0,0:0:0:0:
184,56,78495,1,0,0:0:0:0:
184,56,78563,1,8,0:0:0:0:
184,56,78631,1,0,0:0:0:0:
184,56,78698,1,8,0:0:0:0:
200,40,78833,1,0,0:0:0:0:
200,48,78968,1,0,0:0:0:0:
200,32,79104,1,8,0:0:0:0:
184,32,79171,1,0,0:0:0:0:
200,32,79239,1,8,0:0:0:0:
184,32,79306,1,8,0:0:0:0:
184,32,79374,1,0,0:0:0:0:
184,32,79441,1,8,0:0:0:0:
184,32,79509,1,0,0:0:0:0:
176,96,81131,1,0,0:0:0:0:
192,112,81401,1,8,0:0:0:0:
192,112,81536,1,0,0:0:0:0:
192,112,81806,1,0,0:0:0:0:
192,112,81941,1,8,0:0:0:0:
144,88,82077,1,0,0:0:0:0:
144,88,82212,1,0,0:0:0:0:
144,88,82347,1,8,0:0:0:0:
144,88,82617,1,0,0:0:0:0:
144,88,82752,1,0,0:0:0:0:
192,40,83022,1,8,0:0:0:0:
192,40,83158,1,0,0:0:0:0:
192,40,83428,1,0,0:0:0:0:
192,40,83563,1,8,0:0:0:0:
192,40,83698,1,8,0:0:0:0:
192,40,83833,1,0,0:0:0:0:
192,40,83968,1,8,0:0:0:0:
192,40,84374,1,0,0:0:0:0:
192,40,84644,1,8,0:0:0:0:
192,40,84779,1,0,0:0:0:0:
192,40,85050,1,0,0:0:0:0:
192,40,85185,1,8,0:0:0:0:
192,40,85320,1,0,0:0:0:0:
192,40,85455,1,8,0:0:0:0:
192,40,85590,1,0,0:0:0:0:
192,16,85860,1,8,0:0:0:0:
192,16,85995,1,0,0:0:0:0:
192,16,86266,1,0,0:0:0:0:
192,16,86401,1,8,0:0:0:0:
192,16,86671,1,0,0:0:0:0:
192,16,86806,1,8,0:0:0:0:
192,16,86941,1,8,0:0:0:0:
192,16,87077,1,0,0:0:0:0:
192,16,87212,1,8,0:0:0:0:
184,48,87347,1,0,0:0:0:0:
184,48,87483,1,8,0:0:0:0:
160,32,87617,1,0,0:0:0:0:
216,24,87887,1,8,0:0:0:0:
216,24,88022,1,0,0:0:0:0:
216,24,88293,1,0,0:0:0:0:
216,24,88428,1,8,0:0:0:0:
216,40,88563,1,0,0:0:0:0:
216,40,88698,1,0,0:0:0:0:
216,40,88833,1,8,0:0:0:0:
216,40,89104,1,8,0:0:0:0:
216,40,89239,1,0,0:0:0:0:
216,40,89509,1,0,0:0:0:0:
216,40,89644,1,8,0:0:0:0:
216,40,89914,1,8,0:0:0:0:
216,40,90050,1,8,0:0:0:0:
216,40,90185,1,0,0:0:0:0:
216,40,90320,1,0,0:0:0:0:
216,40,90455,1,8,0:0:0:0:
216,40,90860,1,8,0:0:0:0:
216,40,91131,1,0,0:0:0:0:
216,40,91266,1,8,0:0:0:0:
216,40,91536,1,0,0:0:0:0:
216,40,91671,1,8,0:0:0:0:
216,40,91806,1,8,0:0:0:0:
216,40,91941,1,8,0:0:0:0:
216,40,92077,1,0,0:0:0:0:
216,40,92347,1,8,0:0:0:0:
216,40,92482,1,0,0:0:0:0:
216,40,92752,1,0,0:0:0:0:
216,40,92887,1,8,0:0:0:0:
216,40,93158,1,0,0:0:0:0:
216,40,93293,1,8,0:0:0:0:
216,40,93563,1,0,0:0:0:0:
192,48,94104,1,0,0:0:0:0:
160,48,94239,1,8,0:0:0:0:
160,48,94374,1,0,0:0:0:0:
160,48,94509,1,8,0:0:0:0:
192,64,94577,1,8,0:0:0:0:
160,48,94644,1,0,0:0:0:0:
160,48,94779,1,0,0:0:0:0:
160,48,94914,1,8,0:0:0:0:
160,48,95050,1,0,0:0:0:0:
192,64,95117,1,0,0:0:0:0:
160,48,95185,1,8,0:0:0:0:
160,48,95320,1,8,0:0:0:0:
192,64,95387,1,0,0:0:0:0:
160,48,95455,1,8,0:0:0:0:
192,64,95522,1,0,0:0:0:0:
160,48,95590,1,8,0:0:0:0:
192,64,95658,1,8,0:0:0:0:
160,48,95725,1,0,0:0:0:0:
160,48,95860,1,8,0:0:0:0:
160,48,95995,1,0,0:0:0:0:
160,48,96131,1,8,0:0:0:0:
192,72,96198,1,0,0:0:0:0:
160,48,96266,1,8,0:0:0:0:
224,88,96401,1,0,0:0:0:0:
216,96,96536,1,8,0:0:0:0:
192,72,96604,1,8,0:0:0:0:
216,96,96671,1,0,0:0:0:0:
216,96,96806,1,0,0:0:0:0:
216,96,96941,1,8,0:0:0:0:
216,96,97212,1,0,0:0:0:0:
216,96,97347,1,8,0:0:0:0:
184,8,97414,1,0,0:0:0:0:
216,96,97482,1,8,0:0:0:0:
184,64,97550,1,8,0:0:0:0:
216,96,97617,1,0,0:0:0:0:
216,96,97752,1,8,0:0:0:0:
184,64,97820,1,8,0:0:0:0:
216,96,97887,1,0,0:0:0:0:
184,64,97955,1,0,0:0:0:0:
216,96,98022,1,8,0:0:0:0:
216,96,98158,1,8,0:0:0:0:
216,96,98293,1,0,0:0:0:0:
184,64,98360,1,0,0:0:0:0:
216,96,98428,1,8,0:0:0:0:
216,96,98563,1,0,0:0:0:0:
184,64,98631,1,0,0:0:0:0:
216,96,98698,1,8,0:0:0:0:
184,64,98766,1,0,0:0:0:0:
216,96,98833,1,8,0:0:0:0:
184,64,98901,1,8,0:0:0:0:
216,96,98968,1,0,0:0:0:0:
216,96,99104,1,8,0:0:0:0:
184,64,99171,1,8,0:0:0:0:
216,96,99239,1,0,0:0:0:0:
216,96,99374,1,8,0:0:0:0:
216,96,99509,1,0,0:0:0:0:
216,96,99644,1,0,0:0:0:0:
184,64,99712,1,0,0:0:0:0:
216,96,99779,1,8,0:0:0:0:
216,96,99914,1,0,0:0:0:0:
216,96,100050,1,0,0:0:0:0:
216,96,100185,1,8,0:0:0:0:
176,72,100218,1,8,0:0:0:0:
216,96,100320,1,8,0:0:0:0:
176,72,100354,1,8,0:0:0:0:
216,96,100455,1,8,0:0:0:0:
176,72,100489,1,8,0:0:0:0:
216,96,100590,1,0,0:0:0:0:
216,96,100725,1,8,0:0:0:0:
176,72,100793,1,0,0:0:0:0:
216,96,100860,1,8,0:0:0:0:
216,96,100995,1,0,0:0:0:0:
216,96,101131,1,8,0:0:0:0:
216,96,101266,1,0,0:0:0:0:
216,96,101401,1,8,0:0:0:0:
216,96,101536,1,0,0:0:0:0:
176,72,101604,1,8,0:0:0:0:
216,96,101671,1,0,0:0:0:0:
216,96,101806,1,8,0:0:0:0:
176,72,101874,1,0,0:0:0:0:
216,96,101941,1,8,0:0:0:0:
176,72,102009,1,8,0:0:0:0:
216,96,102077,1,0,0:0:0:0:
176,72,102144,1,0,0:0:0:0:
216,96,102212,1,8,0:0:0:0:
216,96,102347,1,8,0:0:0:0:
216,96,102482,1,0,0:0:0:0:
216,96,102617,1,8,0:0:0:0:
176,72,102685,1,0,0:0:0:0:
216,96,102752,1,8,0:0:0:0:
176,72,102820,1,8,0:0:0:0:
216,96,102887,1,0,0:0:0:0:
216,96,103022,1,8,0:0:0:0:
216,96,103158,1,0,0:0:0:0:
216,96,103293,1,0,0:0:0:0:
216,96,103428,1,8,0:0:0:0:
216,96,103833,1,0,0:0:0:0:
176,48,103901,1,8,0:0:0:0:
216,96,103968,1,0,0:0:0:0:
176,48,104036,1,0,0:0:0:0:
216,96,104104,1,8,0:0:0:0:
216,96,104239,1,0,0:0:0:0:
176,48,104306,1,8,0:0:0:0:
216,96,104374,1,0,0:0:0:0:
216,96,104509,1,0,0:0:0:0:
216,96,104644,1,8,0:0:0:0:
216,96,104779,1,0,0:0:0:0:
176,48,104847,1,0,0:0:0:0:
216,96,104914,1,8,0:0:0:0:
216,96,105050,1,0,0:0:0:0:
176,48,105117,1,0,0:0:0:0:
216,96,105185,1,8,0:0:0:0:
176,48,105252,1,8,0:0:0:0:
216,96,105320,1,0,0:0:0:0:
216,96,105455,1,0,0:0:0:0:
216,96,105860,1,8,0:0:0:0:
216,96,106131,1,0,0:0:0:0:
216,96,106266,1,8,0:0:0:0:
216,96,106536,1,0,0:0:0:0:
216,96,106806,1,8,0:0:0:0:
216,96,107077,1,0,0:0:0:0:
208,96,108158,1,0,0:0:0:0:
208,96,108293,1,8,0:0:0:0:
208,96,108563,1,8,0:0:0:0:
208,96,108698,1,0,0:0:0:0:
208,96,108968,1,0,0:0:0:0:
208,96,109104,1,0,0:0:0:0:
208,96,109374,1,8,0:0:0:0:
208,96,109509,1,8,0:0:0:0:
208,96,109914,1,0,0:0:0:0:
208,64,111401,1,0,0:0:0:0:
208,64,111536,1,8,0:0:0:0:
208,64,111806,1,0,0:0:0:0:
208,64,111941,1,0,0:0:0:0:
208,64,112212,1,8,0:0:0:0:
208,64,112347,1,0,0:0:0:0:
208,64,112617,1,8,0:0:0:0:
208,64,112752,1,8,0:0:0:0:
208,64,113022,1,0,0:0:0:0:
208,64,113158,1,8,0:0:0:0:
184,16,113293,1,0,0:0:0:0:
184,16,113428,1,8,0:0:0:0:
184,64,113563,1,0,0:0:0:0:
160,88,114644,1,8,0:0:0:0:
192,152,114779,1,0,0:0:0:0:
160,104,115050,1,0,0:0:0:0:
160,104,115185,1,8,0:0:0:0:
208,48,115455,1,0,0:0:0:0:
208,48,115590,1,0,0:0:0:0:
208,48,115860,1,0,0:0:0:0:
208,48,115995,1,8,0:0:0:0:
208,48,116131,1,0,0:0:0:0:
208,48,116266,1,0,0:0:0:0:
208,48,116401,1,8,0:0:0:0:
208,48,116671,1,8,0:0:0:0:
200,56,116806,1,0,0:0:0:0:
224,88,117481,1,0,0:0:0:0:
224,88,117617,1,8,0:0:0:0:
200,48,117887,1,0,0:0:0:0:
200,48,118022,1,8,0:0:0:0:
184,40,118428,1,0,0:0:0:0:
192,96,118833,5,8,0:0:0:0:
192,96,119104,1,0,0:0:0:0:
192,96,119239,1,8,0:0:0:0:
192,96,119509,1,0,0:0:0:0:
192,160,121671,1,0,0:0:0:0:
184,160,121806,1,8,0:0:0:0:
184,160,121941,1,0,0:0:0:0:
184,160,122077,1,0,0:0:0:0:
184,160,122212,1,8,0:0:0:0:
184,160,122347,1,8,0:0:0:0:
184,160,122482,1,0,0:0:0:0:
184,48,122752,1,0,0:0:0:0:
184,48,122887,1,8,0:0:0:0:
184,48,123158,1,0,0:0:0:0:
184,48,123293,1,8,0:0:0:0:
184,48,123428,1,0,0:0:0:0:
184,48,123563,1,0,0:0:0:0:
184,48,123698,1,8,0:0:0:0:
184,48,123833,1,8,0:0:0:0:
184,48,123968,1,0,0:0:0:0:
184,48,124104,1,8,0:0:0:0:
176,40,124374,1,0,0:0:0:0:
176,40,124509,1,0,0:0:0:0:
184,40,124779,1,8,0:0:0:0:
184,40,124914,1,0,0:0:0:0:
184,40,125050,1,0,0:0:0:0:
184,40,125185,1,8,0:0:0:0:
176,40,125320,1,0,0:0:0:0:
176,40,125455,1,8,0:0:0:0:
184,40,125590,1,0,0:0:0:0:
184,40,125725,1,8,0:0:0:0:
184,40,125995,1,0,0:0:0:0:
184,40,126131,1,8,0:0:0:0:
176,40,126401,1,0,0:0:0:0:
184,40,126536,1,0,0:0:0:0:
184,40,126671,1,8,0:0:0:0:
184,40,126806,1,0,0:0:0:0:
184,40,126941,1,8,0:0:0:0:
184,40,127077,1,8,0:0:0:0:
176,40,127212,1,0,0:0:0:0:
176,40,127347,1,8,0:0:0:0:
176,40,127617,1,0,0:0:0:0:
176,40,128022,1,8,0:0:0:0:
176,40,128158,1,0,0:0:0:0:
176,32,128293,5,0,0:0:0:0:
176,32,128428,1,8,0:0:0:0:
176,32,128563,1,8,0:0:0:0:
176,32,128698,1,0,0:0:0:0:
176,32,128833,1,0,0:0:0:0:
168,32,128968,1,8,0:0:0:0:
168,32,129104,1,0,0:0:0:0:
168,32,129239,1,8,0:0:0:0:
176,32,129644,1,0,0:0:0:0:
176,32,129779,1,8,0:0:0:0:
176,104,129914,1,0,0:0:0:0:
176,104,130050,1,0,0:0:0:0:
176,104,130185,1,8,0:0:0:0:
176,104,130320,1,0,0:0:0:0:
176,104,130455,1,0,0:0:0:0:
176,104,130590,1,8,0:0:0:0:
176,104,130860,1,0,0:0:0:0:
176,104,130995,1,8,0:0:0:0:
176,104,131266,1,8,0:0:0:0:
176,104,131401,1,0,0:0:0:0:
176,104,131671,1,0,0:0:0:0:
176,104,131806,1,8,0:0:0:0:
176,104,131941,1,0,0:0:0:0:
144,64,132077,1,0,0:0:0:0:
144,64,132212,1,8,0:0:0:0:
144,64,132482,1,8,0:0:0:0:
144,64,132617,1,0,0:0:0:0:
144,64,132752,1,8,0:0:0:0:
144,64,132887,1,8,0:0:0:0:
144,64,133022,1,0,0:0:0:0:
136,64,133428,1,8,0:0:0:0:
144,64,133698,1,0,0:0:0:0:
144,64,133833,1,8,0:0:0:0:
136,64,134104,1,0,0:0:0:0:
176,48,134644,1,0,0:0:0:0:
184,152,134779,1,8,0:0:0:0:
184,152,134914,1,0,0:0:0:0:
184,152,135050,1,8,0:0:0:0:
192,112,135117,1,8,0:0:0:0:
184,152,135185,1,0,0:0:0:0:
184,152,135320,1,0,0:0:0:0:
184,152,135455,1,8,0:0:0:0:
192,112,135522,1,0,0:0:0:0:
184,152,135590,1,8,0:0:0:0:
184,152,135725,1,0,0:0:0:0:
184,152,135860,1,8,0:0:0:0:
192,96,135928,1,0,0:0:0:0:
184,152,135995,1,8,0:0:0:0:
192,96,136063,1,8,0:0:0:0:
184,152,136131,1,0,0:0:0:0:
184,96,136198,1,0,0:0:0:0:
184,152,136266,1,8,0:0:0:0:
184,152,136401,1,0,0:0:0:0:
184,152,136536,1,8,0:0:0:0:
184,152,136671,1,0,0:0:0:0:
184,96,136739,1,0,0:0:0:0:
184,152,136806,1,8,0:0:0:0:
184,152,136941,1,0,0:0:0:0:
184,152,137077,1,8,0:0:0:0:
184,96,137144,1,0,0:0:0:0:
184,152,137212,1,8,0:0:0:0:
184,96,137279,1,8,0:0:0:0:
184,152,137347,1,0,0:0:0:0:
184,152,137482,1,8,0:0:0:0:
328,88,137516,1,8,0:0:0:0:
184,152,137617,1,8,0:0:0:0:
328,88,137651,1,8,0:0:0:0:
184,152,137752,1,8,0:0:0:0:
328,88,137786,1,8,0:0:0:0:
184,152,137887,1,0,0:0:0:0:
184,152,138022,1,0,0:0:0:0:
160,128,138090,1,0,0:0:0:0:
184,152,138158,1,8,0:0:0:0:
184,152,138293,1,0,0:0:0:0:
152,136,138360,1,8,0:0:0:0:
160,136,138428,1,0,0:0:0:0:
160,136,138495,1,0,0:0:0:0:
184,152,138563,1,8,0:0:0:0:
184,152,138698,1,8,0:0:0:0:
184,152,138833,1,0,0:0:0:0:
144,128,138901,1,8,0:0:0:0:
184,152,138968,1,0,0:0:0:0:
184,152,139104,1,8,0:0:0:0:
144,128,139171,1,0,0:0:0:0:
184,152,139239,1,8,0:0:0:0:
144,128,139306,1,0,0:0:0:0:
184,152,139374,1,8,0:0:0:0:
144,128,139441,1,8,0:0:0:0:
184,152,139509,1,0,0:0:0:0:
184,152,139644,1,0,0:0:0:0:
184,152,139779,1,8,0:0:0:0:
184,152,139914,1,0,0:0:0:0:
144,128,139982,1,0,0:0:0:0:
184,152,140050,1,8,0:0:0:0:
144,128,140117,1,8,0:0:0:0:
184,152,140185,1,0,0:0:0:0:
184,152,140320,1,8,0:0:0:0:
184,152,140455,1,0,0:0:0:0:
144,128,140522,1,0,0:0:0:0:
224,64,140590,1,0,0:0:0:0:
224,64,140725,1,8,0:0:0:0:
240,128,140759,1,8,0:0:0:0:
240,96,140860,1,8,0:0:0:0:
240,128,140894,1,8,0:0:0:0:
240,96,140995,1,8,0:0:0:0:
240,128,141029,1,8,0:0:0:0:
240,96,141131,1,0,0:0:0:0:
240,96,141266,1,0,0:0:0:0:
184,96,141333,1,0,0:0:0:0:
240,96,141401,1,8,0:0:0:0:
224,104,141536,1,0,0:0:0:0:
184,96,141604,1,0,0:0:0:0:
224,112,141671,1,8,0:0:0:0:
184,96,141739,1,8,0:0:0:0:
224,112,141806,1,0,0:0:0:0:
224,112,141941,1,8,0:0:0:0:
224,112,142077,1,0,0:0:0:0:
184,104,142144,1,0,0:0:0:0:
184,104,142212,1,8,0:0:0:0:
224,112,142347,1,0,0:0:0:0:
184,104,142414,1,0,0:0:0:0:
224,104,142482,1,8,0:0:0:0:
184,104,142550,1,8,0:0:0:0:
224,112,142617,1,0,0:0:0:0:
184,104,142685,1,8,0:0:0:0:
224,112,142752,1,0,0:0:0:0:
224,112,142887,1,8,0:0:0:0:
176,8,142955,1,8,0:0:0:0:
224,112,143022,1,0,0:0:0:0:
192,32,143090,1,0,0:0:0:0:
224,112,143158,1,8,0:0:0:0:
224,112,143293,1,0,0:0:0:0:
224,104,143428,1,0,0:0:0:0:
224,104,143563,1,8,0:0:0:0:
184,104,143631,1,8,0:0:0:0:
240,80,143698,1,0,0:0:0:0:
184,104,143766,1,8,0:0:0:0:
240,80,143833,1,0,0:0:0:0:
240,80,143968,1,8,0:0:0:0:
232,88,144002,1,8,0:0:0:0:
240,80,144104,1,8,0:0:0:0:
232,88,144137,1,8,0:0:0:0:
240,80,144239,1,8,0:0:0:0:
232,88,144272,1,8,0:0:0:0:
240,80,144374,1,0,0:0:0:0:
240,80,144509,1,0,0:0:0:0:
184,120,144577,1,0,0:0:0:0:
240,80,144644,1,8,0:0:0:0:
240,80,144779,1,8,0:0:0:0:
184,128,144847,1,0,0:0:0:0:
240,80,144914,1,8,0:0:0:0:
184,120,144982,1,8,0:0:0:0:
240,80,145050,1,0,0:0:0:0:
184,120,145117,1,0,0:0:0:0:
240,80,145185,1,8,0:0:0:0:
240,80,145320,1,8,0:0:0:0:
184,120,145387,1,8,0:0:0:0:
240,80,145455,1,0,0:0:0:0:
240,80,145590,1,0,0:0:0:0:
184,128,145658,1,8,0:0:0:0:
240,80,145725,1,0,0:0:0:0:
184,128,145793,1,0,0:0:0:0:
240,80,145860,1,8,0:0:0:0:
184,128,145928,1,8,0:0:0:0:
240,80,145995,1,0,0:0:0:0:
240,80,146401,1,8,0:0:0:0:
240,80,146671,1,0,0:0:0:0:
240,80,146806,1,8,0:0:0:0:
240,80,147077,1,0,0:0:0:0:
208,136,150860,1,0,0:0:0:0:
208,136,150928,1,8,0:0:0:0:
208,136,150995,1,0,0:0:0:0:
208,136,151131,1,0,0:0:0:0:
208,136,151266,1,8,0:0:0:0:
208,136,151333,1,8,0:0:0:0:
208,136,151401,1,0,0:0:0:0:
208,136,151468,1,0,0:0:0:0:
208,136,151536,1,8,0:0:0:0:
208,136,151604,1,0,0:0:0:0:
208,136,151671,1,8,0:0:0:0:
176,80,151806,1,0,0:0:0:0:
176,80,151941,1,8,0:0:0:0:
176,80,152077,1,0,0:0:0:0:
176,80,152144,1,0,0:0:0:0:
176,80,152212,1,8,0:0:0:0:
176,80,152279,1,8,0:0:0:0:
176,80,152347,1,0,0:0:0:0:
176,80,152414,1,8,0:0:0:0:
176,80,152482,1,0,0:0:0:0:
176,80,152617,1,8,0:0:0:0:
176,80,152752,1,8,0:0:0:0:
176,80,152887,1,8,0:0:0:0:
176,80,152955,1,8,0:0:0:0:
176,80,153022,1,0,0:0:0:0:
176,80,153090,1,0,0:0:0:0:
176,80,153158,1,8,0:0:0:0:
176,80,153225,1,0,0:0:0:0:
176,80,153293,1,8,0:0:0:0:
208,8,153360,1,8,0:0:0:0:
160,48,153428,1,0,0:0:0:0:
160,48,153495,1,8,0:0:0:0:
160,48,153563,1,0,0:0:0:0:
160,48,153698,1,8,0:0:0:0:
176,80,153968,1,0,0:0:0:0:
176,80,154104,1,0,0:0:0:0:
112,96,154171,1,8,0:0:0:0:
112,96,154239,1,0,0:0:0:0:
144,40,154374,1,0,0:0:0:0:
152,40,154509,1,8,0:0:0:0:
152,32,154577,1,0,0:0:0:0:
152,40,154644,1,8,0:0:0:0:
152,32,154712,1,8,0:0:0:0:
152,32,154779,1,0,0:0:0:0:
160,40,154847,1,0,0:0:0:0:
152,32,154914,1,8,0:0:0:0:
200,40,155050,1,0,0:0:0:0:
200,40,155117,1,0,0:0:0:0:
200,40,155185,1,8,0:0:0:0:
192,40,155320,1,8,0:0:0:0:
192,40,155387,1,0,0:0:0:0:
192,40,155455,1,0,0:0:0:0:
192,40,155522,1,8,0:0:0:0:
192,40,155590,1,0,0:0:0:0:
192,40,155658,1,8,0:0:0:0:
192,40,155725,1,0,0:0:0:0:
192,48,155860,1,8,0:0:0:0:
200,48,155928,1,8,0:0:0:0:
192,48,155995,1,0,0:0:0:0:
192,48,156131,1,8,0:0:0:0:
192,48,156266,1,0,0:0:0:0:
192,48,156401,1,0,0:0:0:0:
192,48,156536,1,8,0:0:0:0:
192,56,156604,1,8,0:0:0:0:
192,56,156671,1,0,0:0:0:0:
192,56,156739,1,0,0:0:0:0:
192,56,156806,1,8,0:0:0:0:
192,56,156874,1,0,0:0:0:0:
192,56,156941,1,0,0:0:0:0:
192,56,157009,1,0,0:0:0:0:
200,24,157077,1,8,0:0:0:0:
200,24,157144,1,8,0:0:0:0:
200,24,157212,1,0,0:0:0:0:
208,24,157279,1,0,0:0:0:0:
200,24,157347,1,8,0:0:0:0:
224,32,157482,1,0,0:0:0:0:
224,32,157617,1,0,0:0:0:0:
176,80,157752,1,8,0:0:0:0:
224,32,157820,1,8,0:0:0:0:
176,80,157887,1,8,0:0:0:0:
224,32,157955,1,0,0:0:0:0:
224,32,158022,1,8,0:0:0:0:
216,32,158090,1,8,0:0:0:0:
216,32,158158,1,0,0:0:0:0:
216,32,158293,1,0,0:0:0:0:
216,32,158428,1,8,0:0:0:0:
208,32,158563,1,0,0:0:0:0:
200,40,158631,1,0,0:0:0:0:
200,40,158698,1,0,0:0:0:0:
200,40,158766,1,8,0:0:0:0:
200,40,158833,1,0,0:0:0:0:
200,32,158901,1,0,0:0:0:0:
200,40,158968,1,8,0:0:0:0:
200,40,159104,1,0,0:0:0:0:
200,40,159239,1,0,0:0:0:0:
200,40,159374,1,8,0:0:0:0:
208,56,159441,1,8,0:0:0:0:
208,56,159509,1,0,0:0:0:0:
208,56,159577,1,0,0:0:0:0:
208,56,159644,1,8,0:0:0:0:
208,56,159712,1,0,0:0:0:0:
208,56,159779,1,8,0:0:0:0:
184,32,159847,1,8,0:0:0:0:
184,32,159914,1,0,0:0:0:0:
184,32,159982,1,0,0:0:0:0:
184,32,160050,1,8,0:0:0:0:
184,32,160117,1,0,0:0:0:0:
184,32,160185,1,8,0:0:0:0:
184,32,160320,1,8,0:0:0:0:
184,32,160455,1,0,0:0:0:0:
184,32,160590,1,8,0:0:0:0:
208,16,160725,1,0,0:0:0:0:
200,16,160860,1,0,0:0:0:0:
200,16,160995,1,8,0:0:0:0:
216,56,161063,1,0,0:0:0:0:
224,48,161131,1,0,0:0:0:0:
216,56,161198,1,0,0:0:0:0:
216,40,161266,1,8,0:0:0:0:
208,48,161333,1,0,0:0:0:0:
208,56,161401,1,8,0:0:0:0:
200,56,161536,1,8,0:0:0:0:
200,56,161671,1,0,0:0:0:0:
192,56,161806,1,0,0:0:0:0:
192,56,161874,1,0,0:0:0:0:
192,56,161941,1,8,0:0:0:0:
192,56,162009,1,8,0:0:0:0:
200,40,162077,1,0,0:0:0:0:
192,56,162144,1,8,0:0:0:0:
192,56,162212,1,0,0:0:0:0:
192,48,162617,1,0,0:0:0:0:
192,56,162752,1,0,0:0:0:0:
192,56,162887,1,8,0:0:0:0:
192,56,163022,1,0,0:0:0:0:
192,56,163293,1,8,0:0:0:0:
192,48,163428,1,8,0:0:0:0:
192,48,163698,1,8,0:0:0:0:
192,56,163833,1,0,0:0:0:0:
232,136,163901,1,0,0:0:0:0:
232,136,163968,1,8,0:0:0:0:
88,160,164104,1,0,0:0:0:0:
88,160,164239,1,8,0:0:0:0:
88,160,164306,1,8,0:0:0:0:
168,152,164374,1,0,0:0:0:0:
176,152,164441,1,0,0:0:0:0:
176,152,164509,1,8,0:0:0:0:
176,152,164577,1,0,0:0:0:0:
176,152,164644,1,8,0:0:0:0:
176,152,164779,1,0,0:0:0:0:
176,152,164914,1,8,0:0:0:0:
192,40,165050,1,0,0:0:0:0:
192,40,165117,1,0,0:0:0:0:
176,56,165185,1,8,0:0:0:0:
184,56,165252,1,8,0:0:0:0:
272,96,165320,1,0,0:0:0:0:
208,72,165387,1,8,0:0:0:0:
272,96,165455,1,0,0:0:0:0:
224,128,165590,1,8,0:0:0:0:
224,128,165725,1,0,0:0:0:0:
224,128,165860,1,8,0:0:0:0:
216,120,165928,1,0,0:0:0:0:
216,120,165995,1,0,0:0:0:0:
216,120,166063,1,0,0:0:0:0:
216,120,166131,1,8,0:0:0:0:
216,120,166198,1,0,0:0:0:0:
216,120,166266,1,8,0:0:0:0:
216,120,166401,1,0,0:0:0:0:
208,120,166468,1,8,0:0:0:0:
216,120,166536,1,0,0:0:0:0:
216,120,166671,1,8,0:0:0:0:
208,120,166941,1,0,0:0:0:0:
216,120,167077,1,8,0:0:0:0:
216,120,167144,1,0,0:0:0:0:
216,120,167212,1,8,0:0:0:0:
216,120,167279,1,8,0:0:0:0:
216,120,167347,1,0,0:0:0:0:
208,120,167482,1,8,0:0:0:0:
208,120,167550,1,8,0:0:0:0:
216,120,167617,1,0,0:0:0:0:
208,56,167752,1,0,0:0:0:0:
208,56,167887,1,8,0:0:0:0:
208,56,167955,1,8,0:0:0:0:
208,56,168022,1,0,0:0:0:0:
208,56,168158,1,0,0:0:0:0:
208,56,168293,1,8,0:0:0:0:
208,56,168360,1,8,0:0:0:0:
208,56,168428,1,0,0:0:0:0:
208,56,168495,1,8,0:0:0:0:
208,56,168563,1,0,0:0:0:0:
208,56,168631,1,0,0:0:0:0:
208,56,168698,1,8,0:0:0:0:
208,64,168833,1,0,0:0:0:0:
208,64,168901,1,0,0:0:0:0:
208,48,168968,1,8,0:0:0:0:
208,48,169104,1,8,0:0:0:0:
208,48,169239,1,0,0:0:0:0:
200,56,169306,1,8,0:0:0:0:
208,56,169374,1,0,0:0:0:0:
200,56,169509,1,8,0:0:0:0:
200,56,169577,1,8,0:0:0:0:
200,56,169644,1,0,0:0:0:0:
200,64,169712,1,0,0:0:0:0:
200,56,169779,1,8,0:0:0:0:
200,56,169847,1,0,0:0:0:0:
200,64,169914,1,0,0:0:0:0:
200,64,169982,1,0,0:0:0:0:
200,64,170050,1,8,0:0:0:0:
200,64,170117,1,8,0:0:0:0:
200,64,170185,1,0,0:0:0:0:
200,64,170252,1,8,0:0:0:0:
200,56,170320,1,0,0:0:0:0:
208,24,170455,1,8,0:0:0:0:
208,24,170590,1,8,0:0:0:0:
200,32,170725,1,0,0:0:0:0:
200,32,170793,1,8,0:0:0:0:
200,32,170860,1,0,0:0:0:0:
200,32,170928,1,0,0:0:0:0:
200,32,170995,1,8,0:0:0:0:
200,32,171063,1,8,0:0:0:0:
200,32,171131,1,0,0:0:0:0:
200,32,171266,1,8,0:0:0:0:
200,32,171401,1,0,0:0:0:0:
200,32,171536,1,8,0:0:0:0:
200,32,171604,1,0,0:0:0:0:
192,40,171671,1,8,0:0:0:0:
200,32,171739,1,8,0:0:0:0:
192,40,171806,1,0,0:0:0:0:
192,40,171874,1,8,0:0:0:0:
200,32,171941,1,0,0:0:0:0:
208,40,172077,1,8,0:0:0:0:
208,40,172144,1,8,0:0:0:0:
208,40,172212,1,0,0:0:0:0:
208,40,172347,1,8,0:0:0:0:
208,40,172414,1,8,0:0:0:0:
208,40,172482,1,0,0:0:0:0:
208,40,172550,1,0,0:0:0:0:
208,40,172617,1,8,0:0:0:0:
208,40,172685,1,0,0:0:0:0:
208,40,172752,1,8,0:0:0:0:
208,40,172820,1,0,0:0:0:0:
208,40,172887,1,8,0:0:0:0:
208,40,172955,1,8,0:0:0:0:
208,40,173022,1,0,0:0:0:0:
208,40,173090,1,0,0:0:0:0:
208,40,173158,1,8,0:0:0:0:
208,40,173293,1,0,0:0:0:0:
208,40,173428,1,0,0:0:0:0:
176,24,173563,1,8,0:0:0:0:
184,40,173631,1,0,0:0:0:0:
184,40,173698,1,8,0:0:0:0:
184,48,173766,1,0,0:0:0:0:
192,40,173833,1,8,0:0:0:0:
184,48,173901,1,8,0:0:0:0:
184,40,173968,1,0,0:0:0:0:
184,40,174036,1,0,0:0:0:0:
184,40,174104,1,8,0:0:0:0:
184,40,174171,1,0,0:0:0:0:
184,48,174239,1,8,0:0:0:0:
184,40,174306,1,0,0:0:0:0:
184,48,174374,1,8,0:0:0:0:
184,48,174441,1,8,0:0:0:0:
184,48,174509,1,0,0:0:0:0:
184,48,174577,1,0,0:0:0:0:
184,40,174644,1,8,0:0:0:0:
184,40,174712,1,8,0:0:0:0:
184,48,174779,1,0,0:0:0:0:
184,48,174847,1,0,0:0:0:0:
184,48,174914,1,8,0:0:0:0:
184,48,174982,1,8,0:0:0:0:
184,40,175050,1,0,0:0:0:0:
184,40,175117,1,8,0:0:0:0:
184,48,175185,1,0,0:0:0:0:
176,40,175995,1,8,0:0:0:0:
176,40,176401,1,8,0:0:0:0:
240,120,176671,1,0,0:0:0:0:
232,200,176806,1,8,0:0:0:0:
96,136,176874,1,0,0:0:0:0:
96,136,176941,1,8,0:0:0:0:
96,136,177009,1,0,0:0:0:0:
96,136,177077,1,8,0:0:0:0:
96,136,177144,1,0,0:0:0:0:
96,136,177212,1,8,0:0:0:0:
96,136,177279,1,8,0:0:0:0:
96,136,177347,1,0,0:0:0:0:
96,136,177414,1,0,0:0:0:0:
96,136,177482,1,8,0:0:0:0:
96,136,177550,1,0,0:0:0:0:
96,136,177617,1,8,0:0:0:0:
200,136,177685,1,8,0:0:0:0:
200,136,177752,1,0,0:0:0:0:
200,136,177820,1,0,0:0:0:0:
200,136,177887,1,8,0:0:0:0:
200,136,177955,1,0,0:0:0:0:
200,136,178022,1,8,0:0:0:0:
200,136,178090,1,8,0:0:0:0:
200,136,178158,1,0,0:0:0:0:
200,136,178225,1,0,0:0:0:0:
200,136,178293,1,8,0:0:0:0:
200,136,178360,1,0,0:0:0:0:
200,136,178428,1,8,0:0:0:0:
184,24,178495,1,0,0:0:0:0:
184,24,178563,1,8,0:0:0:0:
184,24,178631,1,0,0:0:0:0:
184,24,178698,1,8,0:0:0:0:
184,24,178766,1,0,0:0:0:0:
184,24,178833,1,8,0:0:0:0:
184,24,178901,1,8,0:0:0:0:
184,24,178968,1,0,0:0:0:0:
184,24,179036,1,0,0:0:0:0:
184,24,179104,1,8,0:0:0:0:
184,24,179171,1,0,0:0:0:0:
184,24,179239,1,8,0:0:0:0:
192,32,179306,1,8,0:0:0:0:
192,32,179374,1,0,0:0:0:0:
192,32,179441,1,8,0:0:0:0:
192,32,179509,1,0,0:0:0:0:
192,32,179577,1,0,0:0:0:0:
192,32,179644,1,8,0:0:0:0:
200,168,179914,1,0,0:0:0:0:
200,168,179982,1,0,0:0:0:0:
200,168,180050,1,8,0:0:0:0:
184,80,180117,1,0,0:0:0:0:
184,80,180185,1,0,0:0:0:0:
184,80,180252,1,0,0:0:0:0:
184,80,180320,1,8,0:0:0:0:
184,80,180387,1,0,0:0:0:0:
184,80,180455,1,8,0:0:0:0:
184,80,180522,1,8,0:0:0:0:
184,80,180590,1,0,0:0:0:0:
184,80,180658,1,0,0:0:0:0:
184,80,180725,1,8,0:0:0:0:
184,80,180793,1,0,0:0:0:0:
184,80,180860,1,8,0:0:0:0:
184,80,180928,1,0,0:0:0:0:
184,80,180995,1,0,0:0:0:0:
184,80,181063,1,0,0:0:0:0:
184,80,181131,1,8,0:0:0:0:
184,80,181198,1,0,0:0:0:0:
184,80,181266,1,8,0:0:0:0:
184,80,181333,1,8,0:0:0:0:
184,80,181401,1,0,0:0:0:0:
184,80,181468,1,0,0:0:0:0:
184,80,181536,1,8,0:0:0:0:
184,80,181604,1,0,0:0:0:0:
184,80,181671,1,8,0:0:0:0:
184,80,181739,1,0,0:0:0:0:
184,80,181806,1,0,0:0:0:0:
184,80,181874,1,0,0:0:0:0:
184,80,181941,1,8,0:0:0:0:
184,80,182009,1,0,0:0:0:0:
184,80,182077,1,8,0:0:0:0:
184,80,182144,1,0,0:0:0:0:
184,80,182212,1,8,0:0:0:0:
184,80,182279,1,8,0:0:0:0:
184,80,182347,1,8,0:0:0:0:
184,80,182414,1,0,0:0:0:0:
184,80,182482,1,8,0:0:0:0:
224,112,182550,1,8,0:0:0:0:
224,112,182617,1,0,0:0:0:0:
224,112,182685,1,0,0:0:0:0:
224,112,182752,1,8,0:0:0:0:
224,112,182820,1,8,0:0:0:0:
224,112,182887,1,0,0:0:0:0:
224,112,182955,1,0,0:0:0:0:
224,112,183022,1,8,0:0:0:0:
224,112,183090,1,8,0:0:0:0:
224,112,183158,1,0,0:0:0:0:
224,112,183225,1,0,0:0:0:0:
224,112,183293,1,8,0:0:0:0:
256,112,183360,1,0,0:0:0:0:
256,112,183428,1,8,0:0:0:0:
256,112,183495,1,0,0:0:0:0:
256,112,183563,1,8,0:0:0:0:
256,112,183631,1,0,0:0:0:0:
256,112,183698,1,8,0:0:0:0:
256,112,183766,1,8,0:0:0:0:
256,112,183833,1,0,0:0:0:0:
256,112,183901,1,0,0:0:0:0:
256,112,183968,1,0,0:0:0:0:
256,112,184036,1,0,0:0:0:0:
256,112,184104,1,8,0:0:0:0:
256,112,184171,1,0,0:0:0:0:
256,112,184239,1,8,0:0:0:0:
256,112,184306,1,0,0:0:0:0:
256,112,184374,1,8,0:0:0:0:
256,112,184441,1,0,0:0:0:0:
256,112,184509,1,8,0:0:0:0:
256,112,184577,1,8,0:0:0:0:
256,112,184644,1,0,0:0:0:0:
256,112,184712,1,0,0:0:0:0:
256,112,184779,1,8,0:0:0:0:
256,112,184847,1,8,0:0:0:0:
256,112,184914,1,0,0:0:0:0:
192,88,184982,1,8,0:0:0:0:
192,88,185050,1,0,0:0:0:0:
192,88,185117,1,0,0:0:0:0:
192,88,185185,1,8,0:0:0:0:
192,88,185252,1,0,0:0:0:0:
192,88,185320,1,8,0:0:0:0:
192,88,185387,1,8,0:0:0:0:
192,88,185455,1,0,0:0:0:0:
192,88,185522,1,0,0:0:0:0:
192,88,185590,1,8,0:0:0:0:
192,88,185658,1,0,0:0:0:0:
192,88,185725,1,8,0:0:0:0:
192,88,185793,1,8,0:0:0:0:
192,88,185860,1,0,0:0:0:0:
192,88,185928,1,0,0:0:0:0:
192,88,185995,1,8,0:0:0:0:
192,88,186063,1,0,0:0:0:0:
248,112,186131,1,8,0:0:0:0:
248,112,186266,1,0,0:0:0:0:
248,112,186401,1,0,0:0:0:0:
248,112,186536,1,8,0:0:0:0:
200,96,186604,1,0,0:0:0:0:
200,96,186671,1,8,0:0:0:0:
200,96,186739,1,0,0:0:0:0:
208,112,186806,1,8,0:0:0:0:
208,112,186874,1,0,0:0:0:0:
208,112,186941,1,8,0:0:0:0:
208,112,187009,1,8,0:0:0:0:
208,112,187077,1,0,0:0:0:0:
208,112,187144,1,0,0:0:0:0:
208,112,187212,1,8,0:0:0:0:
208,112,187279,1,0,0:0:0:0:
208,112,187347,1,8,0:0:0:0:
208,112,187414,1,0,0:0:0:0:
208,112,187482,1,8,0:0:0:0:
208,112,187550,1,0,0:0:0:0:
208,112,187617,1,8,0:0:0:0:
208,112,187685,1,0,0:0:0:0:
208,112,187752,1,8,0:0:0:0:
208,112,187820,1,8,0:0:0:0:
208,112,187887,1,8,0:0:0:0:
208,112,187955,1,0,0:0:0:0:
208,112,188022,1,8,0:0:0:0:
208,112,188090,1,8,0:0:0:0:
208,112,188158,1,0,0:0:0:0:
192,96,189779,1,0,0:0:0:0:
232,88,190185,1,0,0:0:0:0:
232,88,190590,1,8,0:0:0:0:
232,88,190995,1,0,0:0:0:0:
232,88,191266,1,8,0:0:0:0:
232,88,191401,1,0,0:0:0:0:
232,88,191806,1,0,0:0:0:0:
232,88,192212,1,8,0:0:0:0:
184,88,192347,1,0,0:0:0:0:
184,88,192482,1,0,0:0:0:0:
184,88,192617,1,8,0:0:0:0:
224,96,193022,1,0,0:0:0:0:
224,96,193428,1,0,0:0:0:0:
224,96,193698,1,0,0:0:0:0:
224,96,193833,1,8,0:0:0:0:
224,48,194239,1,0,0:0:0:0:
224,48,194509,1,8,0:0:0:0:
224,48,194644,1,0,0:0:0:0:
216,72,195050,1,0,0:0:0:0:
208,64,195320,1,0,0:0:0:0:
216,72,195455,1,8,0:0:0:0:
208,72,195725,1,0,0:0:0:0:
208,64,195995,1,0,0:0:0:0:
208,64,196266,1,0,0:0:0:0:
208,72,196536,1,0,0:0:0:0:
208,72,196671,1,0,0:0:0:0:
208,64,196941,1,0,0:0:0:0:
208,64,197077,1,8,0:0:0:0:
200,96,197482,1,0,0:0:0:0:
200,96,197752,1,8,0:0:0:0:
200,96,197887,1,0,0:0:0:0:
192,64,198293,1,0,0:0:0:0:
192,64,198563,1,0,0:0:0:0:
192,64,198698,1,8,0:0:0:0:
192,64,199104,1,8,0:0:0:0:
192,64,199509,1,0,0:0:0:0:
192,64,199914,1,0,0:0:0:0:
184,64,200185,1,0,0:0:0:0:
184,64,200320,1,8,0:0:0:0:
200,48,200725,1,0,0:0:0:0:
200,48,200995,1,8,0:0:0:0:
200,48,201131,1,0,0:0:0:0:
192,72,202752,1,8,0:0:0:0:
192,96,202820,1,8,0:0:0:0:
192,96,202887,1,0,0:0:0:0:
192,96,203022,1,0,0:0:0:0:
192,96,203158,1,0,0:0:0:0:
184,40,203428,1,0,0:0:0:0:
184,40,203563,1,8,0:0:0:0:
192,48,203698,1,0,0:0:0:0:
192,48,203833,1,0,0:0:0:0:
192,48,203968,1,8,0:0:0:0:
184,88,204036,1,8,0:0:0:0:
184,88,204104,1,0,0:0:0:0:
192,48,204239,1,0,0:0:0:0:
176,64,204374,1,0,0:0:0:0:
184,72,204644,1,0,0:0:0:0:
184,72,204779,1,0,0:0:0:0:
160,16,204847,1,0,0:0:0:0:
184,72,204914,1,8,0:0:0:0:
184,72,205049,1,0,0:0:0:0:
184,72,205184,1,8,0:0:0:0:
168,72,205455,1,0,0:0:0:0:
168,72,205590,1,8,0:0:0:0:
176,96,205860,1,8,0:0:0:0:
176,96,205995,1,0,0:0:0:0:
184,120,206063,1,0,0:0:0:0:
168,120,206131,1,8,0:0:0:0:
184,72,206266,1,0,0:0:0:0:
200,40,206401,1,8,0:0:0:0:
200,40,206536,1,0,0:0:0:0:
192,32,206671,1,0,0:0:0:0:
192,24,206806,1,8,0:0:0:0:
200,48,207077,1,0,0:0:0:0:
200,48,207212,1,8,0:0:0:0:
200,48,207280,1,0,0:0:0:0:
200,48,207347,1,8,0:0:0:0:
200,48,207482,1,0,0:0:0:0:
192,48,207618,1,8,0:0:0:0:
168,56,207887,1,8,0:0:0:0:
168,56,208022,1,0,0:0:0:0:
160,32,208293,1,0,0:0:0:0:
160,32,208428,1,8,0:0:0:0:
192,88,208698,1,0,0:0:0:0:
192,88,208834,1,8,0:0:0:0:
192,88,208969,1,8,0:0:0:0:
192,88,209104,1,8,0:0:0:0:
192,88,209239,1,0,0:0:0:0:
192,72,209509,1,0,0:0:0:0:
192,72,209644,1,8,0:0:0:0:
192,72,209779,1,0,0:0:0:0:
192,72,209914,1,0,0:0:0:0:
192,72,210049,1,8,0:0:0:0:
240,80,210320,1,0,0:0:0:0:
240,80,210455,1,8,0:0:0:0:
232,80,210522,1,8,0:0:0:0:
224,88,210590,1,0,0:0:0:0:
200,40,210725,1,0,0:0:0:0:
200,40,210860,1,8,0:0:0:0:
176,40,211131,1,0,0:0:0:0:
176,40,211266,1,8,0:0:0:0:
176,40,211401,1,0,0:0:0:0:
176,40,211536,1,0,0:0:0:0:
176,40,211671,1,8,0:0:0:0:
208,64,211942,1,8,0:0:0:0:
208,64,212077,1,0,0:0:0:0:
224,64,212482,1,8,0:0:0:0:
216,72,212550,1,8,0:0:0:0:
224,64,212617,1,0,0:0:0:0:
224,64,212752,1,0,0:0:0:0:
224,64,212887,1,8,0:0:0:0:
224,64,213022,1,0,0:0:0:0:
224,64,213158,1,0,0:0:0:0:
224,64,213293,1,8,0:0:0:0:
224,56,213563,1,0,0:0:0:0:
224,56,213698,1,8,0:0:0:0:
208,56,213766,1,8,0:0:0:0:
224,56,213833,1,0,0:0:0:0:
208,56,213901,1,0,0:0:0:0:
224,56,213968,1,8,0:0:0:0:
224,56,214104,1,0,0:0:0:0:
224,88,214509,1,8,0:0:0:0:
224,88,214914,1,8,0:0:0:0:
224,88,215185,1,0,0:0:0:0:
232,80,215725,1,4,0:0:0:0:
