osu file format v14

[General]
AudioFilename: audio.mp3
AudioLeadIn: 0
PreviewTime: 55056
Countdown: 0
SampleSet: Soft
StackLeniency: 0.2
Mode: 0
LetterboxInBreaks: 0
WidescreenStoryboard: 0

[Editor]
DistanceSpacing: 1
BeatDivisor: 6
GridSize: 4
TimelineZoom: 2.6

[Metadata]
Title:Dead To Me (Instrumental)
TitleUnicode:Dead To Me (Instrumental)
Artist:Sex Whales & Fraxo
ArtistUnicode:Sex Whales & Fraxo
Creator:Sotarks
Version:NiNo's Insane
Source:
Tags:akitoshi -laura- corinn armin a_r_m_i_n naotoshi nao_tomori snownino_
BeatmapID:1608726
BeatmapSetID:764602

[Difficulty]
HPDrainRate:6
CircleSize:4
OverallDifficulty:8
ApproachRate:9
SliderMultiplier:2.79999990463257
SliderTickRate:1

[Events]
//Background and Video events
0,0,"generic_tokyoghoul_bg.jpg",0,0
//Break Periods
//Storyboard Layer 0 (Background)
//Storyboard Layer 1 (Fail)
//Storyboard Layer 2 (Pass)
//Storyboard Layer 3 (Foreground)
//Storyboard Sound Samples

[TimingPoints]
24313,405.405405405405,4,2,22,40,1,0
25934,-133.333333333333,4,2,22,40,0,0
40529,-100,4,2,22,60,0,0
55123,-100,4,2,22,80,0,1
79448,-133.333333333333,4,2,22,80,0,1
81069,-100,4,2,22,80,0,1
92421,-100,4,2,22,80,0,0

[Colours]
Combo1 : 255,251,174
Combo2 : 188,24,24
Combo3 : 107,52,52
SliderBorder : 255,255,255
SliderTrackOverride : 0,0,0

[HitObjects]
301,195,25934,6,0,P|357:180|276:125,1,210.000000858307,6|0,1:0|0:0,0:0:0:0:
166,306,26610,1,0,0:0:0:0:
166,306,26745,2,0,L|312:313,1,140.000000572205,10|0,0:0|0:0,0:0:0:0:
389,303,27150,2,0,P|372:267|379:220,1,70.0000002861023,2|0,0:0|0:0,0:0:0:0:
406,160,27421,1,0,1:0:0:0:
406,160,27556,6,0,B|362:121|362:121|277:135,1,140.000000572205,2|0,1:0|0:0,0:0:0:0:
219,190,27961,2,0,P|247:145|204:69,1,140.000000572205,0|0,0:0|0:0,0:0:0:0:
132,42,28367,2,0,B|77:56|77:56|53:157,1,140.000000572205,10|0,0:0|0:0,0:0:0:0:
71,219,28772,2,0,B|126:205|126:205|150:104,1,140.000000572205,2|0,0:0|0:0,0:0:0:0:
211,72,29177,6,0,B|287:81|287:81|314:117|314:117|408:130,1,210.000000858307,2|0,1:0|0:0,0:0:0:0:
461,286,29853,1,0,1:0:0:0:
461,286,29988,2,0,P|412:264|331:309,1,140.000000572205,10|0,0:0|0:0,0:0:0:0:
283,362,30394,2,0,P|246:360|211:342,1,70.0000002861023,2|0,0:0|0:0,0:0:0:0:
167,278,30664,1,0,1:0:0:0:
167,278,30799,6,0,L|180:111,1,140.000000572205,2|0,1:0|0:0,0:0:0:0:
191,55,31204,2,0,P|232:39|275:45,1,70.0000002861023,2|0,0:0|0:0,0:0:0:0:
310,105,31475,1,0,1:0:0:0:
310,105,31610,2,0,P|341:119|376:120,1,70.0000002861023,10|0,0:0|0:0,0:0:0:0:
457,98,31880,2,0,P|397:126|445:257,1,210.000000858307,2|0,1:0|0:0,0:0:0:0:
492,290,32421,5,2,1:0:0:0:
492,290,33231,2,0,L|336:273,1,140.000000572205,10|0,0:0|0:0,0:0:0:0:
302,206,33637,2,0,L|219:215,1,70.0000002861023,2|0,0:0|0:0,0:0:0:0:
149,225,33907,1,0,1:0:0:0:
149,225,34042,6,0,P|103:208|87:104,1,140.000000572205,2|0,1:0|0:0,0:0:0:0:
89,43,34448,2,0,P|135:60|151:164,1,140.000000572205,0|0,0:0|0:0,0:0:0:0:
228,191,34853,2,0,L|382:181,1,140.000000572205,10|0,0:0|0:0,0:0:0:0:
450,167,35258,2,0,P|391:205|400:288,1,140.000000572205,2|0,0:0|0:0,0:0:0:0:
434,340,35664,6,0,B|373:291|373:291|263:351|263:351|197:290,1,280.000001144409,2|0,1:0|0:0,0:0:0:0:
126,273,36340,1,0,1:0:0:0:
126,273,36475,2,0,P|177:273|234:192,1,140.000000572205,10|0,0:0|0:0,0:0:0:0:
249,127,36880,2,0,L|242:46,1,70.0000002861023,2|0,0:0|0:0,0:0:0:0:
170,15,37150,1,0,1:0:0:0:
170,15,37285,5,2,1:0:0:0:
342,369,37691,1,2,0:0:0:0:
203,118,38096,5,2,0:0:0:0:
309,266,38367,1,2,0:0:0:0:
321,128,40529,6,0,L|311:26,2,93.333330154419,6|0|0,1:0|0:0|0:0,0:0:0:0:
250,189,40934,2,0,L|240:291,2,93.333330154419,0|0|0,0:0|0:0|0:0,0:0:0:0:
197,110,41340,1,10,0:0:0:0:
197,110,41407,1,0,0:0:0:0:
197,110,41475,2,0,L|97:98,1,93.333330154419,0|0,0:0|0:0,0:0:0:0:
43,169,41745,1,2,0:0:0:0:
43,169,41812,1,0,0:0:0:0:
43,169,41880,1,0,0:0:0:0:
43,169,41948,1,0,0:0:0:0:
43,169,42015,2,0,L|48:230,1,46.6666650772095,0|0,1:0|0:0,0:0:0:0:
128,257,42150,6,0,L|133:196,2,46.6666650772095,2|0|0,1:0|0:0|0:0,0:0:0:0:
162,344,42421,1,0,0:0:0:0:
233,283,42556,2,0,L|241:179,1,93.333330154419,0|0,0:0|0:0,0:0:0:0:
227,97,42826,1,0,0:0:0:0:
314,132,42961,2,0,L|418:128,2,93.333330154419,10|0|0,0:0|0:0|0:0,0:0:0:0:
240,189,43367,6,0,L|188:186,1,46.6666650772095,2|0,0:0|0:0,0:0:0:0:
229,205,43502,2,0,L|177:202,1,46.6666650772095,0|0,0:0|0:0,0:0:0:0:
218,221,43637,2,0,L|166:218,1,46.6666650772095,0|0,0:0|0:0,0:0:0:0:
207,237,43772,6,0,L|103:231,2,93.333330154419,2|0|0,1:0|0:0|0:0,0:0:0:0:
289,280,44177,2,0,L|393:274,1,93.333330154419,0|0,0:0|0:0,0:0:0:0:
472,250,44448,1,0,1:0:0:0:
406,184,44583,1,10,0:0:0:0:
406,184,44650,1,0,0:0:0:0:
406,184,44718,2,0,L|312:189,1,93.333330154419,0|0,0:0|0:0,0:0:0:0:
253,116,44988,1,2,0:0:0:0:
253,116,45056,1,0,0:0:0:0:
253,116,45123,1,0,0:0:0:0:
253,116,45191,1,0,0:0:0:0:
253,116,45258,2,0,L|206:113,1,46.6666650772095,0|0,1:0|0:0,0:0:0:0:
188,200,45394,6,0,L|234:197,2,46.6666650772095,2|0|0,1:0|0:0|0:0,0:0:0:0:
129,272,45664,2,0,L|35:266,2,93.333330154419,0|2|0,0:0|0:0|0:0,0:0:0:0:
162,357,46069,1,0,1:0:0:0:
221,285,46204,2,0,L|314:279,1,93.333330154419,10|0,0:0|0:0,0:0:0:0:
406,272,46475,1,2,1:0:0:0:
401,179,46610,2,0,L|397:123,1,46.6666650772095,0|0,0:0|0:0,0:0:0:0:
383,174,46745,2,0,L|379:118,1,46.6666650772095,0|0,0:0|0:0,0:0:0:0:
365,169,46880,2,0,L|361:113,1,46.6666650772095,0|0,0:0|0:0,0:0:0:0:
347,164,47015,6,0,L|341:64,2,93.333330154419,2|0|0,1:0|0:0|0:0,0:0:0:0:
286,235,47421,2,0,L|280:334,2,93.333330154419,0|0|0,0:0|0:0|0:0,0:0:0:0:
255,146,47826,1,10,0:0:0:0:
255,146,47894,1,0,0:0:0:0:
255,146,47961,2,0,L|152:138,1,93.333330154419,0|0,0:0|0:0,0:0:0:0:
85,192,48231,1,2,0:0:0:0:
85,192,48299,1,0,0:0:0:0:
85,192,48367,1,0,0:0:0:0:
85,192,48434,1,0,0:0:0:0:
85,192,48502,2,0,P|83:216|75:241,1,46.6666650772095,0|0,1:0|0:0,0:0:0:0:
171,294,48637,6,0,P|164:271|162:248,2,46.6666650772095,2|0|0,1:0|0:0|0:0,0:0:0:0:
258,325,48907,2,0,L|353:329,2,93.333330154419,0|0|0,0:0|0:0|0:0,0:0:0:0:
171,294,49312,1,0,0:0:0:0:
242,235,49448,2,0,L|248:139,2,93.333330154419,10|0|0,0:0|0:0|0:0,0:0:0:0:
155,204,49853,2,0,L|108:202,1,46.6666650772095,2|0,0:0|0:0,0:0:0:0:
150,188,49988,2,0,L|103:186,1,46.6666650772095,0|0,0:0|0:0,0:0:0:0:
145,172,50123,2,0,L|98:170,1,46.6666650772095,0|0,0:0|0:0,0:0:0:0:
140,156,50259,6,0,L|22:151,1,93.333330154419,2|0,1:0|0:0,0:0:0:0:
3,69,50529,1,0,0:0:0:0:
96,72,50664,2,0,L|189:75,1,93.333330154419,0|0,0:0|0:0,0:0:0:0:
282,78,50934,1,0,1:0:0:0:
278,172,51069,1,10,0:0:0:0:
278,172,51137,1,0,0:0:0:0:
278,172,51204,2,0,L|274:265,1,93.333330154419,0|0,0:0|0:0,0:0:0:0:
189,307,51475,1,2,0:0:0:0:
189,307,51542,1,0,0:0:0:0:
189,307,51610,1,0,0:0:0:0:
189,307,51677,1,0,0:0:0:0:
189,307,51745,2,0,L|190:260,1,46.6666650772095,0|0,1:0|0:0,0:0:0:0:
152,132,51880,5,2,1:0:0:0:
460,234,52285,1,2,0:0:0:0:
286,109,52691,5,2,0:0:0:0:
334,265,52962,1,2,0:0:0:0:
345,156,55123,6,0,L|229:148,1,93.333330154419,6|2,1:0|0:0,0:0:0:0:
158,142,55394,1,2,0:0:0:0:
212,65,55529,2,0,L|408:78,1,186.666660308838,2|0,0:0|0:0,0:0:0:0:
438,162,55934,1,10,0:0:0:0:
344,155,56069,1,2,0:0:0:0:
385,239,56204,1,2,0:0:0:0:
291,232,56340,2,0,L|197:225,1,93.333330154419,2|0,0:0|0:0,0:0:0:0:
104,218,56610,1,0,1:0:0:0:
159,143,56745,6,0,L|252:149,1,93.333330154419,2|2,1:0|0:0,0:0:0:0:
344,155,57015,1,2,0:0:0:0:
291,232,57150,2,0,L|104:219,1,186.666660308838,2|0,0:0|0:0,0:0:0:0:
10,218,57556,2,0,P|74:218|136:320,1,186.666660308838,10|0,0:0|0:0,0:0:0:0:
44,306,57961,2,0,L|51:90,1,186.666660308838,2|0,0:0|0:0,0:0:0:0:
109,46,58367,5,2,1:0:0:0:
142,132,58502,1,0,0:0:0:0:
201,59,58637,1,2,0:0:0:0:
234,145,58772,2,0,L|237:258,2,93.333330154419,2|0|2,0:0|0:0|1:0,0:0:0:0:
293,72,59177,1,10,0:0:0:0:
326,158,59313,1,2,0:0:0:0:
385,85,59448,1,2,0:0:0:0:
418,171,59583,2,0,L|421:284,1,93.333330154419,2|0,1:0|0:0,0:0:0:0:
374,345,59853,1,2,1:0:0:0:
327,263,59988,6,0,P|294:234|228:229,1,93.333330154419,2|2,1:0|0:0,0:0:0:0:
168,275,60258,1,0,0:0:0:0:
179,369,60394,2,0,P|220:354|257:300,1,93.333330154419,2|2,0:0|0:0,0:0:0:0:
246,225,60664,1,2,1:0:0:0:
161,187,60799,2,0,P|152:230|181:289,1,93.333330154419,10|0,0:0|0:0,0:0:0:0:
236,132,61069,2,0,P|202:103|136:98,1,93.333330154419,2|0,1:0|0:0,0:0:0:0:
246,225,61340,2,0,P|287:210|324:156,1,93.333330154419,2|0,1:0|0:0,0:0:0:0:
161,187,61610,6,0,L|55:179,2,93.333330154419,6|2|2,1:0|0:0|0:0,0:0:0:0:
246,225,62015,2,0,L|472:242,1,186.666660308838,2|0,0:0|0:0,0:0:0:0:
495,169,62421,1,10,0:0:0:0:
403,150,62556,1,2,0:0:0:0:
466,80,62691,1,2,0:0:0:0:
374,61,62826,2,0,L|282:42,1,93.333330154419,2|0,0:0|0:0,0:0:0:0:
190,23,63096,1,0,1:0:0:0:
220,112,63231,6,0,L|311:130,2,93.333330154419,2|2|2,1:0|0:0|0:0,0:0:0:0:
127,93,63637,2,0,P|80:117|75:252,1,186.666660308838,2|0,0:0|0:0,0:0:0:0:
104,323,64042,2,0,B|179:312|179:312|208:334|208:334|306:322,1,186.666660308838,10|0,0:0|0:0,0:0:0:0:
374,312,64448,1,8,3:0:0:0:
420,306,64583,1,8,3:0:0:0:
466,300,64718,1,10,3:0:0:0:
411,227,64853,6,0,L|308:214,1,93.333330154419,6|2,1:0|0:0,0:0:0:0:
225,203,65123,1,2,0:0:0:0:
282,129,65258,2,0,L|374:140,1,93.333330154419,2|0,0:0|0:0,0:0:0:0:
467,152,65529,1,0,1:0:0:0:
411,227,65664,2,0,L|308:214,1,93.333330154419,10|2,0:0|0:0,0:0:0:0:
225,203,65934,1,2,0:0:0:0:
133,192,66069,2,0,L|236:205,1,93.333330154419,2|0,1:0|0:0,0:0:0:0:
318,215,66339,1,2,1:0:0:0:
282,129,66475,5,0,1:0:0:0:
282,129,66880,2,0,L|385:121,2,93.333330154419,2|2|2,0:0|0:0|0:0,0:0:0:0:
191,106,67285,2,0,P|250:141|234:252,1,186.666660308838,2|2,0:0|0:0,0:0:0:0:
180,320,67691,2,0,B|227:273|227:273|366:312,1,186.666660308838,2|2,0:0|0:0,0:0:0:0:
432,329,68096,6,0,P|418:280|437:228,1,93.333330154419,6|2,1:0|0:0,0:0:0:0:
503,182,68367,1,2,0:0:0:0:
414,146,68502,2,0,L|210:131,1,186.666660308838,2|0,0:0|0:0,0:0:0:0:
138,106,68907,1,10,0:0:0:0:
160,196,69042,1,2,0:0:0:0:
71,170,69177,1,2,0:0:0:0:
93,260,69312,2,0,P|134:285|191:283,1,93.333330154419,2|0,0:0|0:0,0:0:0:0:
160,196,69583,1,0,1:0:0:0:
71,169,69718,6,0,P|28:192|2:242,2,93.333330154419,2|2|2,1:0|0:0|0:0,0:0:0:0:
160,196,70123,2,0,P|157:132|49:76,1,186.666660308838,2|0,0:0|0:0,0:0:0:0:
71,169,70529,2,0,L|290:182,1,186.666660308838,10|0,0:0|0:0,0:0:0:0:
350,185,70934,1,0,0:0:0:0:
350,185,71340,5,2,1:0:0:0:
308,102,71475,1,0,0:0:0:0:
257,180,71610,1,2,0:0:0:0:
215,97,71745,2,0,L|220:-2,2,93.333330154419,2|0|2,0:0|0:0|1:0,0:0:0:0:
164,175,72150,1,10,0:0:0:0:
122,92,72285,1,2,0:0:0:0:
71,170,72421,1,2,0:0:0:0:
29,87,72556,2,0,L|141:93,1,93.333330154419,2|0,1:0|0:0,0:0:0:0:
215,97,72826,1,2,1:0:0:0:
164,175,72961,6,0,L|70:170,1,93.333330154419,2|2,1:0|0:0,0:0:0:0:
66,263,73231,1,2,0:0:0:0:
159,268,73367,2,0,L|252:272,1,93.333330154419,2|2,0:0|0:0,0:0:0:0:
257,180,73637,1,2,1:0:0:0:
164,175,73772,2,0,L|70:170,1,93.333330154419,10|0,0:0|0:0,0:0:0:0:
215,97,74042,2,0,L|308:92,1,93.333330154419,2|0,1:0|0:0,0:0:0:0:
173,14,74312,2,0,L|79:9,1,93.333330154419,2|0,1:0|0:0,0:0:0:0:
33,90,74583,6,0,P|63:121|68:181,1,93.333330154419,6|2,1:0|0:0,0:0:0:0:
36,255,74853,1,2,0:0:0:0:
128,244,74988,2,0,P|161:207|297:219,1,186.666660308838,2|0,0:0|0:0,0:0:0:0:
371,255,75394,2,0,L|364:137,1,93.333330154419,10|2,0:0|0:0,0:0:0:0:
359,68,75664,1,2,0:0:0:0:
281,121,75799,2,0,B|173:114,1,93.333330154419,2|0,0:0|0:0,0:0:0:0:
94,107,76069,1,0,1:0:0:0:
148,31,76204,6,0,B|241:37,2,93.333330154419,2|2|2,1:0|0:0|0:0,0:0:0:0:
94,107,76610,2,0,B|48:162|48:162|74:286,1,186.666660308838,2|0,0:0|0:0,0:0:0:0:
152,320,77015,2,0,B|245:326,2,93.333330154419,10|2|2,0:0|0:0|0:0,0:0:0:0:
72,274,77421,1,10,3:0:0:0:
151,228,77556,1,10,3:0:0:0:
152,320,77691,1,10,3:0:0:0:
71,182,77826,5,6,1:0:0:0:
72,274,77961,1,2,0:0:0:0:
151,228,78096,1,2,0:2:0:0:
71,182,78231,2,0,L|66:69,2,93.333330154419,2|2|2,0:0|1:2|0:0,0:0:0:0:
151,228,78637,5,10,0:2:0:0:
150,135,78772,1,2,0:0:0:0:
230,181,78907,1,2,0:2:0:0:
229,88,79042,5,2,1:0:0:0:
150,135,79177,1,2,0:2:0:0:
230,181,79312,1,2,1:0:0:0:
148,42,79448,6,0,B|97:41|42:76|32:158|71:207|121:225|121:225|51:252|37:353|37:353|89:309|149:297|217:309|251:342|251:342|297:301|384:326,1,770.000003147126,2|0,1:0|0:0,0:0:0:0:
448,299,81069,6,0,L|456:189,1,93.333330154419,6|2,1:0|0:0,0:0:0:0:
461,111,81340,1,2,0:0:0:0:
377,153,81475,2,0,P|360:205|220:217,1,186.666660308838,2|0,0:0|0:0,0:0:0:0:
192,155,81880,1,10,0:0:0:0:
285,150,82015,1,2,0:0:0:0:
243,233,82150,1,2,0:0:0:0:
192,155,82285,2,0,L|189:34,1,93.333330154419,2|0,0:0|0:0,0:0:0:0:
112,7,82556,1,0,1:0:0:0:
104,99,82691,6,0,L|106:202,2,93.333330154419,2|2|2,1:0|0:0|0:0,0:0:0:0:
190,62,83096,2,0,B|249:32|249:32|377:65,1,186.666660308838,2|0,0:0|0:0,0:0:0:0:
427,132,83502,1,10,0:0:0:0:
343,174,83637,1,2,0:0:0:0:
407,244,83772,1,2,0:0:0:0:
323,286,83907,2,0,L|120:299,1,186.666660308838,2|0,0:0|0:0,0:0:0:0:
43,303,84312,6,0,P|65:247|54:197,1,93.333330154419,2|0,1:0|0:0,0:0:0:0:
12,134,84583,1,2,0:0:0:0:
105,132,84718,2,0,L|219:134,2,93.333330154419,2|2|2,0:0|0:0|1:0,0:0:0:0:
61,215,85123,2,0,P|39:271|50:321,1,93.333330154419,10|0,0:0|0:0,0:0:0:0:
111,367,85394,1,2,0:0:0:0:
133,276,85529,2,0,L|241:269,1,93.333330154419,2|2,1:0|0:0,0:0:0:0:
319,262,85799,1,2,1:0:0:0:
266,184,85934,6,0,L|158:177,2,93.333330154419,2|0|2,1:0|0:0|0:0,0:0:0:0:
361,178,86340,1,2,0:0:0:0:
319,262,86475,1,2,0:0:0:0:
266,184,86610,1,2,1:0:0:0:
361,178,86745,2,0,L|469:171,1,93.333330154419,10|0,0:0|0:0,0:0:0:0:
319,262,87015,2,0,L|211:255,1,93.333330154419,2|0,1:0|0:0,0:0:0:0:
372,340,87285,2,0,L|480:333,1,93.333330154419,2|0,1:0|0:0,0:0:0:0:
412,255,87556,6,0,L|318:261,1,93.333330154419,6|2,1:0|0:0,0:0:0:0:
225,255,87826,1,2,0:0:0:0:
277,178,87961,2,0,P|316:238|266:339,1,186.666660308838,2|0,0:0|0:0,0:0:0:0:
178,338,88367,2,0,L|66:331,1,93.333330154419,10|2,0:0|0:0,0:0:0:0:
37,251,88637,1,2,0:0:0:0:
131,249,88772,2,0,L|250:256,1,93.333330154419,2|0,0:0|0:0,0:0:0:0:
317,259,89042,1,0,1:0:0:0:
277,178,89177,6,0,L|183:172,2,93.333330154419,2|2|2,1:0|0:0|0:0,0:0:0:0:
367,184,89583,2,0,P|399:223|347:344,1,186.666660308838,2|0,0:0|0:0,0:0:0:0:
267,333,89988,1,10,0:0:0:0:
317,259,90123,1,2,0:0:0:0:
357,339,90258,1,2,0:0:0:0:
267,333,90394,1,10,3:0:0:0:
220,329,90529,1,8,3:0:0:0:
173,326,90664,1,8,3:0:0:0:
79,319,90799,6,0,P|59:273|67:212,1,93.333330154419,2|2,1:0|0:0,0:0:0:0:
100,146,91069,1,2,0:0:0:0:
154,221,91204,2,0,L|261:228,2,93.333330154419,2|0|0,0:0|0:0|1:0,0:0:0:0:
60,230,91610,1,10,0:0:0:0:
100,146,91745,1,2,0:0:0:0:
154,221,91880,1,2,0:0:0:0:
6,155,92015,2,0,L|17:47,1,93.333330154419,2|0,1:0|0:0,0:0:0:0:
140,62,92285,1,2,1:0:0:0:
100,146,92421,5,0,1:0:0:0:
