osu file format v14

[General]
AudioFilename: audio.mp3
AudioLeadIn: 0
PreviewTime: 55056
Countdown: 0
SampleSet: Soft
StackLeniency: 0.7
Mode: 0
LetterboxInBreaks: 0
WidescreenStoryboard: 0

[Editor]
DistanceSpacing: 0.6
BeatDivisor: 3
GridSize: 4
TimelineZoom: 2.6

[Metadata]
Title:Dead To Me (Instrumental)
TitleUnicode:Dead To Me (Instrumental)
Artist:Sex Whales & Fraxo
ArtistUnicode:Sex Whales & Fraxo
Creator:Sotarks
Version:Nao's Hard
Source:
Tags:akitoshi -laura- corinn armin a_r_m_i_n naotoshi nao_tomori snownino_
BeatmapID:1608849
BeatmapSetID:764602

[Difficulty]
HPDrainRate:4.4
CircleSize:3.4
OverallDifficulty:6.5
ApproachRate:7.5
SliderMultiplier:1.52
SliderTickRate:1

[Events]
//Background and Video events
0,0,"generic_tokyoghoul_bg.jpg",0,0
//Break Periods
//Storyboard Layer 0 (Background)
//Storyboard Layer 1 (Fail)
//Storyboard Layer 2 (Pass)
//Storyboard Layer 3 (Foreground)
//Storyboard Sound Samples

[TimingPoints]
24313,405.405405405405,4,2,22,52,1,0
25934,-100,4,2,22,52,0,0
40529,-100,4,2,22,62,0,0
52961,-100,4,2,22,52,0,0
55056,-100,4,2,22,5,0,0
55123,-100,4,2,22,72,0,0
57150,-100,4,2,22,72,0,0
57961,-100,4,2,22,72,0,0
58299,-100,4,2,22,5,0,0
58367,-100,4,2,22,72,0,0
63637,-100,4,2,22,72,0,0
64042,-100,4,2,22,72,0,0
66069,-100,4,2,22,72,0,0
70123,-100,4,2,22,72,0,0
70934,-100,4,2,22,72,0,0
71272,-100,4,2,22,5,0,0
71340,-100,4,2,22,72,0,0
74988,-100,4,2,22,72,0,0
75799,-100,4,2,22,72,0,0
76610,-100,4,2,22,72,0,0
79448,-100,4,2,22,72,0,0
81069,-100,4,2,22,82,0,0
83907,-66.6666666666667,4,2,22,82,0,0
84312,-100,4,2,22,82,0,0
90394,-100,4,2,22,82,0,0
91204,-100,4,2,22,82,0,0

[Colours]
Combo1 : 255,251,174
Combo2 : 188,24,24
Combo3 : 107,52,52
SliderBorder : 255,255,255
SliderTrackOverride : 0,0,0

[HitObjects]
121,168,25934,6,0,P|151:147|344:232,1,253.333333333333,6|2,1:0|0:0,0:0:0:0:
352,254,26745,1,10,0:0:0:0:
478,138,27150,2,0,P|480:93|448:35,1,101.333333333333,2|0,0:0|1:0,0:0:0:0:
419,27,27556,2,0,P|372:53|258:46,1,152,2|0,1:0|0:0,0:0:0:0:
113,78,28367,2,0,P|89:139|123:238,1,152,10|2,0:0|0:0,0:0:0:0:
268,320,29177,6,0,P|324:257|489:265,1,253.333333333333,2|0,1:0|1:0,0:0:0:0:
510,292,29988,1,10,0:0:0:0:
408,136,30394,2,0,P|348:148|292:137,1,101.333333333333,2|0,0:0|1:0,0:0:0:0:
269,129,30799,6,0,L|107:136,1,152,2|2,1:0|0:0,0:0:0:0:
27,234,31475,1,0,1:0:0:0:
27,234,31610,2,0,L|41:347,1,101.333333333333,10|2,0:0|1:0,0:0:0:0:
60,352,32421,6,0,P|107:364|247:229,1,253.333333333333,2|0,1:0|0:0,0:0:0:0:
219,212,33231,2,0,L|203:49,1,152,10|2,0:0|0:0,0:0:0:0:
356,9,33907,1,0,1:0:0:0:
356,9,34042,2,0,L|346:179,1,152,2|0,1:0|0:0,0:0:0:0:
259,310,34853,2,0,P|205:325|104:291,1,152,10|2,0:0|0:0,0:0:0:0:
130,121,35664,6,0,B|263:99|242:203|364:186,1,253.333333333333,2|0,1:0|1:0,0:0:0:0:
402,165,36475,1,10,0:0:0:0:
465,330,36880,2,0,P|491:282|500:214,1,101.333333333333,2|0,0:0|1:0,0:0:0:0:
480,200,37285,2,0,L|320:216,1,152,2|2,1:0|0:0,0:0:0:0:
94,293,38096,2,0,L|195:308,1,101.333333333333,2|2,0:0|0:0,0:0:0:0:
197,319,40529,6,0,P|223:283|256:228,1,101.333333333333,6|0,1:0|0:0,0:0:0:0:
352,213,40934,2,0,L|343:145,2,50.6666666666667,0|0|0,0:0|0:0|0:0,0:0:0:0:
444,268,41340,2,0,P|460:216|479:113,1,152,10|2,0:0|0:0,0:0:0:0:
350,30,42015,1,0,1:0:0:0:
350,30,42150,6,0,P|273:72|247:74,1,101.333333333333,2|0,1:0|0:0,0:0:0:0:
176,137,42556,2,0,L|167:215,2,50.6666666666667,0|0|0,0:0|0:0|0:0,0:0:0:0:
109,57,42961,2,0,P|35:76|16:176,1,152,10|2,0:0|0:0,0:0:0:0:
132,301,43772,6,0,B|208:267|220:343|314:309,1,152,2|0,1:0|0:0,0:0:0:0:
410,265,44448,1,0,1:0:0:0:
410,265,44583,2,0,L|426:90,1,152,10|2,0:0|0:0,0:0:0:0:
281,41,45258,1,0,1:0:0:0:
281,41,45394,6,0,L|291:165,1,101.333333333333,2|0,1:0|0:0,0:0:0:0:
324,216,45799,2,0,L|315:333,1,101.333333333333,2|0,0:0|1:0,0:0:0:0:
249,368,46204,1,10,0:0:0:0:
121,310,46475,1,2,1:0:0:0:
121,310,47015,6,0,P|51:321|-12:288,1,101.333333333333,2|0,1:0|0:0,0:0:0:0:
17,224,47421,2,0,L|4:160,2,50.6666666666667,0|0|0,0:0|0:0|0:0,0:0:0:0:
85,130,47826,2,0,P|70:75|-2:7,1,152,10|2,0:0|0:0,0:0:0:0:
198,59,48502,1,0,1:0:0:0:
198,59,48637,6,0,L|337:47,1,101.333333333333,2|0,1:0|0:0,0:0:0:0:
369,113,49042,2,0,L|364:181,2,50.6666666666667,0|0|0,0:0|0:0|0:0,0:0:0:0:
444,40,49448,2,0,P|468:144|489:192,1,152,10|2,0:0|0:0,0:0:0:0:
341,300,50258,6,0,B|267:278|263:342|161:308,1,152,2|0,1:0|0:0,0:0:0:0:
75,236,50934,1,0,1:0:0:0:
75,236,51069,2,0,P|84:150|84:101,1,101.333333333333,10|0,0:0|0:0,0:0:0:0:
172,100,51475,2,0,P|216:153|260:190,1,101.333333333333,2|0,0:0|1:0,0:0:0:0:
179,249,51880,5,2,1:0:0:0:
179,249,52285,1,2,0:0:0:0:
179,249,52691,2,0,L|303:269,1,101.333333333333,2|2,0:0|0:0,0:0:0:0:
181,219,55123,5,6,1:0:0:0:
181,219,55258,1,2,0:0:0:0:
181,219,55394,1,2,0:0:0:0:
254,261,55529,2,0,P|305:243|377:261,1,101.333333333333,2|0,0:0|0:0,0:0:0:0:
427,219,55934,2,0,L|436:161,2,50.6666666666667,10|2|2,0:0|0:0|0:0,0:0:0:0:
480,292,56340,1,2,0:0:0:0:
335,149,56610,5,0,1:0:0:0:
335,149,56745,2,0,L|265:168,1,50.6666666666667,2|2,1:0|0:0,0:0:0:0:
208,126,57015,1,2,0:0:0:0:
208,126,57150,2,0,P|186:171|189:233,1,101.333333333333,2|0,0:0|0:0,0:0:0:0:
225,305,57556,2,0,L|304:289,1,50.6666666666667,10|0,0:0|0:0,0:0:0:0:
21,322,57961,6,0,L|143:327,1,101.333333333333,2|0,0:0|0:0,0:0:0:0:
274,294,58367,6,0,P|286:244|258:168,1,101.333333333333,2|2,1:0|0:0,0:0:0:0:
201,142,58772,2,0,L|138:143,2,50.6666666666667,2|0|2,0:0|0:0|1:0,0:0:0:0:
275,74,59177,1,10,0:0:0:0:
275,74,59312,1,2,0:0:0:0:
278,78,59448,1,2,0:0:0:0:
377,108,59583,2,0,L|405:185,1,50.6666666666667,2|0,1:0|0:0,0:0:0:0:
467,201,59853,1,2,1:0:0:0:
336,228,59988,6,0,L|273:223,2,50.6666666666667,2|2|0,1:0|0:0|0:0,0:0:0:0:
239,305,60394,1,2,0:0:0:0:
203,274,60529,1,2,0:0:0:0:
187,229,60664,1,2,1:0:0:0:
106,261,60799,2,0,L|80:366,2,101.333333333333,10|2|2,0:0|1:0|1:0,0:0:0:0:
62,111,61610,5,6,1:0:0:0:
62,111,61745,1,2,0:0:0:0:
62,111,61880,1,2,0:0:0:0:
130,48,62015,2,0,P|188:74|262:61,1,101.333333333333,2|0,0:0|0:0,0:0:0:0:
314,95,62421,2,0,L|327:148,2,50.6666666666667,10|2|2,0:0|0:0|0:0,0:0:0:0:
382,31,62826,1,2,0:0:0:0:
285,230,63096,5,0,1:0:0:0:
285,230,63231,2,0,L|300:304,1,50.6666666666667,2|2,1:0|0:0,0:0:0:0:
378,314,63502,1,2,0:0:0:0:
378,314,63637,2,0,P|425:282|494:303,1,101.333333333333,2|0,0:0|0:0,0:0:0:0:
302,362,64042,2,0,L|158:357,1,101.333333333333,10|0,0:0|0:0,0:0:0:0:
117,292,64448,6,0,L|105:223,2,50.6666666666667,8|8|10,3:0|3:0|3:0,0:0:0:0:
182,176,64853,5,6,1:0:0:0:
182,176,64988,1,2,0:0:0:0:
182,176,65123,1,2,0:0:0:0:
283,233,65258,2,0,L|356:224,2,50.6666666666667,2|0|0,0:0|0:0|1:0,0:0:0:0:
195,308,65664,1,10,0:0:0:0:
195,308,65799,2,0,L|132:304,1,50.6666666666667,2|2,0:0|0:0,0:0:0:0:
296,368,66069,2,0,L|367:358,1,50.6666666666667,2|0,1:0|0:0,0:0:0:0:
439,345,66340,1,2,1:0:0:0:
380,269,66475,1,0,1:0:0:0:
212,122,66880,6,0,L|209:172,1,50.6666666666667,2|2,0:0|0:0,0:0:0:0:
284,67,67150,1,2,0:0:0:0:
284,67,67285,2,0,P|243:34|161:47,1,101.333333333333,2|2,0:0|0:0,0:0:0:0:
164,47,67691,2,0,L|25:31,1,101.333333333333,2|2,0:0|0:0,0:0:0:0:
160,145,68096,5,6,1:0:0:0:
160,145,68231,1,2,0:0:0:0:
160,145,68367,1,2,0:0:0:0:
103,220,68502,2,0,P|97:271|119:329,1,101.333333333333,2|0,0:0|0:0,0:0:0:0:
198,360,68907,2,0,L|205:304,2,50.6666666666667,10|2|2,0:0|0:0|0:0,0:0:0:0:
284,255,69312,1,2,0:0:0:0:
440,348,69583,5,0,1:0:0:0:
440,348,69718,2,0,L|449:288,1,50.6666666666667,2|2,1:0|0:0,0:0:0:0:
394,228,69988,1,2,0:0:0:0:
394,228,70123,2,0,P|412:168|404:97,1,101.333333333333,2|0,0:0|0:0,0:0:0:0:
338,65,70529,2,0,L|263:62,1,50.6666666666667,10|0,0:0|0:0,0:0:0:0:
512,28,70934,6,0,P|462:15|393:22,1,101.333333333333,0|0,0:0|0:0,0:0:0:0:
335,85,71340,6,0,L|320:190,1,101.333333333333,2|2,1:0|0:0,0:0:0:0:
234,242,71745,2,0,L|156:242,1,50.6666666666667,2|0,0:0|0:0,0:0:0:0:
105,185,72015,1,2,1:0:0:0:
83,210,72150,2,0,L|79:268,2,50.6666666666667,10|2|2,0:0|0:0|0:0,0:0:0:0:
9,145,72556,2,0,L|5:72,1,50.6666666666667,2|0,1:0|0:0,0:0:0:0:
82,43,72826,1,2,1:0:0:0:
125,65,72961,6,0,L|192:69,2,50.6666666666667,2|2|2,1:0|0:0|0:0,0:0:0:0:
255,121,73367,1,2,0:0:0:0:
295,108,73502,1,2,0:0:0:0:
335,104,73637,1,2,1:0:0:0:
419,164,73772,2,0,L|444:290,2,101.333333333333,10|2|2,0:0|1:0|1:0,0:0:0:0:
300,264,74583,5,6,1:0:0:0:
300,264,74718,1,2,0:0:0:0:
300,264,74853,1,2,0:0:0:0:
217,204,74988,2,0,P|147:201|96:230,1,101.333333333333,2|0,0:0|0:0,0:0:0:0:
54,278,75394,6,0,L|48:342,2,50.6666666666667,10|2|2,0:0|0:0|0:0,0:0:0:0:
4,193,75799,2,0,B|0:129|0:129|22:86,1,101.333333333333,2|0,0:0|1:0,0:0:0:0:
114,69,76204,5,2,1:0:0:0:
114,69,76340,1,2,0:0:0:0:
114,69,76475,1,2,0:0:0:0:
195,128,76610,2,0,P|251:143|314:122,1,101.333333333333,2|0,0:0|0:0,0:0:0:0:
377,79,77015,6,0,L|387:12,2,50.6666666666667,10|2|2,0:0|0:0|0:0,0:0:0:0:
462,175,77421,2,0,L|476:246,2,50.6666666666667,10|10|10,3:0|3:0|3:0,0:0:0:0:
376,303,77826,5,6,1:0:0:0:
376,303,77961,1,2,0:0:0:0:
376,303,78096,1,2,0:2:0:0:
293,253,78231,2,0,L|287:184,2,50.6666666666667,2|2|2,0:0|1:2|0:0,0:0:0:0:
224,328,78637,6,0,L|143:330,1,50.6666666666667,10|2,0:2|0:0,0:0:0:0:
103,276,78907,1,2,0:2:0:0:
89,244,79042,2,0,L|94:180,1,50.6666666666667,2|2,1:0|0:2,0:0:0:0:
159,128,79312,1,2,1:0:0:0:
146,92,79448,5,2,1:0:0:0:
210,72,81069,5,6,1:0:0:0:
210,72,81204,1,2,0:0:0:0:
210,72,81340,1,2,0:0:0:0:
290,127,81475,2,0,L|404:131,1,101.333333333333,2|0,0:0|0:0,0:0:0:0:
474,66,81880,5,10,0:0:0:0:
474,66,82015,1,2,0:0:0:0:
474,66,82150,1,2,0:0:0:0:
499,169,82285,2,0,L|518:278,1,101.333333333333,2|0,0:0|1:0,0:0:0:0:
402,242,82691,5,2,1:0:0:0:
377,238,82826,1,2,0:0:0:0:
351,240,82961,1,2,0:0:0:0:
285,310,83096,2,0,P|227:320|155:283,1,101.333333333333,2|0,0:0|0:0,0:0:0:0:
137,229,83502,2,0,L|144:155,1,50.6666666666667,10|2,0:0|0:0,0:0:0:0:
215,115,83772,1,2,0:0:0:0:
282,190,83907,6,0,B|317:236|317:236|361:196|344:115,1,152,2|0,0:0|0:0,0:0:0:0:
412,50,84312,6,0,P|450:95|495:117,1,101.333333333333,2|2,1:0|0:0,0:0:0:0:
312,60,84718,2,0,P|243:52|209:64,1,101.333333333333,2|2,0:0|1:0,0:0:0:0:
95,40,85123,6,0,P|41:62|11:129,1,101.333333333333,10|2,0:0|0:0,0:0:0:0:
46,190,85529,2,0,L|30:278,2,50.6666666666667,2|2|2,1:0|0:0|1:0,0:0:0:0:
105,294,85934,5,2,1:0:0:0:
258,221,86204,1,2,0:0:0:0:
258,221,86340,2,0,L|249:296,2,50.6666666666667,2|2|2,0:0|0:0|1:0,0:0:0:0:
340,306,86745,2,0,L|471:319,2,101.333333333333,10|2|2,0:0|1:0|1:0,0:0:0:0:
241,136,87556,5,6,1:0:0:0:
277,105,87691,1,2,0:0:0:0:
327,99,87826,1,2,0:0:0:0:
407,165,87961,2,0,L|424:267,1,101.333333333333,2|0,0:0|0:0,0:0:0:0:
333,321,88367,2,0,L|322:375,2,50.6666666666667,10|2|2,0:0|0:0|0:0,0:0:0:0:
278,230,88772,1,2,0:0:0:0:
97,321,89042,5,0,1:0:0:0:
97,321,89177,2,0,L|84:254,1,50.6666666666667,2|2,1:0|0:0,0:0:0:0:
146,199,89448,1,2,0:0:0:0:
146,199,89583,2,0,P|145:145|93:103,1,101.333333333333,2|0,0:0|0:0,0:0:0:0:
215,261,89988,2,0,L|312:256,2,50.6666666666667,10|2|2,0:0|0:0|0:0,0:0:0:0:
338,328,90394,5,10,3:0:0:0:
368,281,90529,1,8,3:0:0:0:
368,222,90664,1,8,3:0:0:0:
286,136,90799,6,0,L|288:63,2,50.6666666666667,2|2|2,1:0|0:0|0:0,0:0:0:0:
214,198,91204,2,0,P|150:215|92:197,1,101.333333333333,2|0,0:0|1:0,0:0:0:0:
45,131,91610,1,10,0:0:0:0:
45,131,91745,1,2,0:0:0:0:
45,131,91880,1,2,0:0:0:0:
113,64,92015,2,0,L|177:63,1,50.6666666666667,2|0,1:0|0:0,0:0:0:0:
256,115,92285,1,2,1:0:0:0:
357,53,92421,5,0,1:0:0:0:
