osu file format v14

[General]
AudioFilename: audio.mp3
AudioLeadIn: 0
PreviewTime: 55056
Countdown: 0
SampleSet: Soft
StackLeniency: 0.7
Mode: 0
LetterboxInBreaks: 0
WidescreenStoryboard: 0

[Editor]
DistanceSpacing: 1.1
BeatDivisor: 3
GridSize: 32
TimelineZoom: 1.1

[Metadata]
Title:Dead To Me (Instrumental)
TitleUnicode:Dead To Me (Instrumental)
Artist:Sex Whales & Fraxo
ArtistUnicode:Sex Whales & Fraxo
Creator:Sotarks
Version:Akitoshi's Normal
Source:
Tags:akitoshi -laura- corinn armin a_r_m_i_n naotoshi nao_tomori snownino_
BeatmapID:1609429
BeatmapSetID:764602

[Difficulty]
HPDrainRate:4
CircleSize:3.3
OverallDifficulty:4
ApproachRate:5
SliderMultiplier:1.3
SliderTickRate:1

[Events]
//Background and Video events
0,0,"generic_tokyoghoul_bg.jpg",0,0
//Break Periods
2,52080,53923
//Storyboard Layer 0 (Background)
//Storyboard Layer 1 (Fail)
//Storyboard Layer 2 (Pass)
//Storyboard Layer 3 (Foreground)
//Storyboard Sound Samples

[TimingPoints]
24313,405.405405405405,4,2,22,52,1,0
25934,-100,4,2,22,52,0,0
40529,-100,4,2,22,62,0,0
52961,-100,4,2,22,52,0,0
55056,-100,4,2,22,5,0,0
55123,-100,4,2,22,72,0,0
57150,-100,4,2,22,72,0,0
57961,-100,4,2,22,72,0,0
58299,-100,4,2,22,5,0,0
58367,-100,4,2,22,72,0,0
63637,-100,4,2,22,72,0,0
64042,-100,4,2,22,72,0,0
65258,-100,4,2,22,72,0,0
66069,-100,4,2,22,72,0,0
70123,-100,4,2,22,72,0,0
70934,-100,4,2,22,72,0,0
71272,-100,4,2,22,5,0,0
71340,-100,4,2,22,72,0,0
74988,-100,4,2,22,72,0,0
75799,-100,4,2,22,72,0,0
76610,-100,4,2,22,72,0,0
79448,-100,4,2,22,72,0,0
81002,-100,4,2,22,5,0,0
81069,-100,4,2,22,82,0,0
83907,-100,4,2,22,82,0,0
84312,-100,4,2,22,82,0,0
90394,-100,4,2,22,82,0,0
91204,-100,4,2,22,82,0,0

[Colours]
Combo1 : 255,251,174
Combo2 : 188,24,24
Combo3 : 107,52,52
SliderBorder : 255,255,255
SliderTrackOverride : 0,0,0

[HitObjects]
49,118,25934,6,0,P|97:103|192:157,1,130,6|0,1:0|0:0,0:0:0:0:
265,217,26745,2,0,L|399:208,1,130,10|2,0:0|0:0,0:0:0:0:
485,202,27421,1,0,1:0:0:0:
485,202,27556,2,0,P|496:139|468:65,1,130,2|0,1:0|0:0,0:0:0:0:
365,9,28367,1,10,0:0:0:0:
235,9,28772,1,2,0:0:0:0:
118,65,29177,6,0,L|122:202,1,130,2|0,1:0|0:0,0:0:0:0:
175,269,29853,1,0,1:0:0:0:
175,269,29988,2,0,P|233:256|313:283,1,130,10|2,0:0|0:0,0:0:0:0:
294,365,30664,1,0,1:0:0:0:
294,365,30799,2,0,P|230:377|169:359,1,130,2|2,1:0|0:0,0:0:0:0:
101,311,31475,1,0,1:0:0:0:
101,311,31610,2,0,L|93:200,1,86.6666666666667,10|2,0:0|1:0,0:0:0:0:
192,81,32421,6,0,B|271:77|249:128|336:123,1,130,2|0,1:0|0:0,0:0:0:0:
440,105,33231,2,0,P|461:168|442:240,1,130,10|2,0:0|0:0,0:0:0:0:
386,289,33907,1,0,1:0:0:0:
386,289,34042,2,0,P|323:268|251:287,1,130,2|0,1:0|0:0,0:0:0:0:
140,327,34853,1,10,0:0:0:0:
24,268,35258,1,2,0:0:0:0:
20,137,35664,6,0,P|75:108|150:117,1,130,2|0,1:0|0:0,0:0:0:0:
219,162,36340,1,0,1:0:0:0:
219,162,36475,2,0,L|355:152,1,130,10|2,0:0|0:0,0:0:0:0:
417,99,37150,1,0,1:0:0:0:
417,99,37285,2,0,P|369:48|293:38,1,130,2|2,1:0|0:0,0:0:0:0:
184,60,38096,2,0,L|89:57,1,86.6666666666667,2|2,0:0|0:0,0:0:0:0:
97,57,40529,6,0,P|88:108|101:160,1,86.6666666666667,6|0,1:0|0:0,0:0:0:0:
122,180,40934,2,0,P|131:231|118:283,1,86.6666666666667,0|0,0:0|0:0,0:0:0:0:
105,308,41340,2,0,L|252:317,1,130,10|2,0:0|0:0,0:0:0:0:
328,288,42015,1,0,1:0:0:0:
328,288,42150,2,0,P|337:244|334:193,1,86.6666666666667,2|0,1:0|0:0,0:0:0:0:
305,164,42556,2,0,P|296:120|299:69,1,86.6666666666667
302,31,42961,1,10,0:0:0:0:
443,9,43367,1,2,0:0:0:0:
506,137,43772,6,0,L|500:246,1,86.6666666666667,2|0,1:0|0:0,0:0:0:0:
492,270,44177,2,0,P|443:276|392:261,1,86.6666666666667,0|0,0:0|1:0,0:0:0:0:
366,242,44583,2,0,L|206:234,1,130,10|2,0:0|0:0,0:0:0:0:
144,233,45258,1,0,1:0:0:0:
144,233,45394,2,0,P|134:285|146:331,1,86.6666666666667,2|0,1:0|0:0,0:0:0:0:
162,359,45799,2,0,P|214:349|260:361,1,86.6666666666667,2|0,0:0|1:0,0:0:0:0:
291,369,46204,2,0,L|387:363,1,86.6666666666667,10|2,0:0|1:0,0:0:0:0:
487,207,47015,6,0,P|493:137|481:102,1,86.6666666666667,2|0,1:0|0:0,0:0:0:0:
468,78,47421,2,0,P|398:84|363:72,1,86.6666666666667,0|0,0:0|0:0,0:0:0:0:
343,53,47826,2,0,L|205:62,1,130,10|2,0:0|0:0,0:0:0:0:
121,77,48502,1,0,1:0:0:0:
121,77,48637,2,0,P|109:134|120:191,1,86.6666666666667,2|0,1:0|0:0,0:0:0:0:
144,196,49042,2,0,P|156:253|145:310,1,86.6666666666667,0|0,0:0|0:0,0:0:0:0:
138,326,49448,1,10,0:0:0:0:
12,256,49853,1,2,0:0:0:0:
144,196,50258,6,0,L|296:186,1,130,2|0,1:0|0:0,0:0:0:0:
372,179,50934,1,0,1:0:0:0:
372,179,51069,2,0,P|385:111|346:40,1,130,10|2,0:0|0:0,0:0:0:0:
280,18,51745,1,0,1:0:0:0:
280,18,51880,1,2,1:0:0:0:
133,135,55123,6,0,P|177:144|239:135,1,86.6666666666667,6|2,1:0|0:0,0:0:0:0:
260,118,55529,2,0,P|304:109|366:118,1,86.6666666666667,2|0,0:0|0:0,0:0:0:0:
389,128,55934,2,0,L|384:269,1,130,10|2,0:0|0:0,0:0:0:0:
330,337,56610,1,0,1:0:0:0:
330,337,56745,2,0,P|284:341|233:326,1,86.6666666666667,2|2,1:0|0:0,0:0:0:0:
212,297,57150,2,0,P|166:293|115:308,1,86.6666666666667,2|0,0:0|0:0,0:0:0:0:
86,328,57556,1,10,0:0:0:0:
4,210,57961,2,0,L|8:100,1,86.6666666666667,2|0,0:0|0:0,0:0:0:0:
11,75,58367,6,0,B|90:65|68:112|160:95,1,130,2|2,1:0|0:0,0:0:0:0:
221,54,59042,1,2,1:0:0:0:
221,54,59177,2,0,L|313:61,1,86.6666666666667,10|2,0:0|0:0,0:0:0:0:
355,64,59583,1,2,1:0:0:0:
429,132,59853,1,2,1:0:0:0:
429,132,59988,2,0,P|444:183|422:263,1,130,2|2,1:0|0:0,0:0:0:0:
338,287,60664,1,2,1:0:0:0:
338,287,60799,2,0,L|347:373,2,86.6666666666667,10|2|2,0:0|1:0|1:0,0:0:0:0:
278,212,61610,6,0,P|218:211|174:230,1,86.6666666666667,6|2,1:0|0:0,0:0:0:0:
150,240,62015,2,0,P|108:229|65:232,1,86.6666666666667,2|0,0:0|0:0,0:0:0:0:
19,245,62421,2,0,L|25:95,1,130,10|2,0:0|0:0,0:0:0:0:
72,35,63096,1,0,1:0:0:0:
72,35,63231,2,0,P|122:26|165:35,1,86.6666666666667,2|2,1:0|0:0,0:0:0:0:
195,60,63637,2,0,P|245:69|288:60,1,86.6666666666667,2|0,0:0|0:0,0:0:0:0:
323,44,64042,1,10,0:0:0:0:
448,113,64448,2,0,L|506:110,2,43.3333333333333,8|8|10,3:0|3:0|3:0,0:0:0:0:
412,144,64853,6,0,B|406:192|406:192|421:224|421:224|415:270,1,130,6|2,1:0|0:0,0:0:0:0:
363,350,65529,1,0,1:0:0:0:
363,350,65664,2,0,P|298:358|236:321,1,130,10|2,0:0|1:0,0:0:0:0:
201,249,66340,1,2,1:0:0:0:
201,249,66475,1,0,1:0:0:0:
201,249,68096,6,0,P|245:240|293:253,1,86.6666666666667,6|2,1:0|0:0,0:0:0:0:
329,267,68502,2,0,P|373:276|421:263,1,86.6666666666667,2|0,0:0|0:0,0:0:0:0:
452,239,68907,2,0,L|443:91,1,130,10|2,0:0|0:0,0:0:0:0:
393,35,69583,1,0,1:0:0:0:
393,35,69718,2,0,P|342:28|296:41,1,86.6666666666667,2|2,1:0|0:0,0:0:0:0:
267,60,70123,2,0,P|216:67|170:54,1,86.6666666666667,2|0,0:0|0:0,0:0:0:0:
136,43,70529,2,0,B|113:91|113:91|128:177,1,130,10|0,0:0|0:0,0:0:0:0:
140,265,71204,5,0,0:0:0:0:
140,265,71340,2,0,P|83:292|12:273,1,130,2|2,1:0|0:0,0:0:0:0:
4,189,72015,1,2,1:0:0:0:
4,189,72150,2,0,L|15:42,1,130,10|2,0:0|1:0,0:0:0:0:
108,31,72826,1,2,1:0:0:0:
108,31,72961,2,0,B|170:22|170:69|232:62,1,130,2|2,1:0|0:0,0:0:0:0:
326,40,73637,1,2,1:0:0:0:
326,40,73772,2,0,P|379:29|439:44,2,86.6666666666667,10|2|2,0:0|1:0|1:0,0:0:0:0:
301,132,74583,6,0,L|309:239,1,86.6666666666667,6|2,1:0|0:0,0:0:0:0:
314,265,74988,2,0,P|367:276|427:261,1,86.6666666666667,2|0,0:0|0:0,0:0:0:0:
445,261,75394,2,0,B|459:197|418:198|436:123,1,130,10|2,0:0|0:0,0:0:0:0:
449,42,76069,1,0,1:0:0:0:
449,42,76204,2,0,P|403:26|349:35,1,86.6666666666667,2|2,1:0|0:0,0:0:0:0:
321,46,76610,2,0,P|275:62|221:53,1,86.6666666666667,2|0,0:0|0:0,0:0:0:0:
194,39,77015,2,0,L|55:49,1,130,10|10,0:0|3:0,0:0:0:0:
14,130,77691,5,10,3:0:0:0:
14,130,77826,2,0,P|10:177|17:220,1,86.6666666666667,6|2,1:0|0:2,0:0:0:0:
34,259,78231,2,0,P|81:255|124:262,1,86.6666666666667,2|2,0:0|0:0,0:0:0:0:
159,287,78637,1,10,0:2:0:0:
293,335,79042,2,0,L|387:329,1,86.6666666666667,2|2,1:0|1:0,0:0:0:0:
427,326,79448,1,2,1:0:0:0:
427,326,81069,6,0,P|384:312|330:322,1,86.6666666666667,6|2,1:0|0:0,0:0:0:0:
300,338,81475,2,0,P|257:352|203:342,1,86.6666666666667,2|0,0:0|0:0,0:0:0:0:
172,329,81880,2,0,L|163:176,1,130,10|2,0:0|0:0,0:0:0:0:
158,108,82556,1,0,1:0:0:0:
158,108,82691,2,0,P|208:97|257:109,1,86.6666666666667,2|2,1:0|0:0,0:0:0:0:
285,122,83096,2,0,P|335:133|384:121,1,86.6666666666667,2|0,0:0|0:0,0:0:0:0:
415,115,83502,2,0,P|446:186|437:264,1,130,10|2,0:0|0:0,0:0:0:0:
334,327,84312,6,0,P|277:309|201:326,1,130,2|2,1:0|0:0,0:0:0:0:
121,349,84988,1,2,1:0:0:0:
121,349,85123,2,0,L|112:208,1,130,10|2,0:0|1:0,0:0:0:0:
109,127,85799,1,2,1:0:0:0:
109,127,85934,2,0,P|163:102|251:124,1,130,2|2,1:0|0:0,0:0:0:0:
315,168,86610,1,2,1:0:0:0:
315,168,86745,2,0,L|415:163,2,86.6666666666667,10|2|2,0:0|1:0|1:0,0:0:0:0:
258,245,87556,6,0,P|209:261|160:256,1,86.6666666666667,6|2,1:0|0:0,0:0:0:0:
131,238,87961,2,0,P|82:222|33:227,1,86.6666666666667,2|0,0:0|0:0,0:0:0:0:
0,235,88367,2,0,L|3:89,1,130,10|2,0:0|0:0,0:0:0:0:
68,36,89042,1,0,1:0:0:0:
68,36,89177,2,0,P|117:30|169:44,1,86.6666666666667,2|2,1:0|0:0,0:0:0:0:
196,58,89583,2,0,P|238:50|281:56,1,86.6666666666667,2|0,0:0|0:0,0:0:0:0:
320,83,89988,1,10,0:0:0:0:
423,181,90394,2,0,L|501:175,2,43.3333333333333,10|8|8,3:0|3:0|3:0,0:0:0:0:
379,199,90799,6,0,P|325:187|221:231,1,130,2|2,1:0|0:0,0:0:0:0:
171,252,91475,1,0,1:0:0:0:
171,252,91610,2,0,L|48:238,1,86.6666666666667,10|2,0:0|0:0,0:0:0:0:
38,230,92015,2,0,P|34:176|45:144,1,86.6666666666667,2|2,1:0|1:0,0:0:0:0:
67,103,92421,1,0,1:0:0:0:
