osu file format v14

[General]
AudioFilename: audio.mp3
AudioLeadIn: 0
PreviewTime: 55056
Countdown: 0
SampleSet: Soft
StackLeniency: 0.7
Mode: 0
LetterboxInBreaks: 0
WidescreenStoryboard: 0

[Editor]
DistanceSpacing: 0.6
BeatDivisor: 3
GridSize: 4
TimelineZoom: 2.6

[Metadata]
Title:Dead To Me (Instrumental)
TitleUnicode:Dead To Me (Instrumental)
Artist:Sex Whales & Fraxo
ArtistUnicode:Sex Whales & Fraxo
Creator:Sotarks
Version:A r M i N's Extra
Source:
Tags:akitoshi -laura- corinn armin a_r_m_i_n naotoshi nao_tomori snownino_
BeatmapID:1609741
BeatmapSetID:764602

[Difficulty]
HPDrainRate:5
CircleSize:3.8
OverallDifficulty:8.7
ApproachRate:9.2
SliderMultiplier:2.80000000596047
SliderTickRate:1

[Events]
//Background and Video events
0,0,"generic_tokyoghoul_bg.jpg",0,0
//Break Periods
2,38567,39959
2,53161,54553
//Storyboard Layer 0 (Background)
//Storyboard Layer 1 (Fail)
//Storyboard Layer 2 (Pass)
//Storyboard Layer 3 (Foreground)
//Storyboard Sound Samples

[TimingPoints]
24313,405.405405405405,4,2,22,52,1,0
25934,-200,4,2,22,52,0,0
40529,-133.333333333333,4,2,22,62,0,0
51880,-200,4,2,22,62,0,0
52961,-200,4,2,22,52,0,0
55056,-200,4,2,22,5,0,0
55123,-100,4,2,22,72,0,0
57961,-200,4,2,22,72,0,0
58299,-200,4,2,22,5,0,0
58367,-100,4,2,22,72,0,0
66880,-200,4,2,22,72,0,0
68096,-100,4,2,22,72,0,0
70934,-200,4,2,22,72,0,0
71272,-200,4,2,22,5,0,0
71340,-100,4,2,22,72,0,0
75799,-86.9565217391304,4,2,22,72,0,0
76610,-76.9230769230769,4,2,22,72,0,0
77826,-100,4,2,22,72,0,0
81069,-83.3333333333333,4,2,22,82,0,0
83907,-200,4,2,22,82,0,0
84312,-83.3333333333333,4,2,22,82,0,0

[Colours]
Combo1 : 255,251,174
Combo2 : 188,24,24
Combo3 : 107,52,52
SliderBorder : 255,255,255
SliderTrackOverride : 0,0,0

[HitObjects]
106,39,25934,6,0,P|189:43|231:89,1,140.000000298024,6|0,1:0|0:0,0:0:0:0:
406,116,26745,2,0,P|337:113|285:157,1,140.000000298024,10|2,0:0|0:0,0:0:0:0:
327,326,27421,5,0,1:0:0:0:
327,326,27556,2,0,P|371:274|369:206,1,140.000000298024,2|0,1:0|0:0,0:0:0:0:
195,121,28367,2,0,P|192:189|236:241,1,140.000000298024,10|2,0:0|0:0,0:0:0:0:
423,177,29177,6,0,L|284:157,1,140.000000298024,2|0,1:0|0:0,0:0:0:0:
171,279,29853,1,0,1:0:0:0:
171,279,29988,2,0,L|310:259,1,140.000000298024,10|2,0:0|0:0,0:0:0:0:
321,67,30664,5,0,1:0:0:0:
321,67,30799,2,0,L|228:78,1,93.3333335320157,2|0,1:0|0:0,0:0:0:0:
192,169,31204,2,0,L|143:163,1,46.6666667660078,2|0,0:0|0:0,0:0:0:0:
49,151,31475,1,0,1:0:0:0:
125,288,31610,2,0,P|167:267|213:267,1,93.3333335320157,10|2,0:0|1:0,0:0:0:0:
406,345,32421,6,0,P|323:341|281:295,1,140.000000298024,2|0,1:0|0:0,0:0:0:0:
106,268,33232,2,0,P|175:271|227:227,1,140.000000298024,10|2,0:0|0:0,0:0:0:0:
185,58,33908,5,0,1:0:0:0:
185,58,34043,2,0,P|141:110|143:178,1,140.000000298024,2|0,1:0|0:0,0:0:0:0:
317,263,34854,2,0,P|320:195|276:143,1,140.000000298024,10|0,0:0|0:0,0:0:0:0:
89,207,35664,6,0,L|228:227,1,140.000000298024,2|0,1:0|0:0,0:0:0:0:
341,105,36340,1,0,1:0:0:0:
341,105,36475,2,0,L|202:125,1,140.000000298024,10|2,0:0|0:0,0:0:0:0:
191,317,37151,5,0,1:0:0:0:
191,317,37286,2,0,L|284:306,1,93.3333335320157,2|0,1:0|0:0,0:0:0:0:
412,226,37691,2,0,L|320:215,1,93.3333335320157,2|0,0:0|0:0,0:0:0:0:
174,144,38096,1,2,0:0:0:0:
367,78,38367,1,2,0:0:0:0:
245,18,40529,6,0,P|230:129|212:229,1,210.0000084579,6|0,1:0|0:0,0:0:0:0:
152,302,41069,1,0,0:0:0:0:
244,335,41204,1,0,0:0:0:0:
117,211,41340,2,0,L|48:227,1,70.0000028193,10|0,0:0|0:0,0:0:0:0:
95,116,41610,1,0,0:0:0:0:
212,225,41745,2,0,L|281:241,1,70.0000028193,2|0,0:0|0:0,0:0:0:0:
233,130,42015,1,0,1:0:0:0:
152,302,42150,6,0,B|262:279|233:379|344:357,1,210.0000084579,2|0,1:0|0:0,0:0:0:0:
414,290,42691,1,0,0:0:0:0:
466,372,42826,1,0,0:0:0:0:
322,262,42961,2,0,L|338:193,1,70.0000028193,10|0,0:0|0:0,0:0:0:0:
362,99,43231,1,0,0:0:0:0:
213,167,43367,2,0,L|229:236,1,70.0000028193,2|0,0:0|0:0,0:0:0:0:
253,330,43637,1,0,0:0:0:0:
115,167,43772,6,0,P|166:81|266:85,1,210.0000084579,2|0,1:0|0:0,0:0:0:0:
327,161,44312,1,0,0:0:0:0:
379,78,44448,1,0,1:0:0:0:
231,176,44583,2,0,P|237:210|249:243,1,70.0000028193,10|0,0:0|0:0,0:0:0:0:
309,319,44853,1,0,0:0:0:0:
154,268,44988,2,0,P|119:274|86:286,1,70.0000028193,2|0,0:0|0:0,0:0:0:0:
21,358,45258,1,0,1:0:0:0:
61,192,45394,6,0,L|89:54,1,140.0000056386,2|0,1:0|0:0,0:0:0:0:
178,14,45799,2,0,P|184:48|196:81,1,70.0000028193,2|0,0:0|0:0,0:0:0:0:
267,147,46069,1,0,1:0:0:0:
126,225,46204,2,0,P|148:198|175:176,1,70.0000028193,10|0,0:0|0:0,0:0:0:0:
294,292,46475,2,0,P|272:265|246:243,1,70.0000028193,2|0,1:0|0:0,0:0:0:0:
175,309,46745,1,0,0:0:0:0:
175,309,46880,1,0,0:0:0:0:
267,147,47015,6,0,B|343:135|343:135|399:159|399:159|475:147,1,210.0000084579,2|0,1:0|0:0,0:0:0:0:
505,57,47556,1,0,0:0:0:0:
425,2,47691,1,0,0:0:0:0:
470,147,47826,2,0,L|454:216,1,70.0000028193,10|0,0:0|0:0,0:0:0:0:
423,307,48096,1,0,0:0:0:0:
312,221,48231,2,0,L|328:290,1,70.0000028193,2|0,0:0|0:0,0:0:0:0:
359,381,48501,1,0,1:0:0:0:
373,145,48637,6,0,P|291:126|216:212,1,210.0000084579,2|0,1:0|0:0,0:0:0:0:
130,156,49177,1,0,0:0:0:0:
78,239,49312,1,0,0:0:0:0:
65,2,49448,2,0,P|78:35|84:70,1,70.0000028193,10|0,0:0|0:0,0:0:0:0:
33,153,49718,1,0,0:0:0:0:
199,5,49853,2,0,P|186:38|181:73,1,70.0000028193,2|0,0:0|0:0,0:0:0:0:
200,169,50123,1,0,0:0:0:0:
314,35,50258,6,0,P|392:9|443:107,1,210.0000084579,2|0,1:0|0:0,0:0:0:0:
389,187,50799,1,0,0:0:0:0:
469,243,50934,1,0,1:0:0:0:
308,133,51069,2,0,L|239:149,1,70.0000028193,10|0,0:0|0:0,0:0:0:0:
195,235,51340,1,0,0:0:0:0:
124,48,51475,2,0,L|193:64,1,70.0000028193,2|0,0:0|0:0,0:0:0:0:
143,152,51745,1,0,1:0:0:0:
195,235,51880,6,0,L|288:224,1,93.3333335320157,2|0,1:0|0:0,0:0:0:0:
416,144,52285,2,0,L|324:133,1,93.3333335320157,2|0,0:0|0:0,0:0:0:0:
178,62,52691,1,2,0:0:0:0:
287,224,52961,1,2,0:0:0:0:
96,371,55123,5,6,1:0:0:0:
146,288,55258,1,2,0:0:0:0:
193,373,55394,1,2,0:0:0:0:
50,285,55529,2,0,B|18:168|18:168|49:110,1,186.666667064031,2|0,0:0|0:0,0:0:0:0:
201,123,55934,5,10,0:0:0:0:
122,180,56069,1,2,0:0:0:0:
210,220,56204,1,2,0:0:0:0:
157,36,56340,2,0,B|246:-2|246:75|337:36,1,186.666667064031,2|0,0:0|1:0,0:0:0:0:
479,126,56745,5,2,1:0:0:0:
382,122,56880,1,2,0:0:0:0:
434,39,57015,1,2,0:0:0:0:
427,208,57150,2,0,B|363:216|363:216|307:200|307:200|243:208,1,186.666667064031,2|0,0:0|0:0,0:0:0:0:
151,353,57556,2,0,P|240:365|301:299,1,186.666667064031,10|0,0:0|0:0,0:0:0:0:
242,117,57961,6,0,B|231:164|231:164|244:209,1,93.3333335320157,2|0,0:0|0:0,0:0:0:0:
300,299,58367,5,2,1:0:0:0:
340,210,58502,1,0,0:0:0:0:
396,290,58637,1,2,0:0:0:0:
243,207,58772,5,2,0:0:0:0:
387,125,58907,1,0,0:0:0:0:
396,290,59042,1,2,1:0:0:0:
291,123,59177,6,0,P|239:109|193:124,1,93.3333335320157,10|2,0:0|0:0,0:0:0:0:
147,198,59448,1,2,0:0:0:0:
184,22,59583,5,2,1:0:0:0:
243,207,59718,1,0,0:0:0:0:
281,24,59853,1,2,1:0:0:0:
147,198,59988,6,0,L|168:288,1,93.3333335320157,2|2,1:0|0:0,0:0:0:0:
233,362,60258,1,0,0:0:0:0:
287,144,60394,6,0,L|266:234,1,93.3333335320157,2|2,0:0|0:0,0:0:0:0:
318,316,60664,1,2,1:0:0:0:
168,288,60799,6,0,L|78:309,1,93.3333335320157,10|0,0:0|0:0,0:0:0:0:
193,157,61069,2,0,L|283:178,1,93.3333335320157,2|0,1:0|0:0,0:0:0:0:
168,26,61340,2,0,L|78:47,1,93.3333335320157,2|0,1:0|0:0,0:0:0:0:
49,214,61610,5,6,1:0:0:0:
111,139,61745,1,2,0:0:0:0:
16,122,61880,1,2,0:0:0:0:
145,231,62015,2,0,B|240:213|222:289|320:271,1,186.666667064031,2|0,0:0|0:0,0:0:0:0:
364,108,62421,5,10,0:0:0:0:
295,177,62556,1,2,0:0:0:0:
388,203,62691,1,2,0:0:0:0:
270,82,62826,2,0,B|212:51|212:51|95:83,1,186.666667064031,2|0,0:0|1:0,0:0:0:0:
69,249,63231,5,2,1:0:0:0:
131,174,63367,1,2,0:0:0:0:
35,158,63502,1,2,0:0:0:0:
165,265,63637,2,0,B|280:239|280:239|308:263|314:298,1,186.666667064031,2|0,0:0|0:0,0:0:0:0:
225,151,64042,2,0,P|224:78|331:19,1,186.666667064031,10|0,0:0|0:0,0:0:0:0:
441,62,64448,5,8,3:0:0:0:
425,158,64583,1,8,3:0:0:0:
409,254,64718,1,10,3:0:0:0:
350,96,64853,5,6,1:0:0:0:
425,158,64988,1,2,0:0:0:0:
335,193,65123,1,2,0:0:0:0:
441,62,65258,5,2,0:0:0:0:
409,254,65394,1,0,0:0:0:0:
260,132,65529,1,0,1:0:0:0:
228,324,65664,6,0,L|138:303,1,93.3333335320157,10|2,0:0|0:0,0:0:0:0:
112,115,65934,1,2,0:0:0:0:
12,233,66069,6,0,L|102:212,1,93.3333335320157,2|0,1:0|0:0,0:0:0:0:
205,88,66340,1,2,1:0:0:0:
290,171,66475,1,0,1:0:0:0:
290,171,66880,6,0,L|335:162,2,46.6666667660078,2|2|2,0:0|0:0|0:0,0:0:0:0:
231,247,67285,2,0,P|279:268|320:263,1,93.3333335320157,2|2,0:0|0:0,0:0:0:0:
317,78,67691,2,0,P|270:74|229:94,1,93.3333335320157,2|2,0:0|0:0,0:0:0:0:
290,171,68096,5,6,1:0:0:0:
384,148,68231,1,2,0:0:0:0:
317,78,68367,1,2,0:0:0:0:
337,257,68502,2,0,B|246:296|246:219|157:257,1,186.666667064031,2|0,0:0|0:0,0:0:0:0:
23,358,68907,5,10,0:0:0:0:
119,346,69042,1,2,0:0:0:0:
61,268,69177,1,2,0:0:0:0:
203,171,69312,2,0,P|276:170|335:277,1,186.666667064031,2|0,0:0|1:0,0:0:0:0:
501,225,69718,5,2,1:0:0:0:
428,289,69853,1,2,0:0:0:0:
410,192,69988,1,2,0:0:0:0:
355,353,70123,2,0,B|297:322|297:322|180:354,1,186.666667064031,2|0,0:0|0:0,0:0:0:0:
88,184,70529,2,0,B|179:148|179:148|222:165|234:212,1,186.666667064031,10|0,0:0|0:0,0:0:0:0:
88,381,70934,6,0,B|76:338|76:338|87:291,1,93.3333335320157,0|0,0:0|0:0,0:0:0:0:
234,212,71340,5,2,1:0:0:0:
184,295,71475,1,0,0:0:0:0:
139,209,71610,1,2,0:0:0:0:
281,297,71745,5,2,0:0:0:0:
87,291,71880,1,0,0:0:0:0:
189,126,72015,1,2,1:0:0:0:
184,295,72150,6,0,P|196:344|226:377,1,93.3333335320157,10|2,0:0|0:0,0:0:0:0:
281,297,72421,1,2,0:0:0:0:
87,291,72556,5,2,1:0:0:0:
234,212,72691,1,0,0:0:0:0:
52,166,72826,1,2,1:0:0:0:
273,123,72961,6,0,L|363:144,1,93.3333335320157,2|2,1:0|0:0,0:0:0:0:
440,205,73231,1,2,0:0:0:0:
236,254,73367,6,0,L|326:233,1,93.3333335320157,2|2,0:0|0:0,0:0:0:0:
401,294,73637,1,2,1:0:0:0:
456,116,73772,6,0,P|458:162|440:205,1,93.3333335320157,10|0,0:0|0:0,0:0:0:0:
235,168,74042,2,0,P|273:142|319:138,1,93.3333335320157,2|0,1:0|0:0,0:0:0:0:
391,334,74312,2,0,P|349:312|322:275,1,93.3333335320157,2|0,1:0|0:0,0:0:0:0:
377,59,74583,5,6,1:0:0:0:
319,138,74718,1,2,0:0:0:0:
415,149,74853,1,2,0:0:0:0:
281,48,74988,2,0,B|217:40|217:40|161:56|161:56|97:48,1,186.666667064031,2|0,0:0|0:0,0:0:0:0:
38,208,75394,5,10,0:0:0:0:
113,145,75529,1,2,0:0:0:0:
23,111,75664,1,2,0:0:0:0:
141,255,75799,2,0,B|251:237|225:330|338:312,1,214.666671218078,2|0,0:0|1:0,0:0:0:0:
401,126,76204,5,2,1:0:0:0:
315,201,76340,1,2,0:0:0:0:
423,237,76475,1,2,0:0:0:0:
287,82,76610,2,0,P|178:62|102:166,1,242.666656074843,2|0,0:0|0:0,0:0:0:0:
174,332,77015,5,10,0:0:0:0:
215,170,77150,1,2,0:0:0:0:
168,356,77285,1,2,0:0:0:0:
114,199,77421,5,10,3:0:0:0:
292,244,77556,1,10,3:0:0:0:
87,192,77691,1,10,3:0:0:0:
287,82,77826,6,0,P|332:72|376:86,1,93.3333335320157,6|2,1:0|0:0,0:0:0:0:
425,171,78096,1,2,0:2:0:0:
328,170,78231,5,2,0:0:0:0:
474,87,78367,1,2,1:2:0:0:
478,253,78502,1,2,0:0:0:0:
376,86,78637,6,0,P|332:72|287:82,1,93.3333335320157,10|2,0:2|0:0,0:0:0:0:
231,162,78907,1,2,0:2:0:0:
328,170,79042,5,2,1:0:0:0:
191,73,79178,1,2,0:2:0:0:
173,240,79313,1,2,1:0:0:0:
231,162,79448,5,2,1:0:0:0:
256,192,79583,12,0,80529,0:0:0:0:
343,120,81069,5,6,1:0:0:0:
283,211,81204,1,2,0:0:0:0:
390,217,81340,1,2,0:0:0:0:
236,112,81475,2,0,B|86:138|86:138|154:164,1,223.9999936409,2|0,0:0|0:0,0:0:0:0:
283,211,81880,5,10,0:0:0:0:
190,265,82015,1,2,0:0:0:0:
281,319,82150,1,2,0:0:0:0:
190,155,82285,2,0,B|216:5|216:5|242:73,1,223.9999936409,2|0,0:0|1:0,0:0:0:0:
391,213,82691,5,2,1:0:0:0:
283,211,82826,1,2,0:0:0:0:
339,119,82961,1,2,0:0:0:0:
325,299,83096,2,0,B|241:333|241:265|157:299|157:299|173:323|201:335,1,223.9999936409,2|0,0:0|0:0,0:0:0:0:
283,211,83502,5,10,0:0:0:0:
180,183,83637,1,2,0:0:0:0:
207,289,83772,1,2,0:0:0:0:
256,105,83907,6,0,B|299:93|299:93|346:104,1,93.3333335320157,2|0,0:0|0:0,0:0:0:0:
468,212,84312,6,0,B|430:263|430:263|346:265|283:211,1,223.9999936409,2|2,1:0|0:0,0:0:0:0:
155,67,84718,2,0,L|127:184,1,111.99999682045,2|2,0:0|0:0,0:0:0:0:
184,303,84988,1,2,1:0:0:0:
256,105,85123,6,0,B|319:51|403:53|403:53|441:104,1,223.9999936409,10|2,0:0|0:0,0:0:0:0:
382,275,85529,2,0,L|357:166,1,111.99999682045,2|2,1:0|0:0,0:0:0:0:
256,105,85799,1,2,1:0:0:0:
207,326,85934,6,0,B|323:303|301:397|417:374,1,223.9999936409,2|2,1:0|0:0,0:0:0:0:
504,311,86340,1,2,0:0:0:0:
407,165,86475,2,0,L|382:274,1,111.99999682045,2|2,0:0|1:0,0:0:0:0:
256,105,86745,6,0,L|365:80,1,111.99999682045,10|0,0:0|0:0,0:0:0:0:
206,210,87015,2,0,L|97:185,1,111.99999682045,2|0,1:0|0:0,0:0:0:0:
256,315,87285,2,0,L|365:290,1,111.99999682045,2|0,1:0|0:0,0:0:0:0:
365,79,87556,5,6,1:0:0:0:
309,171,87691,1,2,0:0:0:0:
417,175,87826,1,2,0:0:0:0:
241,90,87961,2,0,B|193:146|193:146|245:294,1,223.9999936409,2|0,0:0|0:0,0:0:0:0:
56,347,88367,5,10,0:0:0:0:
121,261,88502,1,2,0:0:0:0:
163,361,88637,1,2,0:0:0:0:
16,246,88772,2,0,P|33:132|52:20,1,223.9999936409,2|0,0:0|1:0,0:0:0:0:
242,81,89177,5,2,1:0:0:0:
141,121,89312,1,2,0:0:0:0:
156,16,89448,1,2,0:0:0:0:
225,189,89583,2,0,P|324:173|402:266,1,223.9999936409,2|0,0:0|0:0,0:0:0:0:
252,292,89988,5,10,0:0:0:0:
149,264,90123,1,2,0:0:0:0:
176,367,90258,1,2,0:0:0:0:
93,165,90394,5,10,3:0:0:0:
66,268,90529,1,8,3:0:0:0:
39,371,90664,1,8,3:0:0:0:
225,189,90799,6,0,L|250:80,1,111.99999682045,2|2,1:0|0:0,0:0:0:0:
361,163,91069,1,2,0:0:0:0:
149,264,91204,5,2,0:0:0:0:
250,79,91340,1,0,0:0:0:0:
309,256,91475,1,0,1:0:0:0:
116,164,91610,6,2,L|225:189,1,111.99999682045,10|2,0:0|0:0,0:0:0:0:
361,163,91880,1,2,0:0:0:0:
324,364,92015,5,2,1:0:0:0:
225,189,92150,1,0,0:0:0:0:
417,255,92285,1,2,1:0:0:0:
309,256,92421,5,0,1:0:0:0:
